#TITLE:Lum no Love Song;
#SUBTITLE:[8-bit remix];
#ARTIST:momo-i;
#TITLETRANSLIT:;
#SUBTITLETRANSLIT:;
#ARTISTTRANSLIT:;
#CREDIT:;
#BANNER:lumlove.png;
#BACKGROUND:lumlove-bg.png;
#LYRICSPATH:;
#CDTITLE:!hiryuu.png;
#MUSIC:lumlove.ogg;
#OFFSET:0.000;
#SAMPLESTART:5.293;
#SAMPLELENGTH:21.143;
#SELECTABLE:YES;
#BPMS:0.000=181.600,244.000=90.800,248.000=181.600;
#STOPS:140.000=0.330
,141.000=0.330
,236.000=0.330
,243.000=0.330
;
#BGCHANGES:;

//---------------dance-single - SMANIAC----------------
#NOTES:
     dance-single:
     SMANIAC:
     Challenge:
     10:
     0.869,1.000,0.969,0.291,0.269:
1000
0010
1000
0010
1000
0001
1000
0001
0100
0001
0100
0001
0010
0001
0010
0001
,
0100
0010
0100
0010
1000
0100
1000
0100
1000
0010
1000
0010
0100
0001
0100
0001
,
0010
0001
0010
0001
0100
0010
0100
0010
1000
0100
1000
0100
1000
0010
1000
0010
,
0100
0001
0100
0001
1000
0001
1000
0001
1000
0100
0010
0001
0010
0100
1000
0001
,
1001
0000
0001
0100
0110
0010
1000
0100
,
1100
0100
1000
2200
0000
0000
3300
0000
,
1001
0001
0100
0010
0110
0100
0001
0010
,
0011
0011
0011
0022
0000
0000
0033
0000
,
0011
0001
0010
0100
1010
1000
0010
0100
,
0101
0001
1000
2002
0000
0000
3003
0000
,
1010
0010
1000
0001
0101
0001
1000
0001
,
1001
1001
0110
0110
M00M
0MM0
0000
0000
,
1000
0000
0001
0000
1001
0000
0000
0000
1000
0001
1000
0001
1000
0000
0000
0000
,
0010
0100
0110
0000
0100
0001
1001
0000
,
1000
0000
0010
0000
1010
0000
0000
0000
1000
0010
1000
0010
1000
0000
0000
0000
,
0001
0000
0100
0000
0101
0000
0000
0000
0001
0010
0100
0010
0001
0000
0000
0000
,
0010
0000
0001
0000
0011
0000
0000
0000
0010
0001
0010
0001
0010
0000
0000
0000
,
1000
0100
1100
0000
1000
0100
0110
0000
,
0100
0000
1000
0000
1100
0000
0000
0000
1000
0100
1000
0100
1000
0000
0000
0000
,
0010
0100
0110
0000
M2MM
0000
M31M
0000
,
0010
1000
0100
0001
0100
1000
0010
0001
,
00M0
0001
0010
1000
0100
0001
0100
1000
,
0010
0100
0001
0010
1000
0010
0001
0100
,
M000
0100
0001
0010
1000
0010
0001
0100
,
1000
0010
0100
0001
0010
0100
1000
0001
,
M000
0001
1000
0100
0010
0001
0100
0010
,
1000
0100
1000
0001
0010
0001
0100
0010
,
0M00
0010
0100
0001
0010
0001
1000
0100
,
1000
0000
1001
0000
0001
0100
0000
0101
,
0000
0011
0000
0001
0010
0000
0110
0000
,
0100
1000
0000
1000
0010
0000
0010
0100
,
00M0
0100
0001
0010
0100
1000
0001
0010
,
0001
0000
0011
0000
0010
0001
0000
0101
,
0000
0110
0000
0010
1000
0000
1000
0100
,
0010
0000
0010
0001
0000
0011
0000
0001
,
1001
2000
3001
0011
,
0010
0100
0000
1100
0000
0100
1000
0010
,
0100
0000
0011
0000
0020
0000
0031
0020
,
0000
0000
0031
0100
0000
0110
0000
1000
,
0010
1000
0001
1001
,
1000
0010
0000
1010
0000
0010
0100
0001
,
0010
0000
0110
0000
0010
0000
0100
0020
,
0000
0000
0130
0010
0000
0011
0000
0001
,
0100
0010
1000
1010
,
0010
1000
0000
1001
0000
1000
0100
0010
,
0001
0000
0100
0000
1010
0000
1000
0020
,
0000
0000
1030
0020
0000
1030
0000
0010
,
0100
0001
0010
0011
,
0001
0100
0000
0110
0000
0010
1000
0100
,
0010
0000
0011
0000
2002
0000
0000
3003
,
0220
0000
0000
0000
0000
0000
0000
0330
1000
0000
0100
0000
0010
0000
0002
0000
,
2000
0000
3003
0000
0001
0000
0101
0001
,
0010
0100
1100
0010
0110
0100
0010
0220
,
0000
0000
0000
0330
0010
1000
1100
0100
,
0010
0001
0101
0001
1001
1000
0001
2002
,
0000
0000
0000
3003
0001
0010
0011
0001
,
0100
0010
1010
1000
1100
0100
1000
2200
,
0000
0000
0000
3300
1100
0100
1000
0100
,
1001
0001
1000
0001
0011
0011
1100
1100
,
0000
0000
1010
0010
1000
0010
0110
0010
,
0100
0010
0110
0110
1001
1001
0000
0000
,
1000
0100
0001
0100
1000
0010
0001
0010
,
1000
0000
0001
0000
1001
0000
0000
0000
0001
1000
0001
1000
0001
0000
0000
0000
,
0100
0010
0110
0000
0010
1000
1001
0000
,
0001
0000
0010
0000
0011
0000
0000
0000
0010
0001
0010
0001
0010
0000
0000
0000
,
1000
0100
1100
0000
0000
MM00
00MM
0000
,
1001
1001
1001
1001
0000
0110
0000
1001
,
0001
0010
0100
1000
0100
0010
0001
2000
0002
0000
0000
0000
3003
0000
0000
0000
;

//---------------dance-single - MANIAC----------------
#NOTES:
     dance-single:
     MANIAC:
     Hard:
     8:
     0.546,0.654,0.237,0.269,0.000:
0000
0000
0000
0000
,
0000
0000
0000
0000
,
0000
0000
0000
0000
,
0000
0000
0000
0000
,
1000
0000
0001
0100
0001
1000
0100
1000
,
0010
0100
0001
0020
0000
0000
0000
0000
,
0031
0010
0100
1000
0010
0100
0001
0100
,
0010
1000
0100
0020
0000
0000
0000
0000
,
0031
0010
0100
1000
0100
1000
0010
0100
,
0001
0010
0001
0020
0000
0000
0000
0000
,
0031
0100
1000
0100
0001
0010
1000
0010
,
0001
1000
0001
1000
0000
M00M
0000
0000
,
1000
0001
1001
0000
1000
0001
1000
0000
,
0010
0100
0110
0000
0010
0100
0010
0000
,
1000
0100
1100
0000
1000
0100
1000
0000
,
0001
0010
0011
0000
0001
0010
0001
0000
,
0001
0010
0110
0000
0010
0100
1000
0000
,
1000
0010
0110
0000
0010
0100
0001
0000
,
0001
0010
0110
0000
0100
1000
0010
0000
,
0100
0001
0011
0000
MM22
0033
MM11
0000
,
0001
0000
0100
0000
0001
0000
0100
0001
,
0000
0100
0000
0001
0100
0000
0001
0100
,
0001
0000
0100
0002
0000
0000
0010
0000
,
0000
0100
0000
1000
,
0103
0000
1000
0000
0100
1000
0000
0100
,
0000
1000
0000
0100
1000
0000
0100
0000
,
1000
0000
0100
2000
0000
0000
0100
0000
,
0000
0010
0000
0001
,
3001
0000
0100
0000
1000
0100
0000
0001
,
0000
0010
0000
1000
0010
0000
0001
0000
,
0010
0001
0000
0100
0010
0000
1000
0100
,
0000
1000
0010
0001
,
0010
0000
0100
0000
0001
1000
0000
0100
,
0000
0010
0000
0001
1000
0000
0001
0010
,
0001
0000
0100
0010
0000
1000
0000
0010
,
0100
0110
0220
0000
,
0000
0000
0000
0030
0000
0310
1000
0100
,
0010
0000
0001
0000
1001
0000
0001
2000
,
0001
0000
0100
0000
,
0010
0000
3001
0000
0010
0000
0002
0200
,
0000
0000
0000
0003
0000
0301
0010
0100
,
1000
0000
1001
0000
0001
0000
1000
0002
,
0010
0000
1000
0000
,
0100
1003
2020
0000
,
0000
0000
0000
0030
0000
3010
0100
0001
,
0010
0000
0110
0000
0100
0000
1000
0020
,
0000
0030
0010
0200
0000
0000
0010
0000
,
0000
0000
0310
0000
1000
0000
0200
0020
,
0000
0000
0000
0300
0000
0031
0100
0010
,
1000
0001
2000
0000
,
0010
0000
0002
0000
,
0000
0000
3003
0000
1000
0000
0100
1000
,
0010
0100
0001
0010
0001
0100
0010
2000
,
0000
0000
0000
0000
3001
0010
0100
0010
,
0001
1000
0100
0010
0100
1000
0001
0020
,
0000
0000
0000
0000
0031
0100
1000
0100
,
0001
0010
1000
0010
0001
1000
0001
2000
,
0000
0000
0000
0000
3010
0100
0001
0010
,
0100
1000
0010
0100
0001
1000
0001
1001
,
0000
0000
1000
0100
0010
0001
0100
0010
,
1000
0001
0010
0100
0010
0110
0000
0000
,
0010
0010
0100
0100
1000
1000
0001
0001
,
1000
0001
1001
0000
1000
0001
1000
0000
,
0010
0100
0110
0000
0010
0100
0010
0000
,
1000
0100
1100
0000
1000
0100
1000
0000
,
0001
0010
0011
0000
00MM
0000
0000
0000
,
1000
0100
0010
0001
0000
0100
0000
0010
,
2000
0000
3001
0000
;

//---------------dance-single - TRICKY----------------
#NOTES:
     dance-single:
     TRICKY:
     Medium:
     5:
     0.286,0.363,0.226,0.118,0.000:
0000
0000
0000
0000
,
0000
0000
0000
0000
,
0000
0000
0000
0000
,
0000
0000
0000
0000
,
1000
0000
1100
0000
,
1000
0000
0000
1001
0000
0000
0000
0000
,
0001
0000
0011
0000
,
0001
0000
0000
1001
0000
0000
0000
0000
,
1000
0000
1100
0000
,
0100
0000
0000
0110
0000
0000
0000
0000
,
0010
0000
0011
0000
,
0011
0011
0000
0000
,
0001
0001
1000
1000
,
0010
0010
0100
0110
,
0010
0010
1000
1000
,
0100
0100
0010
0001
,
1000
1000
0001
0001
,
0100
0100
0010
1010
,
1000
1000
0100
0100
,
0010
0010
0002
0000
,
1003
0000
0100
0000
,
0001
0000
0100
0000
,
1000
0000
0010
0000
,
0001
0000
0010
0000
,
1000
0000
0100
0000
,
0010
0000
0001
0000
,
0010
0000
0100
0000
,
1000
0000
0001
0000
,
1000
0000
0010
0000
,
0100
0000
0001
0000
,
0010
0000
0100
0000
,
1000
0000
0010
0000
,
0100
0000
0001
0000
,
0010
0000
0100
0000
,
1000
0000
0000
0001
0000
1000
0000
0001
,
1000
0001
2000
0000
,
0000
3000
0000
1000
,
0100
0000
0010
0000
0001
0000
0000
2000
,
0000
0000
0000
0000
,
3000
0000
0002
0000
,
0000
0003
0000
0001
,
0010
0000
0100
0000
1000
0000
0000
0002
,
0000
0000
0000
0000
,
0003
0000
0200
0000
,
0000
0300
0000
0010
,
1000
0001
0010
0000
,
0100
0000
2000
0000
,
0000
3000
0020
0000
,
0000
0030
0000
0100
,
0001
1000
2002
0000
,
0000
0000
3003
0000
,
0000
0000
1000
0000
,
1100
0000
0000
0000
0100
0000
0000
0110
,
0000
0000
0010
0000
,
0011
0000
0000
0000
0001
0000
0000
0101
,
0000
0000
0100
0000
,
0110
0000
0000
0000
0010
0000
0000
1010
,
0000
0000
1000
0000
,
1001
0000
0000
0000
1000
0001
1000
0001
,
0000
0100
0000
0110
,
0000
0000
0010
0100
0010
0100
0000
0000
,
0010
0010
0100
0100
,
0001
0001
0010
0010
,
0100
0100
1000
0001
,
1000
1000
0100
0100
,
0010
0010
0011
0000
,
0001
0000
0000
1000
0000
0001
0000
1000
,
0002
0000
1003
0000
;

//---------------dance-single - BASIC----------------
#NOTES:
     dance-single:
     BASIC:
     Easy:
     3:
     0.186,0.254,0.054,0.151,0.000:
0000
0000
0000
0000
,
0000
0000
0000
0000
,
0000
0000
0000
0000
,
0000
0000
0000
0000
,
1000
0000
1000
0000
,
1000
0000
0000
0000
,
0001
0000
0001
0000
,
0001
0000
0000
0000
,
0100
0000
0010
0000
,
0100
0000
0000
0000
,
0001
0000
0010
0000
,
0100
0000
0000
0000
,
1000
0000
1000
0000
,
0001
0000
0001
0000
,
0100
0000
0100
0000
,
0010
0000
0010
0000
,
1000
0000
0100
0000
,
0010
0000
0001
0000
,
1000
0000
0001
0000
,
1000
0000
0001
0000
,
1000
0000
0000
0000
,
0100
0000
0000
0000
,
1000
0000
0000
0000
,
0100
0000
0000
0000
,
0010
0000
0000
0000
,
0001
0000
0000
0000
,
0010
0000
0000
0000
,
0001
0000
0000
0000
,
1000
0000
0000
0000
,
0100
0000
0000
0000
,
0010
0000
0000
0000
,
0001
0000
0000
0000
,
1000
0000
0000
0000
,
0010
0000
0000
0000
,
0200
0000
0000
0000
,
0300
0100
0200
0000
,
0010
0000
0001
0000
,
1000
0000
0320
0000
,
0100
0000
1000
0000
,
0001
0000
2030
0000
,
0100
0000
0001
0000
,
0010
0000
3002
0000
,
0100
0000
1000
0000
,
0010
0000
2003
0000
,
0100
0000
0010
0000
,
0001
0000
3002
0000
,
0010
0000
1000
0000
,
0100
0000
0203
0000
,
1000
0000
0001
0000
,
0010
0000
0320
0000
,
1000
0000
0200
0000
,
0000
0330
0010
0000
,
0010
0000
0110
0000
,
0000
0000
1000
0000
,
1000
0000
1001
0000
,
0000
0000
0001
0000
,
0010
0000
0110
0000
,
0000
0000
1000
0000
,
0010
0000
0110
0000
,
0000
1000
0000
0001
,
0000
1001
0000
0000
,
0002
0000
2003
0000
,
3001
0000
0001
0000
,
1000
0000
1000
0000
,
0010
0000
0010
0000
,
0100
0000
0100
0000
,
0002
0000
0000
0000
,
2000
0000
3003
0000
;

//---------------dance-single - SIMPLE----------------
#NOTES:
     dance-single:
     SIMPLE:
     Beginner:
     1:
     0.086,0.182,0.022,0.000,0.000: // measure 1
0000
0000
0000
0000
,  // measure 2
0000
0000
0000
0000
,  // measure 3
0000
0000
0000
0000
,  // measure 4
0000
0000
0000
0000
,  // measure 5
1000
0000
0000
0000
,  // measure 6
0000
0000
0000
0000
,  // measure 7
0001
0000
0000
0000
,  // measure 8
0000
0000
0000
0000
,  // measure 9
0100
0000
0000
0000
,  // measure 10
0000
0000
0000
0000
,  // measure 11
0010
0000
0000
0000
,  // measure 12
0000
0000
0000
0000
,  // measure 13
1000
0000
0000
0000
,  // measure 14
1000
0000
0000
0000
,  // measure 15
0001
0000
0000
0000
,  // measure 16
0001
0000
0000
0000
,  // measure 17
0100
0000
0000
0000
,  // measure 18
0100
0000
0000
0000
,  // measure 19
0010
0000
0000
0000
,  // measure 20
0010
0000
0000
0000
,  // measure 21
1000
0000
0000
0000
,  // measure 22
0000
0000
0000
0000
,  // measure 23
0001
0000
0000
0000
,  // measure 24
0000
0000
0000
0000
,  // measure 25
0100
0000
0000
0000
,  // measure 26
0000
0000
0000
0000
,  // measure 27
0010
0000
0000
0000
,  // measure 28
0000
0000
0000
0000
,  // measure 29
1000
0000
0000
0000
,  // measure 30
0100
0000
0000
0000
,  // measure 31
0010
0000
0000
0000
,  // measure 32
0001
0000
0000
0000
,  // measure 33
1000
0000
0000
0000
,  // measure 34
0010
0000
0000
0000
,  // measure 35
0100
0000
0000
0000
,  // measure 36
0001
0000
0000
0000
,  // measure 37
0000
0000
0000
0000
,  // measure 38
0000
0000
1000
0000
,  // measure 39
0000
0000
0000
0000
,  // measure 40
0000
0000
0010
0000
,  // measure 41
0000
0000
0000
0000
,  // measure 42
0000
0000
0100
0000
,  // measure 43
0000
0000
0000
0000
,  // measure 44
0000
0000
0001
0000
,  // measure 45
0000
0000
0010
0000
,  // measure 46
0000
0000
0100
0000
,  // measure 47
0000
0000
1000
0000
,  // measure 48
0000
0000
0001
0000
,  // measure 49
0000
0000
0100
0000
,  // measure 50
0000
0000
0010
0000
,  // measure 51
0000
0000
1001
0000
,  // measure 52
0000
0000
1000
0000
,  // measure 53
0000
0000
0001
0000
,  // measure 54
0000
0000
0100
0000
,  // measure 55
0000
0000
0010
0000
,  // measure 56
0000
0000
1000
0000
,  // measure 57
0000
0000
0100
0000
,  // measure 58
0000
0000
0010
0000
,  // measure 59
0000
0000
0001
0000
,  // measure 60
0000
1000
0000
0000
,  // measure 61
0000
0001
0000
0000
,  // measure 62
1000
0000
0000
0000
,  // measure 63
0001
0000
0000
0000
,  // measure 64
0001
0000
0000
0000
,  // measure 65
1000
0000
0000
0000
,  // measure 66
1000
0000
0000
0000
,  // measure 67
0001
0000
1000
0000
,  // measure 68
0001
0000
1001
0000
;
