#TITLE:LOVE ♡ SHINE;
#SUBTITLE:survivor MAX;
#ARTIST:KOSAKA RIYU 354 [DJ Bouche];
#TITLETRANSLIT:LOVE LOVE SHINE;
#SUBTITLETRANSLIT:;
#ARTISTTRANSLIT:KOSAKA RIYU 354 [DJ BOUCHE];
#CREDIT:;
#BANNER:LLSSM.png;
#BACKGROUND:LLSSM-bg.png;
#LYRICSPATH:;
#CDTITLE:!title.png;
#MUSIC:LLSSM.mp3;
#OFFSET:-0.257;
#SAMPLESTART:11.114;
#SAMPLELENGTH:20.340;
#SELECTABLE:YES;
#BPMS:0.000=354.000,384.000=177.000,400.000=353.999,528.000=290.000;
#DISPLAYBPM:*;
#STOPS:;
#BGCHANGES:;

//---------------dance-single - Bouche Convert----------------
#NOTES:
     dance-single:
     Bouche Convert:
     Edit:
     10:
     1.000,1.000,0.568,0.213,0.152:
0000
0000
0000
0000
,
0000
0000
0000
0000
,
0000
0000
0000
0000
,
0000
0000
0000
0000
,
0010
0000
1001
0000
,
0100
0000
1001
0000
,
0001
0010
0100
1000
,
0100
0010
0001
0100
,
0001
0000
0100
0000
0010
1000
0000
0010
,
1000
0000
0100
0000
0001
0010
0000
0001
,
0010
0000
1000
0000
0001
0100
0000
0010
,
0100
1001
1001
0000
,
1000
0000
0010
0000
0100
0001
0000
0001
,
0100
0000
1000
0000
0001
0100
0000
1000
,
0001
0010
0001
0000
0010
0100
0010
0000
,
1000
0100
0010
0001
1000
0100
0010
0001
,
0100
0000
0100
0000
,
0010
0001
0010
0000
,
1001
0000
1010
0000
,
1100
0000
0110
0000
,
0010
0000
0010
0000
,
0100
1000
0100
0000
,
1100
0000
0011
0000
,
1100
0000
0101
0000
,
0001
0000
0010
0000
,
0100
0000
0010
0000
,
1000
0000
0010
0000
,
0100
0000
0010
0000
,
0010
0001
0010
0001
0010
0001
0010
0100
,
1000
0100
1000
0100
1000
0100
1000
0100
,
1000
0100
0010
0001
0100
0010
1000
0100
,
0010
0001
0100
0010
1000
0100
0010
0001
,
0110
0000
0010
0000
,
1000
0100
1000
0000
,
1001
0000
0100
0000
,
0011
0000
0100
0000
,
0011
0000
0010
0000
,
0001
0010
0001
0000
,
1001
0000
0100
0000
,
1010
0000
0100
0000
,
0011
0000
0100
0000
,
1000
0000
0100
0000
,
0110
0000
0010
0000
,
0001
0000
0010
0000
,
0010
0001
0010
0001
0010
0001
0010
0001
,
0010
0001
0010
0001
0010
0001
0010
0001
,
1001
0000
0000
1010
0000
0000
1100
0000
,
0001
0010
0100
1000
0100
0010
0001
1000
,
0001
0100
0010
0000
1000
0010
0100
0000
,
1000
0001
1100
0001
,
1000
0010
0100
0000
0100
0001
0010
0000
,
0100
0001
1010
0001
,
0100
0001
0010
0000
0010
0001
0100
0000
,
0100
1000
0010
0000
0010
1000
0100
0000
,
1000
0100
0001
0000
0001
0100
1000
0000
,
1000
0100
0010
0001
0010
0100
1000
0000
,
0001
0100
0010
0000
1000
0010
0100
0000
,
1000
0001
0100
0000
0010
0001
0100
0000
,
0010
0000
1000
0000
0001
0100
0010
0000
,
0100
0000
0001
0000
0010
0001
0010
0000
,
0010
0001
0010
0100
1000
0100
0010
0000
,
0100
0001
0010
0000
0010
0001
0100
0000
,
0101
0000
0010
0100
1000
0100
0010
0100
,
1010
1001
0101
0000
,
2000
0001
0000
3001
0100
0000
0200
0001
,
0000
0301
0020
0000
1000
0000
1030
0000
,
0002
0100
0000
0103
0010
0000
0020
1000
,
0000
1030
0200
0000
0001
0000
0301
0000
,
2000
0001
0000
3001
0100
0000
0020
0001
,
0000
0031
0200
0000
0010
0000
0310
0000
,
0002
1000
0003
0200
0301
0000
0020
0001
,
0030
0001
0010
0100
1000
0100
0010
0001
,
0100
0001
0010
0000
0010
0001
0100
0000
,
0100
0010
1000
0000
1000
0010
0100
0000
,
0100
0001
0010
0000
0010
0001
0100
0000
,
1000
0010
0100
0000
0100
0001
0010
1000
,
0100
0001
0010
0000
0010
0001
0100
0000
,
0100
0010
1000
0000
1000
0010
0100
0000
,
1000
0100
0001
0100
1000
0100
0001
0100
,
1000
0100
0001
0100
1000
0100
0001
0100
,
0001
0000
0011
0000
1000
0000
0100
1000
,
0100
0001
1000
0000
1100
0000
0001
0000
,
0100
0000
1001
0000
0101
0000
0010
1000
,
0100
1000
0010
0000
0101
0000
0010
0000
,
1000
1100
0001
0011
,
0100
1000
0100
0000
0001
0010
0001
0000
,
1000
1010
0100
0101
,
0001
0010
1000
0000
1000
0010
0001
0000
,
1000
0011
0100
0011
,
0010
0001
0100
0000
0100
0010
1000
0000
,
0010
0101
0010
0101
,
0010
0001
0010
0000
0100
1000
0100
0000
,
1000
0100
0010
0001
,
0010
0100
0010
0001
,
0100
0010
0001
1000
,
0200
0000
0000
0300
1001
0000
0000
0000
,
0010
0000
0010
1000
0000
1000
0100
0000
0100
0010
0000
0010
0001
0000
0001
0000
,
1000
0000
0001
0010
0000
0010
0100
0000
0100
1000
0000
1000
0100
0000
0010
0000
,
0010
0000
0001
0100
0000
0100
0010
0000
0010
1000
0000
1000
0010
0000
0010
0000
,
1000
0100
0001
0100
1000
0100
0001
0010
1000
0010
0001
0010
,
1002
0000
0100
0000
,
1000
0000
0010
0003
,
2010
0000
0001
0000
,
0100
0000
3001
0000
,
0210
0300
0120
0030
,
2001
3000
1002
0003
,
1000
0001
0100
0010
,
1000
0001
0100
0010
1000
0001
0100
0010
,
0100
0000
0001
0100
0000
0001
0100
0000
,
0010
0000
1001
0000
0000
1001
0000
0000
,
1000
0000
0010
1000
0000
0010
1000
0000
,
0100
0000
1010
0000
0000
1010
0000
0000
,
0001
0000
0100
0010
0000
1000
0100
0000
,
0001
0000
0100
0010
0000
0001
0100
0000
,
0010
0000
1000
0100
0000
0001
0100
0000
,
0010
0000
1001
0000
0000
1001
0000
0000
,
1000
0000
0001
0010
0001
0000
0100
0000
,
0010
0000
1000
0100
1000
0000
0100
0000
,
0010
0000
0001
1000
0010
0000
0100
0000
,
0001
0000
0010
1000
0010
0000
0100
0000
,
1000
0100
0010
0001
0100
0010
1000
0100
,
0010
0001
0100
0010
1000
0100
0010
0001
,
0010
0000
1000
0100
0000
1000
0100
0000
,
0100
0000
0010
0100
0010
0100
0010
0000
,
1000
0100
0010
0001
0100
0010
1000
0100
,
0010
0001
0100
0010
1000
0100
0010
0001
,
0010
0100
1000
0010
0100
0001
0010
0100
,
1000
0010
0100
1000
0001
0010
0100
1000
,
0001
0000
0000
0001
0000
0000
0001
0000
0000
0000
0000
0000
0000
0000
0000
0000
,
1000
0000
0000
1000
0000
0000
1000
0000
0000
0000
0000
0000
0000
0000
0000
0000
,
0001
0000
0001
0000
0001
0000
1000
0000
1000
0000
1000
0000
,
0100
0000
0100
0000
0100
0000
0010
0000
0010
0000
0010
0000
,
1000
0100
1000
0000
0000
0000
0100
0010
,
0000
0010
0001
0000
0001
1000
0001
0000
,
0000
2002
0000
0000
,
0000
0000
0000
3003
;

//---------------dance-single - MANIAC----------------
#NOTES:
     dance-single:
     MANIAC:
     Hard:
     10:
     1.000,1.000,0.852,0.142,0.188:
0000
0000
0000
0000
,
0000
0000
0000
0000
,
0000
0000
0000
0000
,
0000
0000
0000
0000
,
1000
0100
1000
0000
,
0001
0010
0001
0000
,
0100
0010
1000
0001
,
0100
0000
1001
0000
,
0100
0010
1000
0001
,
0100
0010
0001
0000
,
0010
0100
0010
0001
,
1000
0010
1000
0000
,
0100
0010
0001
0000
,
0010
0100
1000
0000
,
0100
0010
1000
0001
,
1001
0000
0110
0000
,
0001
0010
0100
0001
,
0010
0100
0101
0000
,
1000
0100
0010
1000
,
0100
0010
1010
0000
,
0100
0010
0100
1000
,
0001
0100
1001
0000
,
0100
0010
0001
1000
,
0010
0100
1001
0000
,
0100
0010
0101
0000
,
0010
1000
0110
0000
,
0001
0100
1010
0000
,
0100
0010
1001
0000
,
0001
0010
0001
0000
0100
1000
0100
0000
,
0010
0100
0010
0000
1000
0001
1000
0000
,
0010
0100
0001
1000
0010
0100
0001
1000
,
0010
0000
1001
0000
,
0101
0010
0001
1000
,
0011
0100
0001
1000
,
0110
0001
1000
0010
,
0101
0010
1000
0100
,
0011
0100
0010
1000
,
0101
0010
0100
0001
,
1010
0100
0001
0010
,
1010
0001
0100
0010
,
0001
0010
0001
0000
0100
1000
0100
0000
,
0001
0010
0001
0100
0010
0000
1001
0000
,
0100
0010
0001
0000
0010
0100
1000
0000
,
0010
0100
0001
1000
0010
0000
0110
0000
,
0001
0100
0010
0001
0010
0100
0001
0000
,
0010
1000
0100
0010
1000
0010
0100
0000
,
0001
0000
0100
0010
0100
1000
0010
0000
,
0101
0000
0000
0000
0000
1001
0000
0000
0000
0000
0110
0000
0000
0000
0000
0000
,
0001
0100
0001
0100
,
0010
0100
0010
0000
1000
0100
1000
0000
,
0010
0100
0010
0001
,
0100
0010
1000
0000
0100
0001
0010
0000
,
0100
0010
1000
0001
,
0100
0010
0001
0000
0010
0100
1000
0000
,
0010
0100
0001
0010
,
0100
1000
0010
0000
0100
0001
0010
0000
,
0100
0001
0100
0000
0100
1000
0010
0000
,
1001
0001
0110
1000
,
0100
0010
0001
0000
0010
0100
1000
0000
,
0011
0100
0110
1000
,
0100
0010
0100
0000
0001
0100
0010
0000
,
0110
0001
0110
1000
,
0100
0001
0100
0000
0010
1000
0010
0000
,
0100
0010
0100
0000
0001
1000
0001
0000
,
0200
0001
0300
0001
0010
0000
0002
0100
,
0003
1000
0010
0000
1001
0000
0110
0000
,
0002
0010
0003
0100
0010
0000
2000
0010
,
3000
0100
0010
0000
1001
0000
0110
0000
,
0001
0010
0002
0000
0103
1000
0200
0000
,
0310
0001
0010
1010
,
0100
0010
0200
0000
0301
0010
0002
0000
,
0103
0010
1000
0101
,
0010
0001
0100
0010
0001
0000
0101
0000
,
0010
1000
0010
0100
0001
0000
1001
0000
,
0100
0010
0100
0001
0010
0000
1001
0000
,
0100
0010
0001
0100
0010
0000
1001
0000
,
0100
0010
0100
0000
0001
1000
0001
0000
,
0100
0010
0100
0000
1000
0010
1000
0000
,
0100
0001
0100
0010
1000
0000
0101
0000
,
0010
1000
0001
0100
0010
0000
1001
0000
,
0000
0000
0000
0101
0000
0000
0000
0000
1010
0000
0000
0000
,
0110
0000
0000
0000
0011
0000
0000
0000
1100
0000
0000
0000
,
1100
0000
0000
0011
0000
0000
0000
0000
1100
0000
0000
0000
,
0101
0000
0000
0000
1100
0000
0000
0000
0110
0000
0000
0000
,
0110
0000
0000
0011
0000
0000
0000
0000
1100
0000
0000
0000
,
0011
0000
0000
0000
0110
0000
0000
0000
1001
0000
0000
0000
,
0001
0010
0001
0000
,
1000
0100
1000
0000
,
0101
0010
0001
1000
,
0011
0100
0001
1000
,
0110
0001
1000
0010
,
0101
0000
1001
0000
,
0100
0000
0001
0000
,
0100
0000
1000
0000
,
0010
0000
0001
0000
,
0100
0000
1000
0000
0001
0100
0001
0000
,
1000
0100
1000
0000
0010
0000
0100
0000
0001
0010
0001
0000
0100
0000
0010
0000
,
0100
1000
0100
0000
0010
0000
0001
0000
0100
0010
0100
0000
0001
0000
1000
0000
,
0100
0000
0100
0010
0000
0001
0010
0000
0010
0100
0000
1000
0100
0000
0100
0010
,
0001
0010
0100
1000
0001
0010
0100
1000
0001
0010
0100
1000
,
0002
0010
0010
0013
,
0200
1000
1000
1300
,
0020
0100
0100
0130
,
2000
0001
0001
3001
,
0001
0101
0010
1010
,
0100
0101
0010
1010
,
0100
0001
0100
0000
0010
1000
0010
0000
,
0100
0010
0100
0000
0001
1000
0001
0000
,
0100
0000
1000
0010
0000
0001
0100
0000
,
0010
0000
1001
0000
0000
0110
0000
0000
,
0001
0000
0100
0010
0000
1000
0100
0000
,
0010
0000
0101
0000
0000
1010
0000
0000
,
0100
0000
0010
1000
0000
0100
0010
0000
,
0001
0000
0110
0000
0000
0011
0000
0000
,
0100
0000
0010
0100
0000
0001
0010
0000
,
1000
0000
1001
0000
0000
0011
0000
0000
,
0100
0000
0010
0001
0010
0000
0100
0000
,
1000
0000
0101
0000
0000
1001
0000
0000
,
0100
0000
0001
0010
0100
0000
0010
0000
,
1000
0000
0110
0000
0000
1001
0000
0000
,
0100
0000
0100
0001
0100
0000
0010
0000
,
1000
0000
0110
0000
0000
0101
0000
0000
,
0010
0100
0010
0000
1000
0001
1000
0000
,
0100
0010
0100
0000
0001
1000
0001
0000
,
0100
0001
0100
0010
0001
0100
0001
0000
,
0010
1000
0100
0010
1000
0010
1000
0000
,
0100
0010
0001
1000
0010
0100
0001
0000
,
0100
0010
1000
0001
0100
0010
1000
0000
,
0001
0000
0000
0010
0000
0000
0001
0000
0000
0000
0000
0000
0000
0000
0000
0000
,
1000
0000
0000
0100
0000
0000
1000
0000
0000
0000
0000
0000
0000
0000
0000
0000
,
0010
0000
0100
0000
0010
0000
1000
0000
0010
0000
0100
0000
,
0001
0000
0100
0000
0010
0000
1000
0000
0001
0000
0100
0000
,
0001
0100
0010
0000
0000
0000
1000
0100
,
0000
0010
0100
0001
1000
0010
1000
0001
,
0000
2002
0000
0000
,
3003
0000
0000
0000
;

//---------------dance-single - TRICKY----------------
#NOTES:
     dance-single:
     TRICKY:
     Medium:
     9:
     0.641,0.890,0.548,0.061,0.056:
0000
0000
0000
0000
,
0000
0000
0000
0000
,
0000
0000
0000
0000
,
0000
0000
0000
0000
,
1000
0000
1000
0000
,
0001
0000
0001
0000
,
0100
0000
0100
0000
,
0010
0001
1000
0000
,
0100
0000
1010
0000
,
0100
0000
0011
0000
,
0010
0000
0110
0000
,
1000
0000
1010
0000
,
0100
0010
0100
0000
,
1000
0001
1000
0000
,
1000
0001
1000
0000
,
1001
0000
0110
0000
,
0001
0000
0101
0000
,
0010
0100
0001
0000
,
1000
0000
1010
0000
,
0100
0010
1000
0000
,
0100
0000
0110
0000
,
0001
0100
0001
0000
,
0100
0000
0101
0000
,
0010
0100
0001
0000
,
0100
0010
0100
0000
,
0010
1000
0100
0000
,
0001
0100
1000
0000
,
0100
0010
1000
0000
,
0001
0100
0001
0000
,
0010
1000
0010
0000
,
0010
0001
0010
0001
,
0010
0000
1001
0000
,
0001
0010
0001
1000
,
0010
0100
0001
0000
,
0010
0001
1000
0010
,
0100
0010
1000
0000
,
0001
0100
0010
1000
,
0100
0010
0100
0000
,
1000
0100
0001
0010
,
1000
0001
0100
0000
,
0001
0001
0100
0100
,
0001
1000
0001
0000
,
0100
0100
0001
0001
,
0010
0100
0010
0000
,
0001
0010
0001
0010
,
0100
1000
0100
1000
,
0000
1000
0001
1000
,
0001
0000
0000
0000
0000
0001
0000
0000
0000
0000
0001
0000
0000
0000
0000
0000
,
0001
0100
0001
0000
,
0011
0000
1100
0000
,
0010
0100
0010
0000
,
0110
0000
0101
0000
,
0100
0010
1000
0001
,
0100
0001
0010
0000
,
0010
0100
0001
0010
,
0100
0010
1000
0000
,
0100
0010
0100
0000
,
1001
0000
0110
0000
,
0100
0001
0010
0000
,
0011
0000
0110
0000
,
0100
0001
0100
0000
,
0100
1000
0100
0000
,
0100
0001
1000
0010
,
0100
0001
1000
0000
,
0100
0000
0110
0000
,
0001
0000
0011
0000
,
0001
0000
0110
0000
,
1000
0000
1001
0000
,
0001
0000
0110
0000
,
0010
0000
1010
0000
,
0100
0000
0011
0000
,
0100
0000
1100
0000
,
0010
0100
0001
1000
,
0010
0100
0001
1000
,
0100
0001
0010
1000
,
0100
0001
0010
1000
,
0100
0100
0001
0001
,
0100
0100
1000
1000
,
0100
0100
0001
0001
,
0010
0000
1001
0000
,
0000
0000
0000
0100
0000
0000
0000
0000
0001
0000
0000
0000
,
0100
0000
0000
0000
1000
0000
0000
0000
1100
0000
0000
0000
,
0000
0000
0000
0001
0000
0000
0000
0000
0100
0000
0000
0000
,
1000
0000
0000
0000
0100
0000
0000
0000
0110
0000
0000
0000
,
0000
0000
0000
0001
0000
0000
0000
0000
1000
0000
0000
0000
,
0001
0000
0000
0000
1000
0000
0000
0000
1001
0000
0000
0000
,
0001
0000
0001
0000
,
1000
0000
1000
0000
,
0001
0010
0001
0000
,
1000
0100
1000
0000
,
0010
0001
1000
0010
,
0100
0000
1001
0000
,
0100
0000
0001
0000
,
0100
0000
1000
0000
,
0010
0001
0010
0001
,
0010
0000
1001
0000
,
1000
0100
1000
0000
0001
0010
0001
0000
,
0100
1000
0100
0000
0010
0001
0010
0000
,
0100
0100
0010
0010
,
0001
0000
0000
1000
0000
0000
0001
0000
1000
0000
0000
0000
1001
0000
0000
0000
,
0002
0000
0010
0003
,
0200
0000
1000
0300
,
0020
0000
0100
0030
,
2000
0000
0001
3000
,
0101
0000
0110
0000
,
0101
0000
1010
0000
,
0100
0001
1000
0001
,
0100
0010
1000
0010
,
0001
0000
0000
0010
0000
0000
0001
0000
,
0010
0000
0001
0000
0000
0110
0000
0000
,
1000
0000
0000
0100
0000
0000
1000
0000
,
0100
0000
1000
0000
0000
1001
0000
0000
,
0100
0000
0000
1000
0000
0000
0010
0000
,
0001
0000
0100
0000
0000
0011
0000
0000
,
0100
0000
0000
0010
0000
0000
1000
0000
,
0100
0000
0001
0000
0000
1100
0000
0000
,
0100
0010
1000
0100
,
1000
0000
1001
0000
,
0100
0001
0100
0010
,
1000
0000
1001
0000
,
0100
0010
0100
0001
,
1000
0000
1001
0000
,
0010
0100
1000
0100
,
0001
0100
1000
0010
,
0100
0010
0100
0000
,
0010
1000
0010
0000
,
0100
0001
0011
0000
,
0010
1000
1100
0000
,
1001
0000
0000
0000
,
1010
0000
0000
0000
,
0110
0000
1100
0000
,
0101
0000
1001
0000
,
0001
0010
0001
0000
0000
0000
1000
0100
,
0000
1000
0100
0000
1000
0001
1000
0000
,
0000
2002
0000
0000
,
3003
0000
0000
0000
;

//---------------dance-single - SIMPLE----------------
#NOTES:
     dance-single:
     SIMPLE:
     Easy:
     6:
     0.500,0.616,0.213,0.183,0.000:
0000
0000
0000
0000
,
0000
0000
0000
0000
,
0000
0000
0000
0000
,
0000
0000
0000
0000
,
1000
0000
0000
0000
,
0001
0000
0000
0000
,
0100
0000
0000
0000
,
0010
0000
1000
0000
,
0100
0000
0010
0000
,
0100
0000
0011
0000
,
0010
0000
0100
0000
,
1000
0000
1010
0000
,
0100
0000
0100
0000
,
0010
0000
0010
0000
,
1000
0000
0001
0000
,
1001
0000
0000
0000
,
0001
0000
0001
0000
,
0010
0100
0001
0000
,
1000
0000
1000
0000
,
0100
0010
1000
0000
,
0100
0000
0100
0000
,
0001
0100
0001
0000
,
0100
0000
0100
0000
,
0010
0100
0001
0000
,
0100
0000
0100
0000
,
0010
0000
0010
0000
,
1000
0000
1000
0000
,
0001
0000
0001
0000
,
0001
0100
0001
0000
,
0010
1000
0010
0000
,
0010
0001
0010
0000
,
0100
1000
0100
0000
,
0001
0000
0001
0000
,
0010
0100
0001
0000
,
0010
0000
1000
0000
,
0100
0010
1000
0000
,
0001
0000
0010
0000
,
0100
0010
0100
0000
,
1000
0000
0001
0000
,
1000
0001
0100
0000
,
0001
0000
0100
0000
,
0001
0000
0001
0000
,
0100
0000
0001
0000
,
0010
0000
1000
0000
,
0100
1000
0100
0000
,
0010
1000
0010
1000
,
0000
1000
0001
0000
,
0100
0000
0010
0000
,
0001
0000
0000
0010
,
0001
0000
0000
0100
,
1000
0000
0000
0001
,
0010
0000
0000
1000
,
0100
0000
1000
0000
,
0100
0000
0010
0000
,
0001
0000
0100
0000
,
0001
0000
0010
0000
,
0100
0000
0000
0010
,
0001
0000
0000
1000
,
0100
0000
0010
0001
,
0010
0000
0010
0000
,
0100
0001
0000
0000
,
0100
0000
0100
0000
,
0100
0000
0010
0000
,
0010
0000
0010
0000
,
2000
0000
3010
0000
,
0002
0000
0103
0000
,
0020
0000
0130
0000
,
2000
0000
3001
0000
,
0020
0000
0130
0000
,
0200
0000
0310
0000
,
0002
0000
0013
0000
,
0200
0000
1300
0000
,
0002
0000
0100
0003
,
2000
0000
0001
3000
,
0200
0000
0010
0300
,
0002
0000
0010
0003
,
0100
0000
0001
0000
,
0100
0000
1000
0000
,
0100
0000
0001
0000
,
0010
1000
0010
0000
,
0100
0000
0101
0000
,
0100
0000
1100
0000
,
0001
0000
0110
0000
,
1000
0000
0110
0000
,
0001
0000
0110
0000
,
1000
0000
1010
0000
,
1001
0000
1001
0000
,
0110
0000
0110
0000
,
0001
0000
0001
0000
,
1000
0000
1000
0000
,
0010
0000
0010
0000
,
0100
0000
0100
0000
,
0010
0000
0001
0000
,
0100
0000
1000
0000
,
0010
0000
0001
0000
,
0010
0000
1001
0000
,
1000
1000
0001
0001
,
0100
0100
0010
0010
,
1000
0100
0010
0001
,
1000
0100
0010
0001
,
0002
0000
0013
0000
,
0200
0000
1300
0000
,
0020
0000
0130
0000
,
2000
0000
3001
0000
,
0100
0000
0110
0000
,
0100
0000
1010
0000
,
0100
0001
1000
0000
,
0100
0010
1000
0000
,
0001
0010
0001
0010
,
0001
0000
0010
0000
0000
0010
0000
0000
,
1000
0100
1000
0100
,
1000
0000
0100
0000
0000
0100
0000
0000
,
0010
0100
0010
0100
,
0010
0000
0100
0000
0000
0100
0000
0000
,
0001
1000
0001
1000
,
0001
0000
1000
0000
0000
1000
0000
0000
,
0100
0010
0100
0000
,
1000
0001
1000
0000
,
0100
0001
0100
0000
,
1000
0100
1000
0000
,
0100
0010
0100
0000
,
1000
0000
1001
0000
,
0010
0100
0010
0000
,
0001
0000
1001
0000
,
0100
1000
0100
1000
,
0100
1000
0100
0000
,
0010
0001
0010
0001
,
0010
0001
0010
0000
,
1001
0000
0000
0000
,
0110
0000
0000
0000
,
0100
0000
1000
0000
,
0001
0000
0100
0000
,
0001
0000
0000
1000
,
0000
0000
1000
0001
,
0000
2002
0000
0000
,
3003
0000
0000
0000
;

//---------------dance-single - BASIC----------------
#NOTES:
     dance-single:
     BASIC:
     Beginner:
     3:
     0.267,0.479,0.152,0.244,0.000: // measure 1
0000
0000
0000
0000
,  // measure 2
0000
0000
0000
0000
,  // measure 3
0000
0000
0000
0000
,  // measure 4
0000
0000
0000
0000
,  // measure 5
1000
0000
0000
0000
,  // measure 6
0000
0000
0000
0000
,  // measure 7
0100
0000
0000
0000
,  // measure 8
0000
0000
0000
0000
,  // measure 9
0100
0000
0000
0000
,  // measure 10
0100
0000
0000
0000
,  // measure 11
0010
0000
0000
0000
,  // measure 12
0010
0000
0000
0000
,  // measure 13
0100
0000
0000
0000
,  // measure 14
0010
0000
0000
0000
,  // measure 15
1000
0000
0000
0000
,  // measure 16
1001
0000
0000
0000
,  // measure 17
0001
0000
0000
0000
,  // measure 18
0000
0000
0000
0000
,  // measure 19
1000
0000
0000
0000
,  // measure 20
0000
0000
0000
0000
,  // measure 21
0100
0000
0000
0000
,  // measure 22
0000
0000
0000
0000
,  // measure 23
0001
0000
0000
0000
,  // measure 24
0000
0000
0000
0000
,  // measure 25
0100
0000
0000
0000
,  // measure 26
0000
0000
0000
0000
,  // measure 27
0001
0000
0000
0000
,  // measure 28
0000
0000
0000
0000
,  // measure 29
0001
0000
0000
0000
,  // measure 30
0010
0000
0000
0000
,  // measure 31
0100
0000
0000
0000
,  // measure 32
1001
0000
0000
0000
,  // measure 33
0001
0000
0000
0000
,  // measure 34
0000
0000
0000
0000
,  // measure 35
0010
0000
0000
0000
,  // measure 36
0000
0000
0000
0000
,  // measure 37
0100
0000
0000
0000
,  // measure 38
0000
0000
0000
0000
,  // measure 39
1000
0000
0000
0000
,  // measure 40
0000
0000
0000
0000
,  // measure 41
0001
0000
0000
0000
,  // measure 42
0100
0000
0000
0000
,  // measure 43
0010
0000
0000
0000
,  // measure 44
1000
0000
0000
0000
,  // measure 45
0100
0000
0000
0000
,  // measure 46
0010
0000
0000
0000
,  // measure 47
0001
0000
0000
0000
,  // measure 48
0100
0000
0000
0000
,  // measure 49
1001
0000
0000
0000
,  // measure 50
1000
0000
0000
0000
,  // measure 51
1001
0000
0000
0000
,  // measure 52
0001
0000
0000
0000
,  // measure 53
0110
0000
0000
0000
,  // measure 54
0100
0000
0000
0000
,  // measure 55
0110
0000
0000
0000
,  // measure 56
0010
0000
0000
0000
,  // measure 57
1100
0000
0000
0000
,  // measure 58
0100
0000
0000
0000
,  // measure 59
1100
0000
0000
0000
,  // measure 60
1000
0000
0000
0000
,  // measure 61
0011
0000
0000
0000
,  // measure 62
0010
0000
0000
0000
,  // measure 63
0011
0000
0000
0000
,  // measure 64
0001
0000
0000
0000
,  // measure 65
2000
0000
3000
0000
,  // measure 66
0002
0000
0003
0000
,  // measure 67
0020
0000
0030
0000
,  // measure 68
2000
0000
3000
0000
,  // measure 69
0020
0000
0030
0000
,  // measure 70
0200
0000
0300
0000
,  // measure 71
0002
0000
0003
0000
,  // measure 72
0200
0000
0300
0000
,  // measure 73
0002
0000
0000
0003
,  // measure 74
2000
0000
0000
3000
,  // measure 75
0200
0000
0000
0300
,  // measure 76
0002
0000
0000
0003
,  // measure 77
0100
0000
0000
0000
,  // measure 78
0100
0000
0000
0000
,  // measure 79
0010
0000
0000
0000
,  // measure 80
0010
0000
0000
0000
,  // measure 81
0100
0000
0001
0000
,  // measure 82
0100
0000
0000
0000
,  // measure 83
0100
0000
1000
0000
,  // measure 84
0100
0000
0000
0000
,  // measure 85
0001
0000
0010
0000
,  // measure 86
0001
0000
0000
0000
,  // measure 87
1000
0000
0100
0000
,  // measure 88
1000
0000
0000
0000
,  // measure 89
0001
0000
0000
0000
,  // measure 90
1000
0000
0000
0000
,  // measure 91
0010
0000
0000
0000
,  // measure 92
0100
0000
0000
0000
,  // measure 93
0010
0000
0010
0000
,  // measure 94
0010
0000
0000
0000
,  // measure 95
0100
0000
0100
0000
,  // measure 96
0100
0000
0000
0000
,  // measure 97
1001
0000
0000
0000
,  // measure 98
0110
0000
0000
0000
,  // measure 99
0011
0000
0010
0000
,  // measure 100
1010
0000
0010
0000
,  // measure 101
0002
0000
0003
0000
,  // measure 102
0200
0000
0300
0000
,  // measure 103
0020
0000
0030
0000
,  // measure 104
2000
0000
3000
0000
,  // measure 105
0100
0000
1000
0000
,  // measure 106
0100
0000
0000
0000
,  // measure 107
0010
0000
0001
0000
,  // measure 108
0010
0000
0000
0000
,  // measure 109
0001
0000
0001
0000
,  // measure 110
0002
0000
0003
0000
,  // measure 111
1000
0000
1000
0000
,  // measure 112
2000
0000
3000
0000
,  // measure 113
0010
0000
0010
0000
,  // measure 114
0020
0000
0030
0000
,  // measure 115
0100
0000
0100
0000
,  // measure 116
0200
0000
0300
0000
,  // measure 117
0100
0000
0100
0000
,  // measure 118
1000
0000
1000
0000
,  // measure 119
0100
0000
0100
0000
,  // measure 120
0001
0000
0001
0000
,  // measure 121
0100
0000
0001
0000
,  // measure 122
0100
0000
1000
0000
,  // measure 123
0100
0000
0001
0000
,  // measure 124
0100
0000
1000
0000
,  // measure 125
0100
0000
0100
0000
,  // measure 126
0100
0000
0000
0000
,  // measure 127
0010
0000
0010
0000
,  // measure 128
0010
0000
0000
0000
,  // measure 129
1000
0000
0000
0000
,  // measure 130
0100
0000
0000
0000
,  // measure 131
0001
0000
1000
0000
,  // measure 132
0001
0000
1000
0000
,  // measure 133
0002
0000
0003
2000
,  // measure 134
0000
0000
0000
0000
,  // measure 135
3000
2002
0000
0000
,  // measure 136
3003
0000
0000
0000
;
