#TITLE:The Legend of Zelda;
#SUBTITLE:[Remix];
#ARTIST:W2X;
#TITLETRANSLIT:;
#SUBTITLETRANSLIT:;
#ARTISTTRANSLIT:;
#CREDIT:;
#BANNER:lozremix.png;
#BACKGROUND:lozremix-bg.png;
#LYRICSPATH:;
#CDTITLE:!hiryuu.png;
#MUSIC:lozremix.ogg;
#OFFSET:-0.019;
#SAMPLESTART:0.019;
#SAMPLELENGTH:15.981;
#SELECTABLE:YES;
#BPMS:0.000=90.120,24.000=128.240;
#STOPS:24.000=2.733
;
#BGCHANGES:;

//---------------dance-single - MANIAC----------------
#NOTES:
     dance-single:
     MANIAC:
     Hard:
     9:
     0.569,0.550,0.095,0.445,0.609:
0000
0000
0000
0000
,
0000
0000
0000
0000
,
0001
0000
1000
0000
0100
1000
0010
0100
,
0001
0010
0001
0000
0010
0000
0000
0000
0002
0000
0000
0000
0000
0000
0000
0000
,
1003
0000
0010
1000
0010
0000
0100
0010
0100
0000
0001
0010
0001
0010
0100
1000
,
0100
0000
1000
0010
1000
0000
0001
0100
0001
0000
1000
0100
0010
0001
0100
0020
,
0000
0000
0000
0000
1030
0000
0001
1000
0001
0000
0100
0001
0100
0000
0001
1000
,
0001
0010
0001
0010
0100
0000
1000
0100
1000
0000
0010
0100
0010
0000
0001
0010
,
0100
1000
0010
0100
0002
0000
0000
0003
2000
0000
0000
3000
0020
0000
0100
0030
,
0001
0100
0001
0100
0001
0000
1000
0000
0010
1000
0010
1000
0010
0000
0100
0000
,
0001
0000
1000
0000
0002
0000
0000
0003
2000
0000
0000
3000
0200
0000
0010
0300
,
0001
0010
0001
0010
0001
0000
1000
0000
0100
1000
0100
1000
0200
0000
0000
0000
,
0000
0000
0000
0000
0300
0000
1000
0000
0000
0001
0000
0000
2000
0000
0000
0000
0000
0000
0000
0000
0000
3000
0000
0000
0010
0000
0000
0000
0100
0000
0000
0000
0010
0000
0000
0000
2000
0000
0000
0000
0000
0000
0000
0000
0000
3001
0000
0000
,
0010
0000
0000
0100
0000
0000
1000
0000
0000
0010
0000
0000
0200
0000
0000
0000
0000
0000
0000
0000
0000
0301
0000
0000
1000
0000
0000
0100
0000
0000
0010
0000
0000
0001
0000
0000
0200
0000
0000
0000
0000
0000
0000
0000
0301
0000
0000
0000
,
1000
0000
0000
0000
0100
0000
0000
0000
0010
0000
0000
0000
0002
0000
0000
0000
0000
0000
0000
0000
0000
1003
0000
0000
0100
0000
0000
1000
0000
0000
0010
0000
0000
0100
0000
0000
0001
0000
0000
0000
0000
0000
0000
0000
1000
0000
0000
0000
,
0001
1000
0002
2000
3000
1003
0001
0010
0001
2000
0000
0000
,
3200
0000
0000
0000
1300
0000
0100
0001
0100
0000
0100
1000
0200
0000
0000
0000
,
1300
0000
0010
0000
0001
0000
0010
1000
0010
0000
0010
0001
0020
0000
0000
0000
,
0031
0000
0010
0000
2000
0000
0000
0000
3002
0000
0103
0010
2000
0000
3100
0010
,
0002
0000
1003
0000
1001
0000
0010
0001
0010
0000
0010
0100
0010
0000
0100
1000
,
0100
0000
0000
0000
0000
0000
1000
0000
0000
0001
0000
0000
2000
0000
0000
0000
0000
0000
0000
0000
0000
0000
0000
0000
3001
0000
0000
0000
0010
0000
0000
0000
0001
0000
0000
0000
1000
0000
0000
0000
0000
0000
0000
0000
0000
0010
0000
0000
,
0100
0000
0000
0010
0000
0000
0100
0000
0000
0010
0000
0000
0200
0000
0000
0000
0000
0000
0000
0000
0000
0301
0000
0000
1000
0000
0000
0001
0000
0000
1000
0000
0000
0001
0000
0000
2000
0000
0000
0000
0000
0000
0000
0000
3001
0000
0000
0000
,
1000
0001
1000
0002
0000
0000
0000
0000
0000
0000
0000
0000
,
1003
0000
0000
1001
0000
0000
0220
0000
0000
0000
0300
0000
,
0130
0000
0000
0001
0010
0001
1000
0100
1000
0002
0000
0000
,
0000
0000
0003
1001
0000
0000
1000
0100
0010
0001
0000
0000
,
1001
0000
0000
1000
0100
1000
0001
0010
0001
2000
0000
0000
,
0000
0000
3000
1001
0000
0000
0001
0010
0100
1000
0000
0000
,
1001
0000
0000
0000
0001
0000
0010
0001
0100
0000
0010
1000
0100
0000
1000
0010
,
0100
0001
0010
0001
0100
0000
0010
1000
0100
0000
1000
0010
0100
0000
0001
0010
,
0001
0100
0010
1000
0002
0000
1003
0001
2000
0000
3001
1000
0002
0000
0000
0000
,
2003
0000
3000
0000
1001
0000
0001
0010
0001
0000
0100
0010
0100
0000
0001
1000
,
0001
0000
1000
0001
2000
0000
0000
0000
0000
0000
0000
0000
0000
0000
3001
0000
,
0100
0000
0010
0000
1000
0010
0100
0000
0001
0010
0100
1000
0020
0000
0000
0000
,
0000
0000
2030
0000
0000
0000
0000
3001
,
0100
0000
0010
0000
1000
0100
1000
0000
0001
0010
0001
0100
0020
0000
0000
0000
,
0000
0000
0000
0000
1030
0000
0100
1000
0100
0000
1000
0100
1000
0000
0100
1000
,
0100
0010
0001
0010
0001
0000
0010
0001
0010
0000
0001
0010
0001
0000
0010
0001
,
0010
0100
1000
0001
2002
0000
0000
0000
3003
0000
0000
0000
0000
0000
0000
0000
;

//---------------dance-single - TRICKY----------------
#NOTES:
     dance-single:
     TRICKY:
     Medium:
     5:
     0.234,0.245,0.116,0.191,0.000:
0000
0000
0000
0000
,
0000
0000
0000
0000
,
1000
0000
0100
0000
1000
0100
1000
0100
,
1000
0001
0020
0000
,
0130
0100
1000
1000
,
0001
1000
0001
2000
,
0000
3001
0010
0001
,
0010
0100
1000
0100
,
1000
0000
0001
0000
0010
0000
0000
0001
,
0010
0100
2000
0000
0000
0000
0000
0000
,
3000
0000
1000
0000
0100
0000
0000
1000
,
0100
0010
0002
0000
0000
0000
0000
0000
,
0003
1001
1000
0001
,
0010
0000
0001
0000
1000
0001
1000
0000
,
0001
2000
0000
0000
,
3100
0100
0010
0001
,
0100
0010
1000
0001
,
1001
1000
0001
0100
,
0110
0010
1000
0100
,
0010
0001
0001
0010
,
0010
0100
1000
0001
,
1000
0010
0100
0000
0001
0000
0100
0000
,
0010
1000
0100
0000
1000
0000
0100
0000
,
0110
1001
0200
0000
,
0310
2000
0000
0000
,
3001
0001
0002
0000
,
0003
0200
0000
0000
,
0310
0010
0020
0000
,
0130
0000
0010
0100
0010
0100
0010
0000
,
1000
0001
2000
0000
,
3010
0000
0100
0001
0010
0001
0100
0000
,
0001
1000
0100
1000
,
0001
2002
0000
0000
,
0000
0003
0200
0000
0000
0000
0000
3000
,
0000
0000
0020
0000
0000
0000
0000
0300
,
0000
0000
0002
0000
0000
0000
0000
0030
,
0000
0003
1001
0000
0001
0000
1001
0000
,
1000
0110
0010
0110
,
0100
2002
3003
0000
;

//---------------dance-single - ----------------
#NOTES:
     dance-single:
     :
     Easy:
     2:
     0.157,0.183,0.032,0.042,0.000: // measure 1
0000
0000
0000
0000
,  // measure 2
0000
0000
0000
0000
,  // measure 3
1000
0000
1000
0000
,  // measure 4
0001
0000
0001
0000
,  // measure 5
1000
1000
0001
0001
,  // measure 6
0100
0100
0010
0010
,  // measure 7
0000
1000
0001
1000
,  // measure 8
0001
0100
0010
0100
,  // measure 9
0010
1000
0000
0001
,  // measure 10
0000
0010
0000
0001
,  // measure 11
0000
1000
0000
0100
,  // measure 12
0000
1000
0000
0010
,  // measure 13
0000
1000
0100
1000
,  // measure 14
0100
0010
0001
0010
,  // measure 15
0001
1000
0000
0001
,  // measure 16
0000
0100
0000
0010
,  // measure 17
0000
1000
1000
1000
,  // measure 18
0000
0001
0001
0001
,  // measure 19
0000
0010
0100
0010
,  // measure 20
0100
0010
0010
0100
,  // measure 21
0100
1000
0000
0100
,  // measure 22
0000
0010
0000
0001
,  // measure 23
0000
2000
0000
0000
,  // measure 24
0000
3002
0000
0000
,  // measure 25
0000
1003
0000
0000
,  // measure 26
0000
1001
0000
0000
,  // measure 27
0000
0001
0000
0000
,  // measure 28
0000
1001
0000
0000
,  // measure 29
0000
1000
0100
0010
,  // measure 30
0001
1000
0010
0100
,  // measure 31
0001
1000
0100
1000
,  // measure 32
0001
0010
0001
0010
,  // measure 33
0100
1000
0000
1000
,  // measure 34
0000
0100
0000
0100
,  // measure 35
0000
0010
0000
0010
,  // measure 36
0000
0001
0000
0001
,  // measure 37
0000
1000
0001
1000
,  // measure 38
0001
0100
0010
0100
,  // measure 39
0010
2002
3003
0000
;
