#TITLE:Infinity 301;
#SUBTITLE:;
#ARTIST:OSTER Project;
#TITLETRANSLIT:;
#SUBTITLETRANSLIT:;
#ARTISTTRANSLIT:;
#CREDIT:;
#BANNER:inf301.png;
#BACKGROUND:inf301-bg.png;
#LYRICSPATH:;
#CDTITLE:!hiryuu.png;
#MUSIC:inf301.ogg;
#OFFSET:0.000;
#SAMPLESTART:9.581;
#SAMPLELENGTH:25.713;
#SELECTABLE:YES;
#BPMS:0.000=301.060,225.000=150.530,231.000=113.690,231.250=82.030,231.500=72.810,231.750=55.010,232.000=65.290,232.250=79.050,232.500=95.730,232.750=112.150,233.000=125.370,233.250=147.810,233.500=178.750,233.750=204.510,234.000=222.690,234.250=244.749,234.500=277.589,234.750=289.029,235.000=301.060;
#STOPS:232.000=1.794;
#DISPLAYBPM:301;
#BGCHANGES:;

//---------------dance-single - SMANIAC----------------
#NOTES:
     dance-single:
     SMANIAC:
     Challenge:
     10:
     0.994,1.000,0.668,0.159,0.062:
0000
0000
0000
0000
,
0000
0000
0000
0000
,
0000
0000
0000
0000
,
0000
0000
0000
0000
,
0000
0000
0000
0000
,
0000
0000
0000
0000
,
2010
0000
0000
3010
,
0100
0001
0120
0000
,
0130
1000
0010
0100
,
0001
1000
0001
1000
,
0010
0100
0010
0100
,
0001
0010
0100
1000
0100
0010
0001
0000
,
1000
0100
1000
0010
,
1000
0001
0010
0001
,
0010
0001
1000
0001
0100
0001
0010
0000
,
0100
1000
0100
0010
,
0100
1000
0001
1000
,
0001
0010
0100
0010
0001
1000
0010
0000
,
1001
1000
0010
0100
,
0010
0000
1000
0010
1000
0000
0000
0000
,
1001
0000
1100
0000
,
0101
0000
2100
0000
0000
3000
1000
0000
,
0010
0000
0100
0000
0001
1000
0001
1000
,
0001
1000
0001
1000
0001
1000
0001
1000
,
0001
0000
1001
0000
1000
0100
1000
0000
,
0001
0100
0010
0100
0001
1000
0001
0000
,
1000
0100
1000
0000
0001
1000
0001
0000
,
1000
0100
0010
0001
0100
0010
1000
0001
,
1000
0010
0100
0000
0001
1000
0001
0100
,
0001
1000
0100
0000
1000
0010
0100
0000
,
0001
0010
0100
1000
0010
0100
0001
0000
,
0010
0001
0100
0001
0100
0010
1000
0000
,
0010
0100
0001
1000
0100
1000
0010
0100
,
0001
0010
0001
0000
1000
0100
0010
0001
,
1000
0000
0001
0100
0010
1000
0010
0100
,
0001
0010
0001
0100
0020
0000
2030
0000
,
3200
0000
2300
0000
3000
0000
0100
1000
,
0010
0100
0001
0010
0001
0100
0010
1000
,
0010
1000
0010
0100
0001
0010
0001
0010
,
0100
1000
0100
0010
0001
0010
0100
1000
,
0100
1000
0010
0100
0001
1000
0001
0010
,
0100
1000
0010
1000
0010
0100
0001
0010
,
0001
1000
0001
0100
0010
1000
0010
0100
,
0001
0010
0100
1000
0100
0010
0001
0010
,
0100
0010
0002
0000
0000
1003
0000
1001
,
0000
0001
0000
0000
0001
0010
0001
1000
,
0000
0010
0000
1010
0000
1000
0000
0000
,
1001
0000
1100
0000
0000
1000
0000
1010
,
0000
0010
0000
0000
0100
0000
0001
0000
,
1000
1010
0000
0000
0000
0100
0101
0000
,
0000
0000
1000
0010
1000
0000
0001
0100
,
0001
0000
1001
0000
0001
0010
0100
1000
,
0001
0000
1000
0100
0010
0000
0100
0010
,
0001
1000
0001
0010
0100
0000
1000
0010
,
0100
0000
0001
1000
0100
0010
0001
1000
,
0001
0000
0100
0010
0100
0000
0001
0010
,
0100
0000
0010
0000
0001
0000
0000
0001
1000
0010
0100
0001
0010
0001
0000
0010
,
0000
0100
0000
1000
0100
1000
0000
0010
0000
0100
0000
0001
2002
0000
0000
0000
,
0000
0000
0000
0000
0000
3003
0001
0000
,
1001
0000
1000
0100
1000
0000
1010
0000
,
0100
0010
1000
0010
0100
0000
0001
1000
,
0001
0000
1000
0100
0010
0001
1000
0100
,
1000
0000
0001
0010
0001
0000
0100
0010
,
1000
0001
1000
0100
0010
0000
0100
0010
,
0001
0000
1000
0010
0100
0001
1000
0010
,
1000
0000
0001
0100
0001
0000
0110
0000
,
1000
0010
0100
0010
1000
0000
0010
0100
,
0001
0000
0010
0100
1000
0010
0100
0001
,
1000
0000
0001
1000
0001
0000
1000
0100
,
1000
0010
0100
0001
0010
0001
0010
0001
,
0100
0010
0100
0010
1000
0100
1000
0000
,
0010
1000
0000
0001
0100
0000
0001
0000
,
0100
0010
0000
1000
0100
0000
1000
0000
,
1002
0000
0003
1001
,
0000
1100
0000
0000
0101
0000
1001
0000
,
1000
0000
0100
0010
0000
0010
0001
0000
,
0001
0100
0000
0100
1000
0000
0100
0000
,
0102
0000
0003
1001
,
0000
0110
0000
0000
0001
1000
0001
0000
,
1000
0000
0100
0000
0010
0000
0001
0010
,
0100
1000
1001
0000
1000
0000
0010
0000
,
0100
0000
0001
0100
0010
1000
1001
0000
,
1000
0000
0010
0000
0100
0000
0010
1000
,
0100
1000
1001
0000
0001
0000
0100
0000
,
0001
0000
0010
0001
0100
0001
1001
0000
,
0000
0101
0000
0000
1001
0000
1100
0000
,
0100
0000
1100
0000
0000
0110
0000
0000
,
0011
1001
0001
1000
,
0010
0000
0100
0000
0001
0000
1000
0001
,
1000
0001
0100
0010
,
1000
0000
0010
1000
0001
1000
0001
0010
,
0001
0100
0010
1000
0100
1000
0010
0100
,
0001
0010
0001
0000
1001
0000
0001
0100
,
0010
0100
0001
0010
0001
1000
0100
1000
,
0010
1000
0010
0000
0110
0000
0010
1000
,
0001
1001
0000
0000
0001
0010
0100
0110
,
0000
0000
0010
1000
0100
1100
0000
0000
,
0100
1000
0010
0110
0000
0000
0010
0100
,
0001
0101
0000
0000
0001
0010
0001
0011
,
0000
0000
0001
1000
0001
1001
0000
0000
,
1001
0110
1001
0110
,
1000
0010
0100
0001
0000
1001
0000
1000
,
1100
0110
0011
0110
,
1001
0220
0000
0000
,
0330
0000
0000
0000
;

//---------------dance-single - MANIAC----------------
#NOTES:
     dance-single:
     MANIAC:
     Hard:
     8:
     0.602,0.884,0.600,0.227,0.000:
0000
0000
0000
0000
,
0000
0000
0000
0000
,
0000
0000
0000
0000
,
0000
0000
0000
0000
,
0000
0000
0000
0000
,
0000
0000
0000
0000
,
2000
0000
0000
3001
,
0100
0001
2000
0000
,
3010
0100
0001
0100
,
0002
0000
0000
0103
,
0010
1000
0002
0000
,
1003
0100
0010
0100
,
1000
0100
0010
0001
,
0100
0010
1000
0010
,
2000
0000
0000
0000
,
3001
0010
0001
0100
,
0001
0010
0001
1000
,
0002
0000
0000
0000
,
1003
0100
0010
0001
,
0010
0000
0110
0000
,
1100
0000
1010
0000
,
0200
0000
0002
0000
0000
0303
0001
0000
,
0010
0001
0100
0010
,
1000
0100
1000
0001
,
1001
0000
0001
1000
,
0000
0000
1100
0000
,
1001
0000
0101
0000
,
0001
0100
0000
0000
,
0101
0000
1001
0000
,
1010
0000
1000
0010
,
0000
0000
1010
0000
,
1001
0000
0011
0000
,
0001
0010
0000
0000
,
0011
0000
1000
0001
,
0000
1000
0100
0010
,
0001
0010
0100
1000
,
0001
1000
0000
0001
,
0010
0100
1000
0100
,
0010
0001
1000
0001
,
0010
0001
0100
0001
,
1000
0100
1000
0010
,
0100
0010
1000
0100
,
0010
0001
0010
0100
,
1000
0010
0100
0001
,
1000
0000
1001
0000
0000
0001
0000
1000
,
0000
0001
0000
0000
0000
0000
1010
0000
,
0000
1000
0000
0010
0000
1000
0000
0000
,
0000
0000
0101
0000
0000
0001
0000
0100
,
0000
0001
0000
0000
1000
0000
0001
0000
,
0000
1100
0000
0000
0000
0000
0011
0000
,
0000
0000
0000
0000
0000
1000
0000
0100
,
0000
1000
0000
0000
1001
0000
1001
0000
,
0000
0001
0000
0100
0000
0001
0000
0000
,
1001
0000
1001
0000
0000
0010
0000
0100
,
0000
0010
0000
0000
1001
0000
1001
0000
,
1000
0100
0010
0001
,
1000
0000
0001
0000
0100
0010
1000
0001
,
0100
0010
1000
0001
1000
0002
2000
0000
,
0000
0000
3003
1000
,
0100
0010
0001
1000
,
0000
0001
0100
0001
,
1000
0100
0000
1000
,
0010
0100
0001
0010
,
0000
0110
0000
1001
,
0000
0110
0000
1000
,
0010
0100
0001
0010
,
0000
0001
0010
0001
,
1000
0100
0000
1000
,
0010
0100
0001
0010
,
0001
0100
0010
1000
,
0100
1000
0001
1000
,
1000
0000
0000
1000
0000
0000
0001
0000
,
0000
0001
0000
0000
0001
0000
1000
0000
,
0001
0000
0000
1001
,
0000
0110
0000
0000
1000
0000
0001
0000
,
1000
0000
0000
0100
0000
0000
0010
0000
,
0000
0001
0000
0000
1000
0000
0001
0000
,
1000
0000
0000
0110
,
0000
1001
0000
0000
0010
0000
0100
0000
,
0001
0000
0000
0010
0000
0000
0002
0000
,
0000
0000
0013
0000
0100
0000
0000
1000
,
0000
0200
0000
1300
,
0010
0000
0000
0100
0000
0000
0002
0000
,
0000
0000
0103
0000
0010
0000
0000
1000
,
0000
0020
0000
0130
,
0000
0110
0000
0000
0010
0000
0100
0000
,
0000
0000
0010
0000
0000
1010
0000
0000
,
0010
1000
0000
0001
,
0000
0011
0000
0000
0001
0000
0010
0000
,
0000
0000
0001
0000
0000
1001
0000
0000
,
0001
1000
0000
1001
,
0000
0110
0000
0000
1001
0000
0000
0110
,
0000
0001
1000
1100
,
0000
0011
0000
0000
1100
0000
0000
0011
,
0000
0100
0010
0001
,
0000
0011
0000
0000
0001
0000
0000
0011
,
0000
0000
1000
0000
0000
1100
0000
0000
,
1000
0000
0000
1100
0000
0000
1000
0000
,
0000
1001
0000
0000
0100
0000
0000
0110
,
0000
0000
0001
0000
0000
1001
0000
0000
,
0002
2003
3002
2003
,
3001
1000
0001
1000
0000
0100
0000
0010
,
0001
0010
0100
1000
,
1100
2200
0000
0000
,
3300
0000
0000
0000
;

//---------------dance-single - TRICKY----------------
#NOTES:
     dance-single:
     TRICKY:
     Medium:
     6:
     0.396,0.530,0.249,0.147,0.000:
0000
0000
0000
0000
,
0000
0000
0000
0000
,
0000
0000
0000
0000
,
0000
0000
0000
0000
,
0000
0000
0000
0000
,
0000
0000
0000
0000
,
1000
0000
0000
0000
,
0001
0000
0010
0000
,
0100
0000
1000
0000
,
0001
0000
0000
0000
,
1000
0000
0100
0000
,
0010
0000
0001
0000
,
1000
0000
0010
0000
,
0100
0000
0001
0000
,
0100
0010
0100
0010
,
1000
0000
0100
0000
,
0010
0000
0001
0000
,
1000
0001
1000
0001
,
1000
0000
0000
0000
,
0000
0000
1000
0000
,
0100
0000
0010
0000
,
0001
0010
0000
0000
,
0000
0000
0000
0001
,
1000
0001
1000
0001
,
1000
0000
0000
1001
,
0000
0000
0001
0000
,
0100
0000
0001
0000
,
0000
0101
0000
0000
,
0001
0000
1000
0000
,
0100
0000
0000
1100
,
0000
0000
1000
0000
,
0010
0000
0100
0000
,
0000
0110
0000
0000
,
0020
0000
0000
0000
,
0030
0010
0000
0100
,
0000
0001
1000
0000
,
0001
0000
0000
1000
,
0000
0001
0000
1000
,
0100
0000
0010
0000
,
0001
0000
0100
0000
,
0010
0000
1000
0000
,
0010
0000
1000
0000
,
0100
0000
0010
0000
,
0001
0000
1000
0001
,
1000
1001
0000
0000
,
0000
0001
0000
1001
,
0000
0000
0000
0100
,
0000
0110
0000
0000
,
0000
0001
0000
0101
,
0000
0000
0000
1000
,
0100
1100
0000
1000
,
0000
0100
0000
0010
,
0000
0001
0000
1000
,
0001
1000
0000
0001
,
0000
0100
0000
0010
,
0000
1000
0000
0001
,
1000
0001
0100
0010
,
1000
0001
0010
0200
,
0000
0000
0000
0310
,
0000
0001
0000
1000
,
0000
0100
0000
1000
,
0000
0010
0100
0010
,
0000
1000
0000
0100
,
0000
0010
0000
0001
,
0000
1000
0001
1000
,
0000
0001
0000
0100
,
0000
0010
0000
1000
,
0000
0100
1000
0100
,
0000
1000
0000
0010
,
0000
0100
0001
0100
,
0001
0100
0001
0100
,
0000
0000
0000
0100
,
0000
0000
0000
0100
,
0001
0000
0000
2002
,
0000
3003
0000
1000
,
0000
0000
0000
1000
,
0000
0000
0000
1000
,
0010
0000
0000
0220
,
0000
0330
0000
0010
,
0100
0010
0100
0020
,
0000
1030
0010
1000
,
0010
2000
0000
3001
,
1000
0001
1000
0002
,
0000
0103
0001
0100
,
0001
0200
0000
0310
,
0000
1000
0000
0000
0010
0000
1000
0000
,
0000
0000
0001
0000
0000
0100
0000
0000
,
0001
0100
0000
0001
,
0000
1000
0000
0000
0001
0000
1000
0000
,
0000
0000
0010
0000
0000
0100
0000
0000
,
0010
0100
0000
0001
,
0000
1001
0000
0000
1000
0000
0000
1001
,
0000
0001
1000
0100
,
0000
0110
0000
0000
0010
0000
0000
0110
,
0000
0100
0010
1001
,
0000
0000
0110
0000
,
0000
0011
0000
0000
,
1100
0000
0000
0110
,
0000
0000
1001
0000
,
0000
0110
0000
0000
,
0001
0001
0001
0001
,
0002
0000
0000
0003
,
0001
0100
0010
1000
,
0200
2000
0000
0000
,
3300
0000
0000
0000
;

//---------------dance-single - BASIC----------------
#NOTES:
     dance-single:
     BASIC:
     Easy:
     3:
     0.267,0.292,0.147,0.136,0.000:
0000
0000
0000
0000
,
0000
0000
0000
0000
,
0000
0000
0000
0000
,
0000
0000
0000
0000
,
0000
0000
0000
0000
,
0000
0000
0000
0000
,
1000
0000
0000
0000
,
0001
0000
0001
0000
,
1000
0000
1000
0000
,
0001
0000
0000
0000
,
1000
0000
1000
0000
,
0001
0000
0001
0000
,
1000
0000
0000
0000
,
0010
0000
0010
0000
,
0100
0000
0100
0000
,
0010
0000
0000
0000
,
0100
0000
0100
0000
,
0010
0000
0010
0000
,
1000
0000
0000
0000
,
0000
0000
1000
0000
,
0010
0000
0100
0000
,
0001
0000
0000
0000
,
0000
0000
0000
0000
,
0000
0000
0000
0000
,
0001
0000
0000
1001
,
0000
0000
1000
0000
,
0001
0000
0100
0000
,
0000
0110
0000
0000
,
0010
0000
1000
0000
,
0001
0000
0000
1001
,
0000
0000
0001
0000
,
0010
0000
0100
0000
,
0000
0110
0000
0000
,
0100
0000
1000
0000
,
0000
1000
0000
0001
,
0000
1000
0002
0000
,
0000
0003
0000
0100
,
0000
0010
0000
0100
,
0020
0000
0000
0030
,
1000
0000
1000
0000
,
0001
0000
0001
0000
,
1000
0000
0100
0000
,
0010
0000
0001
0000
,
1000
0000
0002
0000
,
0000
0003
0000
0000
,
0000
0000
0000
0110
,
0000
0000
0000
0000
,
0000
1001
0000
0000
,
0000
0000
0000
0110
,
0000
0000
0000
0000
,
0000
1000
0000
1000
,
0000
1000
0000
0001
,
0000
0001
0000
0001
,
0000
1000
0000
0010
,
0000
1000
0000
0001
,
0000
0100
0000
0001
,
0000
1000
0000
0000
,
0001
0000
0000
2000
,
0000
0000
0000
3001
,
0000
0001
0000
0001
,
0000
1000
0000
1000
,
0000
1000
0000
0010
,
0000
0100
0000
0010
,
0000
2000
0000
0000
,
0000
3000
0000
0010
,
0000
0010
0000
0010
,
0000
0100
0000
0100
,
0000
0100
0000
0001
,
0000
0010
0000
0100
,
0000
1000
0000
0100
,
0000
0010
0000
0002
,
0000
0000
0000
0000
,
0000
0000
0000
0000
,
0003
0000
0000
0010
,
0000
0000
0000
0000
,
0200
0000
0000
0000
,
0000
0000
0000
0000
,
0300
0000
0000
1000
,
0000
0000
0000
0000
,
0002
0000
0000
0000
,
0000
0003
2000
0000
,
0000
0000
0000
3000
,
0020
0000
0000
0000
,
0000
0030
0200
0000
,
0000
0000
0000
0310
,
0000
0010
0000
0110
,
0000
0100
0000
0100
,
0000
0110
0000
0001
,
0000
0001
0000
1001
,
0000
1000
0000
1000
,
0000
1001
0000
1000
,
0000
1000
0000
1000
,
0000
1001
0000
0001
,
0000
0001
0000
0001
,
0000
1001
0000
1000
,
0000
0000
0100
0000
,
0000
0010
0000
0000
,
0001
0000
0000
0100
,
0000
0000
0010
0000
,
0000
1000
0000
0000
,
0002
0000
0000
0000
,
1003
0000
0000
0000
,
1000
0000
0001
0000
,
1000
0001
0000
0000
;

//---------------dance-single - SIMPLE----------------
#NOTES:
     dance-single:
     SIMPLE:
     Beginner:
     2:
     0.108,0.233,0.023,0.000,0.000: // measure 1
0000
0000
0000
0000
,  // measure 2
0000
0000
0000
0000
,  // measure 3
0000
0000
0000
0000
,  // measure 4
0000
0000
0000
0000
,  // measure 5
0000
0000
0000
0000
,  // measure 6
0000
0000
0000
0000
,  // measure 7
1000
0000
0000
0000
,  // measure 8
0000
0000
0000
0000
,  // measure 9
0000
0000
0000
0000
,  // measure 10
0100
0000
0000
0000
,  // measure 11
0000
0000
0000
0000
,  // measure 12
0000
0000
0000
0000
,  // measure 13
0010
0000
0000
0000
,  // measure 14
0000
0000
0000
0000
,  // measure 15
0000
0000
0000
0000
,  // measure 16
0001
0000
0000
0000
,  // measure 17
0000
0000
0000
0000
,  // measure 18
0000
0000
0000
0000
,  // measure 19
1000
0000
0000
0000
,  // measure 20
0000
0000
0000
0000
,  // measure 21
0000
0000
0000
0000
,  // measure 22
0010
0000
0000
0000
,  // measure 23
0000
0000
0000
0000
,  // measure 24
0000
0000
0000
0000
,  // measure 25
0100
0000
0000
0000
,  // measure 26
0000
0000
0010
0000
,  // measure 27
0000
0000
0100
0000
,  // measure 28
0000
0000
0000
0000
,  // measure 29
0001
0000
0000
0000
,  // measure 30
1000
0000
0000
0000
,  // measure 31
0000
0000
0001
0000
,  // measure 32
0000
0000
0010
0000
,  // measure 33
0000
0000
0000
0000
,  // measure 34
0100
0000
0000
0000
,  // measure 35
1000
0000
0000
0000
,  // measure 36
0000
0000
0000
0000
,  // measure 37
0000
0000
1000
0000
,  // measure 38
0000
0000
0000
0000
,  // measure 39
0000
0000
0000
0000
,  // measure 40
0001
0000
0000
0000
,  // measure 41
0000
0000
0000
0000
,  // measure 42
0000
0000
0001
0000
,  // measure 43
0000
0000
0000
0000
,  // measure 44
0000
0000
0000
0000
,  // measure 45
0001
0000
0000
0000
,  // measure 46
0000
0000
0000
1000
,  // measure 47
0000
0000
0000
0000
,  // measure 48
0000
0010
0000
0000
,  // measure 49
0000
0000
0000
0100
,  // measure 50
0000
0000
0000
0000
,  // measure 51
0000
0001
0000
0000
,  // measure 52
0000
0000
0000
0010
,  // measure 53
0000
0000
0000
0000
,  // measure 54
0000
0100
0000
0000
,  // measure 55
0000
0000
0000
1000
,  // measure 56
0000
0000
0000
0000
,  // measure 57
0000
1001
0000
0000
,  // measure 58
0000
0000
0000
0000
,  // measure 59
0000
0000
0000
0001
,  // measure 60
0000
0000
0000
0000
,  // measure 61
0000
0001
0000
0000
,  // measure 62
0000
0000
0000
1000
,  // measure 63
0000
0000
0000
0000
,  // measure 64
0000
1000
0000
0001
,  // measure 65
0000
1000
0000
0010
,  // measure 66
0000
0000
0000
0000
,  // measure 67
0000
0010
0000
0000
,  // measure 68
0000
0000
0000
0100
,  // measure 69
0000
0000
0000
0000
,  // measure 70
0000
0100
0000
0000
,  // measure 71
0000
0000
0000
0001
,  // measure 72
0000
0000
0000
0000
,  // measure 73
0000
0000
0000
0000
,  // measure 74
0000
0000
0000
0000
,  // measure 75
0000
0000
0000
0000
,  // measure 76
1000
0000
0000
0000
,  // measure 77
0000
0000
0000
0000
,  // measure 78
0000
0000
0000
0000
,  // measure 79
0000
0000
0000
0000
,  // measure 80
1000
0000
0000
0000
,  // measure 81
0000
0000
0100
0000
,  // measure 82
0000
0000
0000
0000
,  // measure 83
0010
0000
0000
0000
,  // measure 84
0000
0000
0001
0000
,  // measure 85
0000
0000
0000
1000
,  // measure 86
0000
0000
0000
0000
,  // measure 87
0000
0001
0000
0000
,  // measure 88
0000
0000
0000
0100
,  // measure 89
0000
0000
0000
0000
,  // measure 90
0000
0010
0000
0000
,  // measure 91
0000
0000
0000
1000
,  // measure 92
0000
0000
1000
0000
,  // measure 93
0000
1000
0000
0001
,  // measure 94
0000
0000
0001
0000
,  // measure 95
0000
0001
0000
1000
,  // measure 96
0000
0000
0100
0000
,  // measure 97
0000
0010
0000
0000
,  // measure 98
0001
0000
0000
1000
,  // measure 99
0000
0000
0010
0000
,  // measure 100
0000
0100
0000
0000
,  // measure 101
0001
0000
0000
0000
,  // measure 102
1000
0000
0000
0000
,  // measure 103
0010
0000
0100
0000
,  // measure 104
0110
0000
0000
0000
;
