#TITLE:How Soon Is Now;
#SUBTITLE:[Charmed];
#ARTIST:Love Spit Love;
#TITLETRANSLIT:;
#SUBTITLETRANSLIT:;
#ARTISTTRANSLIT:;
#CREDIT:;
#BANNER:hsin.png;
#BACKGROUND:hsin-bg.png;
#LYRICSPATH:;
#CDTITLE:!hiryuu.png;
#MUSIC:hsin.ogg;
#OFFSET:0.020;
#SAMPLESTART:28.449;
#SAMPLELENGTH:19.916;
#SELECTABLE:YES;
#BPMS:0.000=98.000;
#STOPS:;
#BGCHANGES:;

//---------------dance-single - MANIAC----------------
#NOTES:
     dance-single:
     MANIAC:
     Hard:
     8:
     0.481,0.493,0.092,0.338,0.531:
0000
0000
0000
0000
,
0000
0000
0000
0000
,
0000
0000
0000
0000
,
0000
0000
0000
0000
,
1000
0100
0000
0100
0001
0000
0001
0100
0000
0100
1000
0000
1000
0001
1000
0000
,
1000
0010
0000
0010
0001
0000
0001
0010
0000
0010
1000
0000
0100
0010
0100
0000
,
0010
0001
0000
0001
0100
0000
0100
1000
0000
1000
0100
0000
0001
0010
1000
0000
,
0100
1000
0000
1000
0010
0000
0010
0100
0000
0100
0001
0000
0010
0100
0010
0000
,
1000
0001
0000
0100
0010
0000
1000
0001
0000
0100
0010
0000
1000
0001
1000
0000
,
0010
0001
0000
1000
0100
0000
0010
0001
0000
1000
0100
0000
0010
0001
0010
0000
,
1000
0010
0000
0100
0001
0000
1000
0010
0000
0100
0001
0000
1000
0010
1000
0000
,
0001
0100
0000
0100
1000
0000
1000
0100
0000
0100
0001
0000
0010
0000
0100
0000
,
2000
0000
3000
0010
0100
0000
0001
1000
0000
1000
0002
0000
0000
0000
1000
0000
,
2003
0000
3000
0100
0010
0000
0010
0001
0000
0001
1000
0000
1000
0001
1000
0000
,
0010
0100
0000
0100
0001
0000
0001
0010
0000
0010
0100
0000
1000
0100
0000
0000
,
2000
0000
3200
0000
1300
0002
0000
0000
0013
0001
0100
0000
0010
0000
1000
0000
,
0020
0000
0000
0000
0030
0000
0100
0010
0000
0000
0100
1000
0100
0001
0000
0000
,
0001
1000
0000
0000
1001
0000
1000
0100
0000
0010
0001
0000
0001
0010
0100
0000
,
1000
0010
0000
0100
0001
0010
0001
0100
0010
0000
1000
0200
0000
0000
0300
0000
,
1000
0100
0000
0100
1000
0000
1000
0010
0000
0010
0001
0000
0001
0010
1000
0000
,
1000
0001
1000
0001
0100
0010
0100
0010
1000
0100
0010
0000
0001
0000
2000
0002
,
0000
3003
1001
0001
0100
0010
2000
0000
,
0001
0000
0000
0000
0010
0000
0000
3100
0010
0001
0010
0000
0001
0000
0100
0020
,
0000
0000
0130
0000
0010
1000
0000
1020
,
0000
0000
1030
0000
0100
0010
0000
0000
0020
0000
0000
0000
0001
2030
0000
0000
,
0000
3001
0000
1000
0010
0001
0010
1000
,
1001
0000
0000
0000
0110
0000
0000
0000
1000
0001
1000
0001
1000
0200
0000
0000
,
0000
0000
2000
0000
0000
0000
0000
0000
0300
0000
0000
0000
3001
1000
0001
0000
,
0000
0000
1000
0010
0000
0010
0001
0000
0001
0010
0000
0000
1000
0001
1000
0000
,
0000
0000
0001
0010
0000
0010
1000
0000
1000
0010
0000
0000
0010
0001
0100
0000
,
0002
0000
0023
0000
2030
0000
3100
0002
0000
0000
0003
0000
1001
0000
0001
0100
,
0010
0000
1000
0000
0010
0000
0100
0001
0000
0010
0001
0000
1000
0000
0010
0000
,
2010
0000
0000
3010
0100
0000
0001
1000
0000
0010
0001
0000
1000
0100
1000
0000
,
0010
0001
0000
0001
0100
0000
0100
1000
0000
1000
0100
0000
0010
1000
0001
0000
,
0001
0010
0000
0010
1000
0000
1000
0010
0000
0010
0001
0000
1000
0010
0100
0001
,
0010
0001
0010
0001
0010
0001
0010
0100
1000
0100
0010
0001
1000
0000
0010
0000
,
0200
0000
0000
0310
1000
0000
1000
0000
0100
0000
0010
0000
0001
0000
0100
0010
,
0100
0000
0000
0010
1000
0000
0010
1000
0010
0100
0001
0010
0002
0000
1003
0001
,
1000
0000
0000
0001
1000
0000
0000
0000
0002
0000
0023
0000
0000
0000
0230
0000
,
0000
0320
0032
0203
0000
2300
3200
0000
,
0000
0320
0000
0100
1030
0100
0001
1000
,
1001
0000
0000
0000
0110
0000
0000
0000
2000
0000
0002
0000
0000
3003
0000
0000
,
2002
0000
0000
0000
0000
0000
0000
0000
0000
0000
3003
0000
1000
0001
1000
0000
,
0000
0000
0001
0100
0000
0100
0010
0000
0010
1000
0000
0000
1000
0100
0001
0000
,
0000
0000
0001
0100
0000
0100
1000
0000
1000
0010
0000
0000
0010
0100
0001
0000
,
2000
0000
3020
0000
0032
0000
0203
0000
2300
0000
3000
0000
1001
0000
0010
0001
,
0100
0000
0010
0000
1000
0000
0100
1000
0000
1000
0100
0000
0010
0000
0001
0000
,
0202
0000
0303
0000
;

//---------------dance-single - TRICKY----------------
#NOTES:
     dance-single:
     TRICKY:
     Medium:
     5:
     0.266,0.274,0.108,0.215,0.119:
0000
0000
0000
0000
,
0000
0000
0000
0000
,
0000
0000
0000
0000
,
0000
0000
0000
0000
,
1000
0000
0000
0100
0000
0000
1000
0000
0000
0100
0000
0000
1000
0000
0010
0000
,
0100
0000
0000
0001
0000
0000
0100
0000
0000
0001
0000
0000
0100
0000
0010
0000
,
1000
0000
0000
0100
0000
0000
0010
0000
0000
0001
0000
0000
1000
0000
0001
0000
,
1000
0000
0000
0010
0000
0000
0100
0000
0000
0001
0000
0000
1000
0000
0010
0000
,
1000
0001
0000
0000
0000
0000
0001
1000
0000
0000
0000
0000
1001
0000
0000
0000
,
1000
0010
0000
0000
0000
0000
0100
0001
0000
0000
0000
0000
0101
0000
0000
0000
,
0010
0001
0000
0000
0000
0000
1000
0010
0000
0000
0000
0000
1001
0000
0000
0000
,
0100
0001
0000
0000
0000
0000
1000
0100
0000
0000
1000
0000
0100
0000
1000
0000
,
0020
0000
0000
0000
0000
0130
0000
0001
,
0020
0000
0000
0000
0030
0000
0010
0001
,
1000
0001
0000
0000
0000
0000
0001
1000
0000
0000
0000
0000
0002
0000
0000
0000
,
0013
0001
2000
0000
3010
0100
0010
0100
,
0002
0000
0000
1000
0003
2000
0000
0000
,
3001
0000
0000
1001
0000
0000
0110
0000
,
1001
0000
1000
0100
1000
0200
0000
0000
,
1300
0001
0000
0000
0000
0000
0001
0100
0000
0000
0000
0000
0000
0000
0000
0000
,
0002
0000
0000
0000
0000
1003
0100
0010
,
0002
0000
0000
1003
0100
1000
0002
0000
,
0000
0000
0000
0000
0013
0001
0100
0010
,
2000
0000
3100
0000
1000
0001
0000
1001
,
0000
0000
0100
0000
0010
1000
0000
0000
1001
0000
0000
0000
1000
0002
0000
0000
,
0000
0203
0000
0000
0300
0000
0000
0000
,
0002
0000
1003
0000
0100
0010
0002
0000
,
0000
0020
0000
0000
0033
0000
0000
0000
,
0000
0000
0010
0000
0000
0001
0000
0000
0100
0000
0000
0000
0001
0000
1000
0000
,
0000
0000
0010
0000
0000
1000
0000
0000
0100
0000
0000
0000
0010
0000
0001
0000
,
1000
0000
0010
0000
1000
0000
0002
2000
0000
0000
0000
3003
0000
0000
0000
0000
,
1000
0100
0010
0000
0100
0010
0001
0000
,
0202
0000
0303
0000
,
0001
0000
0000
0100
0000
0000
0010
0000
0000
1000
0000
0000
0010
0000
1000
0000
,
0100
0000
0000
0010
0000
0000
0001
0000
0000
0100
0000
0000
0010
0000
1000
0000
,
0010
1000
0100
0010
0001
0010
0100
1000
,
0002
0000
1000
0100
,
0010
0003
0000
0001
0010
0100
0020
0000
,
0000
0000
0030
0000
0001
0100
0000
0101
,
0000
0100
0010
1000
0000
1000
0200
0000
,
0000
1000
0000
0000
1300
0000
0010
0000
,
0110
0000
1001
0000
1000
0001
1000
0001
,
2002
0000
0000
3003
,
0000
0000
1000
0000
0000
0010
0000
0000
0100
0000
0000
0000
0001
0000
1000
0000
,
0000
0000
0010
0000
0000
0100
0000
0000
0001
0000
0000
0000
0010
0000
0100
0000
,
1000
0100
0001
0100
2000
0000
3000
0000
,
1000
0100
0010
0000
0100
0010
0001
0000
,
0022
0000
0033
0000
;

//---------------dance-single - BASIC----------------
#NOTES:
     dance-single:
     BASIC:
     Easy:
     3:
     0.140,0.181,0.085,0.092,0.000: // measure 1
0000
0000
0000
0000
,  // measure 2
0000
0000
0000
0000
,  // measure 3
0000
0000
0000
0000
,  // measure 4
0000
0000
0000
0000
,  // measure 5
1000
0000
0000
1000
0000
0000
0000
0000
,  // measure 6
0001
0000
0000
0001
0000
0000
0000
0000
,  // measure 7
0100
0000
0000
0100
0000
0000
0000
0000
,  // measure 8
0010
0000
0000
0010
0000
0000
0000
0000
,  // measure 9
1000
0000
0000
1000
0000
0000
1000
0000
,  // measure 10
0010
0000
0000
0010
0000
0000
0010
0000
,  // measure 11
0100
0000
0000
0001
0000
0000
0010
0000
,  // measure 12
0100
0000
0000
1000
0000
0000
0001
0000
,  // measure 13
2000
0000
0000
0000
0000
3010
0000
0000
,  // measure 14
0020
0000
0000
0030
,  // measure 15
0000
0000
0000
1000
,  // measure 16
1000
0100
0200
0000
,  // measure 17
0310
0000
0000
0010
0000
0000
0000
0000
,  // measure 18
0001
0000
0000
0001
0000
0000
0000
0000
,  // measure 19
1000
0000
0000
1000
0000
0000
0010
0000
,  // measure 20
0100
0000
0000
0100
0000
0000
0001
0000
,  // measure 21
2000
0000
0000
3000
,  // measure 22
0001
0000
0001
0100
,  // measure 23
0010
0000
1000
0000
,  // measure 24
0100
0000
0110
0000
,  // measure 25
0010
0001
1000
0001
,  // measure 26
1001
0000
1000
1000
,  // measure 27
0010
0000
0110
0000
0100
0001
1000
0000
,  // measure 28
0000
0000
0000
0000
,  // measure 29
0000
1000
0000
0000
1000
0000
1000
0000
,  // measure 30
0000
0001
0000
0000
0001
0000
0001
0000
,  // measure 31
2002
0000
0000
0000
0000
3003
0000
0000
,  // measure 32
1000
0001
0001
1000
,  // measure 33
0220
0000
0330
1001
,  // measure 34
1000
0000
0000
1000
0000
0000
1000
0000
,  // measure 35
0100
0000
0000
0100
0000
0000
0100
0000
,  // measure 36
0020
0000
0000
0030
,  // measure 37
0001
0000
0100
0010
,  // measure 38
1000
0000
0010
0000
,  // measure 39
1001
0000
0110
0000
,  // measure 40
1000
0100
0010
0001
,  // measure 41
2000
0000
0000
3000
,  // measure 42
0001
1000
0010
0100
,  // measure 43
0110
0000
0000
0000
,  // measure 44
0000
1000
0000
0000
1000
0000
0010
0000
,  // measure 45
0000
0100
0000
0000
0001
0000
1000
0000
,  // measure 46
2002
0000
0000
0000
0000
3003
0000
0000
,  // measure 47
1000
0000
0100
0000
,  // measure 48
0011
0000
0000
0000
;
