#TITLE:Heartful!!;
#SUBTITLE:[Arcana Heart 2];
#ARTIST:Motoharu Yoshihira;
#TITLETRANSLIT:;
#SUBTITLETRANSLIT:;
#ARTISTTRANSLIT:;
#GENRE:;
#CREDIT:;
#MENUCOLOR:;
#METERTYPE:DDR;
#BANNER:heartful.png;
#BACKGROUND:heartful-bg.png;
#LYRICSPATH:;
#CDTITLE:!x.png;
#MUSIC:heartful.ogg;
#OFFSET:0.000;
#SAMPLESTART:0.000;
#SAMPLELENGTH:24.620;
#SELECTABLE:YES;
#LISTSORT:;
#BPMS:0.000=156.000;
#STOPS:;
#BGCHANGES:;
#ATTACKS:;

//---------------dance-single - SMANIAC----------------
#NOTES:
     dance-single:
     SMANIAC:
     Challenge:
     11:
     1.000,1.000,0.549,0.680,1.000:
0000
0000
0000
0000
,
0000
0000
0000
0000
,
0000
0000
0000
0000
,
0000
0000
0000
0000
,
1000
0100
0010
0001
0000
0100
0010
1000
0001
0000
0010
0000
0010
0100
0000
0100
,
1000
0000
1000
0001
0000
0002
2000
0000
0003
3001
1000
0000
1000
0010
0000
0010
,
0100
0001
0000
0100
0010
0000
0100
0001
0000
0100
0010
0000
0100
0001
0000
0100
,
0010
0000
0000
0000
1001
0000
0000
0000
0110
0000
1000
0001
1000
0000
0110
0000
,
1000
0100
0010
0001
0000
0010
0001
1000
0100
0000
1000
0000
0100
1000
0000
1000
,
0001
0000
0010
0001
0000
0200
0020
0300
0130
0001
1000
0000
1000
0001
0000
0001
,
0010
0100
1000
0001
0000
1000
0010
0100
0001
0000
0010
0000
0001
0010
0000
0010
,
0001
0000
0001
1000
0000
2000
0020
3000
1030
0001
0010
0000
0010
0001
0000
0001
,
1000
0010
0100
0001
0000
0010
0100
1000
0001
0000
1000
0000
1000
0001
0000
0001
,
0010
0000
0010
0100
0000
0200
2000
0300
3001
1000
0010
0000
0010
1000
0000
1000
,
0100
0010
0000
0100
1000
0000
0100
0010
0000
0100
1000
0000
0100
0010
0000
0100
,
1000
0001
1000
0000
0010
0100
0010
0000
1000
0001
1000
0001
0100
0010
0100
0010
,
1000
0000
0001
0000
1000
0001
0000
0001
1000
0000
0000
0001
0010
0001
0100
0001
,
1000
0000
0100
1000
0000
0010
1000
0000
0100
1000
0000
0010
1000
0010
0100
0001
,
2000
3001
0200
0301
0020
0031
0200
0301
,
1000
0000
0010
1000
0000
0001
1000
0000
0000
0100
0000
1000
0100
0010
0001
0100
,
0001
0010
0100
2000
0000
0000
3002
0000
0000
0000
0100
0000
0000
0000
0103
0000
,
0010
0100
0001
2000
0000
0000
3002
0000
0000
0000
0010
0000
0100
0000
1003
0000
,
1000
0100
1000
0100
0010
0100
0010
0100
0010
0001
0010
0001
1000
0001
1000
0001
,
0010
0000
0001
0010
0000
0010
0100
0000
0100
1000
0000
1000
0100
1000
0100
0010
,
0001
0000
1000
0000
0001
1000
0000
1000
0001
0000
0000
1000
0100
1000
0010
1000
,
0001
0000
0010
0001
0000
0100
0001
0000
0010
0001
0000
0100
0001
0100
0010
1000
,
0200
1300
0020
1030
0002
1003
0020
1030
,
0001
0000
0100
0001
0000
1000
0001
0000
0000
0010
0000
0001
0010
0100
1000
0010
,
1000
0100
0010
0002
0000
0000
2003
0000
0000
0000
0010
0000
0000
0000
3010
0000
,
0100
0010
1000
0002
0000
0000
2003
0000
0000
0000
0001
0000
0010
0000
3100
0000
,
1000
0010
1000
0010
0100
0010
0100
0010
0100
0001
0100
0001
1000
0001
1000
0001
,
1000
0000
0010
1000
0000
0002
0200
0000
0003
0301
0010
0100
1000
0001
0010
0100
,
1000
0010
0100
0001
0010
0100
0010
0110
,
1000
0000
1001
0000
0100
0000
0220
0000
0000
0330
0010
0000
0100
0000
1000
0000
,
0001
0100
0010
1000
0100
0010
0100
0110
,
0001
0000
1001
0000
0010
0000
0220
0000
0000
0330
0100
0000
0010
0000
1000
0000
,
0001
0010
0100
0010
0001
1001
0010
0110
,
1000
0001
0010
0001
1000
0100
1000
0010
,
0100
0101
0100
1100
0100
0101
0100
1100
,
0010
0000
1010
0000
0010
0000
0011
0000
0010
0000
1010
0000
0010
1000
0100
0010
,
0001
1000
0001
1000
0000
0100
1000
0000
0010
0100
0010
0000
1000
0100
1000
0100
,
0010
0001
0010
0100
1000
0100
0010
0001
0010
0100
1000
0000
0001
1000
0001
0000
,
1000
0001
1000
0001
0000
0010
0001
0000
0100
0010
0100
0000
0001
0010
0001
0010
,
0100
1000
0100
0010
0001
0010
0100
1000
0100
0010
0001
0000
1000
0001
1000
0000
,
0010
0100
0010
0100
0000
0001
1000
0000
0010
0100
0010
1000
0100
1000
0010
0100
,
0010
1000
0001
1000
0001
0010
0001
0100
0010
0100
0001
1000
0001
1000
0100
1000
,
0002
0000
0000
0000
0000
0000
0103
0010
2000
0000
0000
0000
0002
0000
3000
0000
,
0200
0003
0000
0000
0020
0000
0000
0330
,
0010
1000
0010
0100
0010
1000
0010
0000
1000
0100
1000
0000
0100
0010
0100
0010
,
0001
0010
0001
1000
0001
0010
0001
0000
1000
0100
0010
0000
0100
0010
0001
1000
,
0100
0001
0100
0010
0100
0001
0100
0000
1000
0010
1000
0000
0010
0100
0010
0100
,
1000
0100
1000
0100
0010
1000
0010
0000
1000
0001
1000
0100
0010
0001
0010
0100
,
1001
0000
0001
0000
1001
0000
1000
0000
1001
0000
0001
0000
1001
0000
0000
0220
,
0000
0300
0130
0000
0001
1000
0000
2002
0000
0003
3001
0000
0010
0000
0100
0000
,
1100
1000
1100
0100
1100
1000
1100
0100
,
0220
0000
0330
2200
0000
3300
2002
0000
3003
0022
0000
0033
0001
0000
0100
0000
,
0110
0000
0100
0000
0110
0000
0010
0000
0110
0000
0100
0000
0110
0000
0000
2002
,
0000
3000
1003
0000
0100
0010
0000
0220
0000
0300
0130
0000
1000
0000
0010
0000
,
1010
0010
1010
1000
1010
0010
1010
1000
,
2002
0000
3003
2020
0000
3030
0220
0000
0330
0202
0000
0303
0001
0000
0100
0000
,
0101
0000
0001
0000
1001
0000
1000
0000
1010
0000
0010
0000
0110
0000
0000
0220
,
0000
0300
0130
0000
0010
1000
0000
2002
0000
0003
3001
0000
0100
0000
0010
0000
,
1001
0001
0101
0100
1100
1000
1100
0100
,
0202
0000
0303
0022
0000
0033
0220
0000
0330
2200
0000
3300
0010
0000
0100
0000
,
0110
0000
0010
0000
1010
0000
1000
0000
1001
0000
0001
0000
0011
0000
0000
0220
,
0000
0300
0130
0000
1000
0001
0000
2002
0000
0003
3001
0000
0100
0000
0010
0000
,
1000
0000
0100
1000
0000
0010
0100
0000
0001
0010
0000
0010
0001
0000
0100
0010
,
0000
1000
0100
0000
0010
0001
0000
0100
0010
0000
1000
0001
0000
0001
1000
0000
,
0001
0010
0100
1000
0000
0100
1000
0001
0010
0000
0001
0000
0010
0001
0000
0001
,
1000
0000
0100
1000
0000
0020
0200
0030
0310
1000
0001
0000
0001
1000
0000
1000
,
0100
0010
0001
1000
0000
0001
0100
0010
1000
0000
0100
0000
1000
0100
0000
0100
,
1000
0000
1000
0001
0000
0002
0200
0003
0301
1000
0100
0000
0100
1000
0000
1000
,
0001
0100
0010
1000
0000
0100
0010
0001
1000
0000
0001
0000
0001
1000
0000
1000
,
0100
0000
0100
0010
0000
0020
0002
0030
1003
0001
0100
0000
0100
0001
0000
0001
,
0010
0100
0000
0010
0001
0000
0010
0100
0000
0010
0001
0000
0010
0100
0000
0010
,
0001
0000
0000
0000
0110
0000
0000
0000
1000
0100
1000
0100
0010
0001
0010
0002
,
2000
0000
3003
0000
;

//---------------dance-single - MANIAC----------------
#NOTES:
     dance-single:
     MANIAC:
     Hard:
     9:
     0.557,0.693,0.377,0.197,0.409:
0000
0000
0000
0000
,
0000
0000
0000
0000
,
0000
0000
0000
0000
,
0000
0000
0000
0000
,
1000
0000
0100
1000
0000
0010
0100
0000
0000
0000
0001
0000
0000
0010
0000
0000
,
0001
0000
0000
0100
0000
0000
0020
0000
0000
0000
0030
0000
0110
0000
0000
0000
,
0010
1000
0000
0010
1000
0000
0001
0100
0000
0001
0100
0000
0001
1000
0000
0001
,
1000
0010
0100
0001
,
0010
0000
0001
0010
0000
0001
1000
0000
0000
0000
0100
0000
0000
1000
0000
0000
,
0010
0000
0000
0100
0000
0000
0001
0000
0000
0000
1000
0000
1001
0000
0000
0000
,
0010
0000
1000
0010
0000
1000
0001
0000
0000
0000
0100
0000
0000
0010
0000
0000
,
1000
0000
0000
0001
0000
0000
0100
0000
0000
0000
0010
0000
0100
0000
0001
0000
,
1000
0000
0100
0010
0000
0010
0001
0000
0000
0000
0100
0000
0000
0010
0000
0000
,
1000
0000
0000
0001
0000
0000
2000
0000
0000
0000
3000
0000
0110
0000
0000
0000
,
0100
0010
0000
0100
0010
0000
1000
0010
0000
1000
0010
0000
1000
0001
0000
1000
,
0001
0100
0010
1000
,
0001
0000
0100
0000
0001
1000
0000
0010
1000
0000
0000
0020
0000
0000
0000
0000
,
0130
0000
0000
0001
0000
0000
0010
0000
0000
0100
0000
0000
1000
0000
0001
0000
,
1001
1001
0110
0110
,
1000
0000
0000
0100
0000
0000
0010
0000
0000
0002
0000
0000
0000
0000
0000
0000
,
1003
0000
0100
1000
0000
0000
1100
0000
0000
0000
1000
0000
0000
0000
1000
0000
,
0001
0000
0010
0001
0000
0000
0011
0000
0000
0000
0001
0000
0010
0000
0100
0000
,
1000
1100
0001
0011
,
1000
0000
0000
0100
0000
0000
0010
0000
0000
0001
0000
0000
1000
0000
0001
0000
,
1000
0000
0010
0000
1000
0001
0000
0100
0001
0000
0000
0200
0000
0000
0000
0000
,
0310
0000
0000
1000
0000
0000
0100
0000
0000
0010
0000
0000
0001
0000
1000
0000
,
1001
1100
0011
0110
,
0001
0000
0000
0010
0000
0000
0100
0000
0000
2000
0000
0000
0000
0000
0000
0000
,
3001
0000
0100
0001
0000
0000
0101
0000
0000
0000
0001
0000
0000
0000
0001
0000
,
1000
0000
0010
1000
0000
0000
1010
0000
0000
0000
1000
0000
0010
0000
0100
0000
,
0001
0011
1000
1100
,
0001
0000
0000
0010
0000
0000
0200
0000
0000
0000
0000
0000
0000
0000
0000
0000
,
0300
0000
0001
0010
0001
0100
0000
0110
,
0000
1001
0000
2000
0000
3010
0100
0001
,
1000
0000
0100
1000
0010
0100
0000
0011
,
0000
1100
0000
0002
0000
0103
0010
1000
,
0100
0000
0010
0001
1000
0100
0000
0110
,
0000
0001
1000
0100
1000
0001
0010
0001
,
1000
1100
0001
0011
,
1000
1100
0001
1001
,
0000
0000
1000
0100
1000
0010
0000
0110
,
0000
1001
0000
0002
0000
0103
0010
1000
,
0001
0000
0010
0001
0100
0010
0000
1100
,
0000
0011
0000
2000
0000
3010
0100
0001
,
0010
0000
0100
1000
0001
0010
0000
0110
,
0000
1000
0001
0010
0001
1000
0100
1000
,
0002
0000
0000
0000
0000
0000
1003
0100
2000
0000
0000
0000
3020
0000
0000
0000
,
0230
0000
0000
0000
0302
0000
0000
0003
,
2002
0000
3000
0200
,
0000
0000
0003
0020
,
0000
0000
0300
2000
,
0000
0000
0000
3030
,
1001
0000
0000
0000
0001
0000
0000
0000
0100
0000
0000
0000
0010
0000
0000
1000
,
0000
0000
0100
0000
1000
0010
0000
0100
0000
0000
0001
0000
0010
0000
0100
0000
,
1000
1001
0010
0110
,
1000
0000
0000
0100
0000
0000
0010
0000
0000
0001
0000
0000
1000
0000
0001
0000
,
1001
0000
0000
0000
1000
0000
0000
0000
0010
0000
0000
0000
0100
0000
0000
0001
,
0000
0000
0010
0000
0001
0100
0000
0010
0000
0000
1000
0000
0100
0000
0010
0000
,
0001
1001
0100
0110
,
0001
0000
0000
0010
0000
0000
0100
0000
0000
1000
0000
0000
0001
0000
1000
0000
,
1100
0000
0000
0000
0010
0000
0000
0000
0100
0000
0000
0000
0001
0000
0000
0010
,
0000
0000
0100
0000
1000
0010
0000
0100
0000
0000
0001
0000
0010
0000
0100
0000
,
1000
1100
0001
0011
,
1000
0000
0000
0100
0000
0000
0010
0000
0000
0001
0000
0000
0100
0000
0001
0000
,
0101
0000
0000
0000
0010
0000
0000
0000
1000
0000
0000
0000
0001
0000
0000
0010
,
0000
0000
0100
0000
1000
0001
0000
1000
0000
0000
0100
0000
0010
0000
0001
0000
,
1000
0000
0001
1000
0000
0100
1000
0000
0010
0100
0000
0001
0100
0000
0001
0010
,
0000
0010
0100
0000
0100
1000
0000
1000
0010
0000
0010
0100
0000
0100
0001
0000
,
0010
0000
0001
0010
0000
0001
1000
0000
0000
0000
0100
0000
0000
1000
0000
0000
,
0010
0000
0000
0100
0000
0000
0001
0000
0000
0000
1000
0000
1001
0000
0000
0000
,
0010
0000
1000
0010
0000
1000
0001
0000
0000
0000
0100
0000
0000
0010
0000
0000
,
1000
0000
0000
0001
0000
0000
0100
0000
0000
0000
0010
0000
0100
0000
0001
0000
,
1000
0000
0100
0010
0000
0010
0001
0000
0000
0000
0100
0000
0000
0010
0000
0000
,
1000
0000
0000
0001
0000
0000
2000
0000
0000
0000
3000
0000
0110
0000
0000
0000
,
0100
0010
0000
0100
0010
0000
1000
0010
0000
1000
0010
0000
1000
0001
0000
1000
,
0001
0000
0000
0000
0010
0000
0000
0000
0100
0010
0100
0010
0001
1000
0001
2000
,
0002
0000
0000
0000
,
3003
0000
0000
0000
;

//---------------dance-single - TRICKY----------------
#NOTES:
     dance-single:
     TRICKY:
     Medium:
     6:
     0.350,0.441,0.205,0.197,0.090:
0000
0000
0000
0000
,
0000
0000
0000
0000
,
0000
0000
0000
0000
,
0000
0000
0000
0000
,
1000
1000
0001
0001
,
1000
0000
0000
0001
0000
0000
1000
0000
0000
0000
0000
0000
1001
0000
0000
0000
,
0001
0001
0001
0001
,
0100
0010
1000
0001
,
1000
1000
0010
0010
,
0100
0000
0000
0001
0000
0000
0100
0000
0000
0000
0000
0000
0101
0000
0000
0000
,
0001
0001
0100
0100
,
0010
0000
0000
1000
0000
0000
0010
0000
0000
0000
0000
0000
1010
0000
0000
0000
,
0010
0010
0100
0100
,
0010
0000
0000
0100
0000
0000
0010
0000
0000
0000
0000
0000
0110
0000
0000
0000
,
1000
1000
1000
1000
,
0010
0100
0001
1000
,
0001
0001
0001
0100
,
0010
1000
0001
1000
,
0010
0010
0100
0100
,
0001
1000
0100
1000
,
0002
0000
0000
0000
0000
1000
0003
0000
,
2000
0000
0000
0000
0000
0001
3000
0000
,
0001
0010
0100
1000
,
0010
0100
0001
1000
,
1000
1000
1000
0010
,
0100
0001
1000
0001
,
0100
0100
0010
0010
,
1000
0001
0010
0001
,
2000
0000
0000
0000
0000
0001
3000
0000
,
0002
0000
0000
0000
0000
1000
0003
0000
,
1000
0100
0010
0001
,
0100
0000
0000
0020
0000
0000
0200
0000
0000
0000
0000
0000
0000
0000
0330
0000
,
0000
0010
0000
0110
,
0000
0000
0100
0000
0000
0000
0001
1000
,
0000
0001
0000
0011
,
0000
0000
1000
0000
0000
0000
0100
1000
,
0000
0010
0000
1010
,
0000
0000
0100
0000
0000
0000
0100
0001
,
1000
1000
0010
0010
,
0100
0001
1000
0001
,
0000
1000
0100
1000
,
0000
0000
0001
0000
0010
0000
0001
0010
,
0000
0001
1000
0001
,
0000
0000
1000
0000
0001
0000
1000
0001
,
0000
0100
0010
0100
,
0000
0000
0010
0000
0100
0000
0010
0100
,
0010
0000
1000
0000
,
0001
0000
0010
0000
,
0220
0000
0000
0330
,
2002
0000
0000
3003
,
2200
0000
0000
3300
,
0022
0000
0000
0033
,
1001
0000
0000
0000
1000
0000
0000
0000
0010
0000
0000
0000
0100
0000
0000
0020
,
0000
0000
0000
0000
0000
0000
0000
0230
0000
0000
0000
0000
0000
0000
0000
0000
,
0310
0110
0001
1001
,
0001
0000
0000
0010
0000
0000
0100
0000
0000
1000
0000
0000
0001
0000
1000
0000
,
1001
0000
0000
0000
0001
0000
0000
0000
0100
0000
0000
0000
0010
0000
0000
0200
,
0000
0000
0000
0000
0000
0000
0000
0320
0000
0000
0000
0000
0000
0000
0000
0000
,
0130
0110
1000
1001
,
1000
0000
0000
0100
0000
0000
0010
0000
0000
0001
0000
0000
1000
0000
0001
0000
,
0011
0000
0000
0000
0010
0000
0000
0000
0001
0000
0000
0000
0100
0000
0000
0020
,
0000
0000
0000
0000
0000
0000
0000
0230
0000
0000
0000
0000
0000
0000
0000
0000
,
0310
1010
1000
1100
,
0001
0000
0000
0010
0000
0000
0100
0000
0000
1000
0000
0000
0001
0000
1000
0000
,
1010
0000
0000
0000
0100
0000
0000
0000
0001
0000
0000
0000
1000
0000
0000
0200
,
0000
0000
0000
0000
0000
0000
0000
0320
0000
0000
0000
0000
0000
0000
0000
0000
,
0031
0001
1000
1000
,
0010
0100
0001
1000
,
1000
1000
0010
0010
,
0100
0000
0000
0001
0000
0000
0100
0000
0000
0000
0000
0000
0101
0000
0000
0000
,
0001
0001
0100
0100
,
0010
0000
0000
1000
0000
0000
0010
0000
0000
0000
0000
0000
1010
0000
0000
0000
,
0010
0010
0100
0100
,
0010
0000
0000
0100
0000
0000
0010
0000
0000
0000
0000
0000
0110
0000
0000
0000
,
1000
1000
1000
1000
,
0010
0100
0001
1000
,
2002
0000
0000
0000
,
3003
0000
0000
0000
;

//---------------dance-single - BASIC----------------
#NOTES:
     dance-single:
     BASIC:
     Easy:
     3:
     0.206,0.315,0.090,0.049,0.000:
0000
0000
0000
0000
,
0000
0000
0000
0000
,
0000
0000
0000
0000
,
0000
0000
0000
0000
,
1000
0000
1000
0000
,
0001
0010
0001
0000
,
0100
0000
0100
0000
,
0010
0010
0100
0100
,
0001
0000
0001
0000
,
1000
0000
1000
0000
,
0010
0000
0010
0000
,
0100
0010
0100
0000
,
0001
0000
0001
0000
,
1000
0100
1000
0000
,
0010
0010
0100
0100
,
0001
0000
1000
0000
,
0001
0000
0000
0000
,
0001
0000
0000
0000
,
1000
1000
0001
0001
,
0100
0000
0010
0000
,
0110
0000
0000
0000
,
1001
0000
0000
0000
,
0010
0010
0100
0100
,
0001
0000
1000
0000
,
1000
0000
0000
0000
,
1000
0000
0000
0000
,
0001
0001
1000
1000
,
0010
0000
0100
0000
,
0110
0000
0000
0000
,
1001
0000
0000
0000
,
0100
0100
0010
0010
,
2002
0000
3003
0000
,
0000
1000
0000
1000
,
0000
0001
0000
0001
,
0000
0100
0000
0100
,
0000
0010
0000
0010
,
0000
1000
0000
0100
,
0000
0010
0000
0001
,
0000
0100
0000
0010
,
0000
1000
0001
1000
,
0000
0001
0000
0001
,
0000
1000
0000
1000
,
0000
0010
0000
0010
,
0000
0100
0000
0100
,
0000
0001
0000
0010
,
0000
0100
0000
1000
,
0001
0000
0000
0000
,
1000
0000
0000
0000
,
2002
0000
0000
0000
,
0000
0000
0000
0000
,
0000
0000
0000
0000
,
0000
0000
0000
3003
,
1001
0000
0001
0000
,
1000
0000
0010
0000
,
0100
0100
0010
0010
,
1000
0000
0100
0000
,
0110
0000
0010
0000
,
0001
0000
0100
0000
,
0010
0010
1000
1000
,
0001
0000
1000
0000
,
1001
0000
0001
0000
,
0010
0000
0100
0000
,
1000
1000
0010
0010
,
0100
0000
0010
0000
,
0110
0000
0010
0000
,
1000
0000
0100
0000
,
0010
0010
0001
0001
,
1000
1000
0100
0100
,
1000
0000
1000
0000
,
0001
0000
0001
0000
,
0100
0000
0100
0000
,
0010
0100
0010
0000
,
1000
0000
1000
0000
,
0001
0010
0001
0000
,
0100
0100
0010
0010
,
1000
0001
1000
0001
,
2002
0000
0000
0000
,
3003
0000
0000
0000
;

//---------------dance-single - SIMPLE----------------
#NOTES:
     dance-single:
     SIMPLE:
     Beginner:
     1:
     0.083,0.124,0.008,0.000,0.000: // measure 1
0000
0000
0000
0000
,  // measure 2
0000
0000
0000
0000
,  // measure 3
0000
0000
0000
0000
,  // measure 4
0000
0000
0000
0000
,  // measure 5
1000
0000
0000
0000
,  // measure 6
0100
0000
0000
0000
,  // measure 7
0010
0000
0000
0000
,  // measure 8
0001
0000
0000
0000
,  // measure 9
1000
0000
0000
0000
,  // measure 10
1000
0000
0000
0000
,  // measure 11
0010
0000
0000
0000
,  // measure 12
0010
0000
0000
0000
,  // measure 13
0100
0000
0000
0000
,  // measure 14
0100
0000
0000
0000
,  // measure 15
0001
0000
0000
0000
,  // measure 16
0001
0000
0000
0000
,  // measure 17
1000
0000
0000
0000
,  // measure 18
0100
0000
0000
0000
,  // measure 19
1000
0000
0000
0000
,  // measure 20
0001
0000
0000
0000
,  // measure 21
1000
0000
0000
0000
,  // measure 22
1000
0000
0000
0000
,  // measure 23
0001
0000
0000
0000
,  // measure 24
0001
0000
0000
0000
,  // measure 25
0100
0000
0000
0000
,  // measure 26
0010
0000
0000
0000
,  // measure 27
0100
0000
0000
0000
,  // measure 28
0001
0000
0000
0000
,  // measure 29
0100
0000
0000
0000
,  // measure 30
0100
0000
0000
0000
,  // measure 31
0010
0000
0000
0000
,  // measure 32
0010
0000
0000
0000
,  // measure 33
1000
0000
0000
0000
,  // measure 34
0100
0000
0000
0000
,  // measure 35
0010
0000
0000
0000
,  // measure 36
0001
0000
0000
0000
,  // measure 37
0010
0000
0000
0000
,  // measure 38
0100
0000
0000
0000
,  // measure 39
1000
0000
0000
0000
,  // measure 40
0001
0000
0000
0000
,  // measure 41
1000
0000
0000
0000
,  // measure 42
0010
0000
0000
0000
,  // measure 43
0100
0000
0000
0000
,  // measure 44
0001
0000
0000
0000
,  // measure 45
0010
0000
0000
0000
,  // measure 46
0100
0000
0000
0000
,  // measure 47
1000
0000
0000
0000
,  // measure 48
0001
0000
0000
0000
,  // measure 49
1000
0000
0000
0000
,  // measure 50
0000
0000
0000
0000
,  // measure 51
0000
0000
0000
0000
,  // measure 52
0000
0000
0000
0000
,  // measure 53
0001
0000
0000
0000
,  // measure 54
0010
0000
0000
0000
,  // measure 55
0100
0000
0000
0000
,  // measure 56
1000
0000
0000
0000
,  // measure 57
0001
0000
0000
0000
,  // measure 58
0100
0000
0000
0000
,  // measure 59
0010
0000
0000
0000
,  // measure 60
1000
0000
0000
0000
,  // measure 61
0001
0000
0000
0000
,  // measure 62
1000
0000
0000
0000
,  // measure 63
0010
0000
0000
0000
,  // measure 64
0100
0000
0000
0000
,  // measure 65
0001
0000
0000
0000
,  // measure 66
1000
0000
0000
0000
,  // measure 67
0100
0000
0000
0000
,  // measure 68
0010
0000
0000
0000
,  // measure 69
0001
0000
0000
0000
,  // measure 70
0001
0000
0000
0000
,  // measure 71
1000
0000
0000
0000
,  // measure 72
1000
0000
0000
0000
,  // measure 73
0010
0000
0000
0000
,  // measure 74
0010
0000
0000
0000
,  // measure 75
0100
0000
0000
0000
,  // measure 76
0100
0000
0000
0000
,  // measure 77
1001
0000
0000
0000
;
