#TITLE:Gutsman Stage;
#SUBTITLE:[Mega Man];
#ARTIST:Y丸 [WORLD OUT];
#TITLETRANSLIT:Gutsman Stage;
#SUBTITLETRANSLIT:[Mega Man];
#ARTISTTRANSLIT:Ymaru [WORLD OUT];
#GENRE:;
#CREDIT:;
#MENUCOLOR:;
#METERTYPE:DDR;
#BANNER:guts.png;
#BACKGROUND:guts-bg.png;
#LYRICSPATH:;
#CDTITLE:!hiryuu.png;
#MUSIC:guts.ogg;
#OFFSET:-0.010;
#SAMPLESTART:14.283;
#SAMPLELENGTH:26.120;
#SELECTABLE:YES;
#LISTSORT:;
#BPMS:0.000=147.000,260.000=294.000;
#STOPS:260.000=2.449
;
#BGCHANGES:;
#ATTACKS:;

//---------------dance-single - MANIAC----------------
#NOTES:
     dance-single:
     MANIAC:
     Hard:
     10:
     0.829,0.866,0.277,0.292,1.000: // measure 1
0000
0000
0000
0000
,  // measure 2
0000
0000
0000
0000
,  // measure 3
0000
0000
0000
0000
,  // measure 4
0000
0000
0000
0000
,  // measure 5
0000
0000
0000
0000
,  // measure 6
1000
0100
1000
0010
0100
0001
0011
0000
0000
0010
0100
1000
,  // measure 7
1010
0000
0000
0010
0100
0001
0010
0100
1000
0010
0100
0001
,  // measure 8
0010
0001
0100
0010
1000
0100
1100
0000
0000
0010
0100
0001
,  // measure 9
0101
0000
0000
1001
0000
0000
0110
0000
0000
1000
0100
0010
,  // measure 10
0001
0010
0001
0010
0001
0010
0001
1000
0001
1000
0001
1000
,  // measure 11
0001
0100
0001
1000
0010
1000
0001
0010
0100
1000
0100
0010
,  // measure 12
0001
0100
0001
0100
0001
0100
0010
1000
0010
1000
0010
1000
,  // measure 13
0100
1000
0100
0010
0001
0010
0100
1000
0001
0100
0010
1000
,  // measure 14
0001
1000
0001
1000
0001
1000
0010
0100
0010
0100
0010
0100
,  // measure 15
0001
0010
0001
1000
0100
1000
0001
0100
0010
1000
0010
0100
,  // measure 16
0001
0100
0001
0100
0001
0100
0010
1000
0010
1000
0010
1000
,  // measure 17
0002
0000
0000
0023
0000
0000
0230
0000
0000
1300
0100
0000
,  // measure 18
1000
0100
1000
0100
1000
0100
0010
0001
0010
0001
0010
0001
,  // measure 19
1000
0010
1000
0001
0100
0001
1000
0100
0010
0001
0010
0100
,  // measure 20
1000
0010
1000
0010
1000
0010
0100
0001
0100
0001
0100
0001
,  // measure 21
1000
0100
1000
0001
0010
0001
1000
0010
0100
0001
0010
0100
,  // measure 22
2000
0000
3020
0230
,  // measure 23
0301
0010
0001
0010
0001
0010
0100
1000
0100
1000
0100
1000
,  // measure 24
0020
0000
0230
0302
,  // measure 25
0103
0001
0100
0001
0100
0001
1000
0010
1000
0010
1000
0010
,  // measure 26
1000
0100
1000
0010
0100
0001
0110
0000
0000
0100
1000
0010
,  // measure 27
0110
0000
0000
0010
0100
0001
0010
0100
1000
0010
0100
0001
,  // measure 28
0010
0100
1000
0010
1000
0010
0110
0000
0000
0100
0001
0010
,  // measure 29
0110
0000
0000
0100
0010
0001
1000
0100
0010
0001
1000
0100
,  // measure 30
0010
0001
0100
0010
1000
0001
1001
0000
0000
0010
0001
1000
,  // measure 31
1001
0000
0000
0010
0001
0100
0010
1000
0100
1000
0010
0100
,  // measure 32
0001
0100
0010
1000
0100
0010
0110
0000
0000
0010
0001
1000
,  // measure 33
1001
0000
0010
0110
0000
1000
1001
0000
0010
0110
0000
0000
,  // measure 34
2000
3001
0002
1003
,  // measure 35
1000
0100
1000
0100
1000
0100
0010
0001
0010
0001
0010
0001
,  // measure 36
0200
0310
0020
0130
,  // measure 37
0010
0100
0010
0100
0010
0100
0001
1000
0001
1000
0001
1000
,  // measure 38
0200
1300
2000
3001
,  // measure 39
0001
0010
0001
0010
0001
0010
0001
1000
0001
1000
0001
1000
,  // measure 40
0002
0103
0020
1030
,  // measure 41
0011
0110
1100
1001
,  // measure 42
0002
0013
0020
0031
,  // measure 43
1000
0010
1000
0010
1000
0010
0100
0001
0100
0001
0100
0001
,  // measure 44
2000
3100
0200
1300
,  // measure 45
1000
0100
0010
0001
0010
0100
1000
0100
0010
0100
1000
0100
,  // measure 46
0020
0000
0032
0203
,  // measure 47
0310
1000
0010
0100
0001
0100
0010
1000
0010
0100
0001
0100
,  // measure 48
0002
0000
0203
0320
,  // measure 49
2030
0002
0000
0000
0000
0000
0000
0000
0000
0000
0000
3003
,  // measure 50
1000
0100
1000
0100
1000
0100
0010
0001
0010
0001
0010
0001
,  // measure 51
0100
0010
0100
0010
0100
0010
1000
0100
0010
0001
0010
0100
,  // measure 52
1000
0010
1000
0010
1000
0010
0100
0001
0100
0001
0100
0001
,  // measure 53
1000
0001
1000
0001
1000
0001
1000
0010
0100
0001
0010
0100
,  // measure 54
1000
0001
1000
0001
1000
0001
0100
0010
0100
0010
0100
0010
,  // measure 55
1000
0100
1000
0100
1000
0100
0010
0001
1000
0100
0010
0001
,  // measure 56
1000
0010
1000
0010
1000
0010
0100
0001
0100
0001
0100
0001
,  // measure 57
0100
0010
0100
0010
0100
0010
1000
0100
0010
0001
0010
0100
,  // measure 58
1000
0100
1000
0010
0100
0001
0011
0000
0000
0010
0100
1000
,  // measure 59
1100
0000
0000
0100
1000
0100
0010
0001
1000
0010
0100
0001
,  // measure 60
1000
0010
0100
0001
0010
0100
1100
0000
0000
0010
0100
0001
,  // measure 61
0011
0000
0000
0010
0100
1000
0100
0010
0001
1000
0010
0100
,  // measure 62
0001
0010
0100
1000
0001
1000
1001
0000
0000
0001
0100
0010
,  // measure 63
0110
0000
0000
0010
1000
0100
0010
0001
0100
0001
0010
0100
,  // measure 64
1000
0100
0010
0001
0010
0100
1100
0000
0000
0010
0100
0001
,  // measure 65
0101
0011
0110
1100
,  // measure 66
2002
0000
3003
0000
,  // measure 67
1001
0000
0001
1000
0001
1000
0001
1000
,  // measure 68
0000
0000
0100
0000
1000
0100
1000
0100
,  // measure 69
0000
0000
1000
0000
0010
1000
0010
1000
,  // measure 70
0000
0000
0010
0000
0100
0001
0000
0000
,  // measure 71
1001
0000
0100
1000
0100
1000
0100
1000
,  // measure 72
0000
0000
0010
0000
0100
0001
0100
0001
,  // measure 73
1000
0000
0001
0000
1000
0000
0001
1000
,  // measure 74
0000
0000
0010
0000
0100
0001
0000
0000
,  // measure 75
1001
0000
0001
0010
0001
0010
0001
0010
,  // measure 76
0000
0000
0001
0000
0100
0010
0100
0010
,  // measure 77
0000
0000
0100
0000
0010
1000
0010
1000
,  // measure 78
0000
0000
0100
0000
1000
0010
0000
0000
,  // measure 79
0110
0000
0010
0100
0010
0100
0010
0100
,  // measure 80
0000
0000
0010
0000
1000
0100
1000
0100
,  // measure 81
0000
0000
1000
0000
0001
0100
0001
0100
,  // measure 82
0000
0000
0001
0000
0100
0010
0000
0000
,  // measure 83
1000
0010
0100
0001
0010
0001
0100
0020
,  // measure 84
0000
0000
2030
0000
3010
0100
0001
0020
,  // measure 85
0000
0000
0031
0100
0001
1000
0100
2000
,  // measure 86
0000
3100
0010
0001
0100
0010
1000
0100
,  // measure 87
0010
0001
0100
0001
1000
0010
1000
0200
,  // measure 88
0000
0000
1300
0100
0010
0001
0100
0020
,  // measure 89
0000
0130
0010
1000
0100
1000
0001
0020
,  // measure 90
0000
0130
1000
0010
0100
0001
0010
0100
,  // measure 91
1000
0100
0010
0001
0000
0010
0100
1000
,  // measure 92
0000
0100
0010
0001
0000
0010
0100
1000
,  // measure 93
0100
0010
0001
1000
0100
0010
0001
0010
,  // measure 94
0100
0000
0000
0000
1000
0000
0001
2002
,  // measure 95
0000
0000
0000
0000
,  // measure 96
3003
0000
0000
0000
;

//---------------dance-single - TRICKY----------------
#NOTES:
     dance-single:
     TRICKY:
     Medium:
     6:
     0.396,0.450,0.292,0.299,0.000:
0000
0000
0000
0000
,
0000
0000
0000
0000
,
0000
0000
0000
0000
,
0000
0000
0000
0000
,
0000
0000
0000
0000
,
1000
0100
0011
0100
,
1100
0010
0001
0100
,
0010
1000
1010
0010
,
0220
0330
2002
3003
,
0001
0001
1000
1000
,
0010
0100
0001
0010
,
0100
0100
0010
0010
,
0001
0010
0100
1000
,
2000
0000
3020
0000
,
0130
0001
0010
0100
,
2000
0000
3200
0000
,
0310
0001
1000
1001
,
0001
0001
0100
0100
,
0010
1000
0001
0010
,
0100
0100
0010
0010
,
0001
0010
0100
1000
,
2000
0000
3200
0000
,
0310
0001
0100
0010
,
2000
0000
3020
0000
,
0130
0001
1000
0100
,
0010
0001
0011
0100
,
1010
0001
1000
0010
,
0100
0001
1100
1000
,
0101
0001
0010
0100
,
1000
0010
0110
0010
,
1001
0010
1000
0100
,
0010
0001
1001
0010
,
0110
0110
1001
1001
,
2000
0000
3020
0000
,
0230
0001
1000
0010
,
0320
0000
2030
0000
,
3002
0100
0010
1000
,
2003
0000
3200
0000
,
0320
0001
1000
0130
,
0200
0000
2300
0000
,
3002
0023
0230
2300
,
3020
0000
0230
0000
,
0302
0100
1000
0013
,
0020
0000
0230
0000
,
1300
0100
0010
0001
,
2000
0000
3002
0000
,
1003
0010
0100
0001
,
0002
0000
2003
0000
,
0002
0000
0000
3003
,
1000
1000
0100
1000
,
0010
1000
0001
0010
,
0100
0100
0010
0100
,
0001
0100
1000
0010
,
0110
0100
0110
0010
,
1010
1000
0100
0010
,
0001
0101
0100
0110
,
0010
1001
0001
1000
,
0001
0100
0110
0010
,
1001
0010
0100
0001
,
0010
0001
0101
0100
,
1010
0010
0100
0001
,
1000
0010
0110
1000
,
1001
0001
0010
0100
,
1000
0100
0011
0100
,
1001
0110
1001
0110
,
2002
0000
3003
0000
,
1000
0000
0000
0000
0000
0000
0000
0001
,
0000
0000
0100
0000
0000
0000
0000
0001
,
0000
0000
1000
0000
0000
0000
0000
0001
,
0000
0000
0100
0000
0010
1000
0000
0000
,
0001
0000
0000
0000
0000
0000
0000
1000
,
0000
0000
0010
0000
0000
0000
0000
1000
,
0000
0000
0001
0000
0000
0000
0000
1000
,
0000
0000
0010
0000
0100
0001
0000
0000
,
1000
0100
1000
0100
,
0010
0001
0010
0001
,
1000
0001
1000
0001
,
1000
0100
0010
0001
,
0100
0001
0100
0001
,
1000
0010
1000
0010
,
0100
0010
0100
0010
,
1000
0010
0100
0001
,
1000
0100
0010
0001
,
0000
0100
0010
1000
,
0000
0010
0100
0001
,
0000
1000
0010
0100
,
0001
0010
0100
1000
,
0000
0100
0010
0001
,
0000
0100
0010
1000
,
0000
0100
0010
0001
,
1001
0000
0110
0000
,
1001
0000
0110
0000
,
1000
0100
0010
0001
,
1001
0000
0000
0000
0002
0000
0000
2000
,
0000
0000
0000
0000
,
3003
0000
0000
0000
;

//---------------dance-single - BASIC----------------
#NOTES:
     dance-single:
     BASIC:
     Easy:
     3:
     0.205,0.274,0.073,0.000,0.000:
0000
0000
0000
0000
,
0000
0000
0000
0000
,
0000
0000
0000
0000
,
0000
0000
0000
0000
,
0000
0000
0000
0000
,
1000
0000
0001
0000
,
0100
0000
0010
1000
,
0001
0000
0100
0000
,
0010
1000
0001
0100
,
0001
0000
0010
0000
,
0100
1000
0100
1000
,
0010
0000
0100
0000
,
0001
0010
0001
0010
,
0001
0000
1000
0000
,
0100
1000
0010
0100
,
0001
0000
0100
0000
,
0010
0000
1000
0000
,
0001
0000
0100
0000
,
0010
1000
0010
1000
,
0001
0000
0100
0000
,
0001
0100
0001
0100
,
0001
0000
0010
0000
,
0100
1000
0010
0100
,
0001
0000
1000
0000
,
0100
1000
0010
0100
,
0001
0000
0010
0000
,
0100
0000
1000
0010
,
0100
0000
0001
0000
,
1000
0000
0100
0010
,
0001
0000
0100
0000
,
0010
0000
1000
0010
,
1000
0000
0010
0000
,
0100
0001
0100
0001
,
1000
0000
0010
0000
,
0110
0000
0000
0000
,
0100
0000
0001
0000
,
1001
0000
0000
0000
,
1000
0000
0100
0000
,
0011
0000
0000
0000
,
0001
0000
0100
0000
,
1010
0000
0000
0000
,
1000
0000
0010
0000
,
1001
0000
0000
0000
,
0100
0000
0001
0000
,
0110
0000
0000
0000
,
0010
0000
1000
0000
,
1001
0000
0000
0000
,
0001
0000
0010
0000
,
0110
0000
0000
0000
,
1000
0000
1000
0000
,
1000
0000
1000
0000
,
0001
0000
0001
0000
,
0001
0000
0001
0000
,
0100
0000
0010
0000
,
0100
0000
0001
1000
,
0001
0000
0100
0000
,
0010
0000
1000
0100
,
1000
0000
0010
0000
,
0100
0000
0001
0010
,
0001
0000
1000
0000
,
0010
0000
0100
0001
,
0010
0000
0100
0000
,
1000
0000
0010
0100
,
0001
0000
1000
0000
,
0001
0001
1000
1000
,
1001
0000
0000
0000
,
1000
0000
0000
0000
,
0001
0000
0000
0000
,
0100
0000
0000
0000
,
0010
0000
0000
0000
,
1000
0000
0000
0000
,
0100
0000
0000
0000
,
0010
0000
0000
0000
,
0001
0000
0000
0000
,
1000
0000
1000
0000
,
0010
0000
0010
0000
,
0100
0000
0100
0000
,
0001
0000
0001
0000
,
1000
0000
0100
0000
,
0010
0000
0001
0000
,
1000
0000
0010
0000
,
0100
0000
0001
0000
,
1000
0000
0100
0000
,
0010
0000
0001
0000
,
0100
0000
0010
0000
,
1000
0000
0001
0000
,
0010
0000
0100
0000
,
1000
0000
0001
0000
,
0010
0000
0100
0000
,
1000
0000
0100
0000
,
1000
0000
0000
0000
,
0001
0000
0000
0000
,
0100
0000
0000
0000
,
0010
0000
0000
0000
,
1001
0000
0000
0000
;
