#TITLE:Glyphixication;
#SUBTITLE:;
#ARTIST:Strobe;
#TITLETRANSLIT:;
#SUBTITLETRANSLIT:;
#ARTISTTRANSLIT:;
#CREDIT:;
#BANNER:glyph.png;
#BACKGROUND:glyph-bg.png;
#LYRICSPATH:;
#CDTITLE:!hiryuu.png;
#MUSIC:glyph.ogg;
#OFFSET:0.000;
#SAMPLESTART:13.454;
#SAMPLELENGTH:17.720;
#SELECTABLE:YES;
#BPMS:0.000=125.270,8.625=112.070,8.875=110.810,9.000=118.650,9.125=106.230,9.250=88.210,9.375=84.350,9.500=75.510,9.625=53.890,9.750=33.470,9.875=11.510,10.000=125.270,135.000=250.540,138.500=125.270,201.000=62.135,202.000=125.270,218.000=250.540,234.000=125.270,262.000=250.540;
#STOPS:135.000=0.030
,135.125=0.030
,135.250=0.030
,135.375=0.030
,135.500=0.030
,135.625=0.030
,135.750=0.030
,135.875=0.030
,136.000=0.030
,136.125=0.030
,136.250=0.030
,136.375=0.030
,136.500=0.030
,136.625=0.030
,136.750=0.030
,136.875=0.030
,137.000=0.030
,137.125=0.030
,137.250=0.030
,137.375=0.030
,137.500=0.030
,137.625=0.030
,137.750=0.030
,137.875=0.030
,138.000=0.030
,138.125=0.030
,138.250=0.030
,138.375=0.030
;
#BGCHANGES:;

//---------------dance-single - SMANIAC----------------
#NOTES:
     dance-single:
     SMANIAC:
     Challenge:
     12:
     1.000,1.000,0.103,0.458,1.000:
0000
0000
0000
0000
,
0000
0000
0000
0000
,
0000
0000
0000
0000
0000
0000
0000
0000
0001
0010
0100
1000
0001
0100
0010
1000
,
0001
0010
0100
1000
0001
0100
0010
1000
0001
0010
0100
1000
0001
0100
0010
1000
,
0001
0010
0100
1000
0001
0100
0010
1000
0010
0100
0001
1000
0100
0010
0001
1000
,
0010
0100
0001
1000
0100
0010
0001
1000
0010
0100
0001
1000
0100
0010
0001
1000
,
0010
0100
0001
1000
0100
0010
0001
1000
0001
0010
0001
0010
0001
0100
0010
1000
,
0100
1000
0100
1000
0010
0100
0001
0010
0001
0010
0001
0100
0010
1000
0100
1000
,
0100
1000
0100
0010
0100
0100
1000
0100
0100
1000
0100
0100
0100
0100
1000
0100
,
0100
1000
1000
0000
0100
0100
0100
0100
0100
1000
0100
0100
0100
1000
0100
0100
,
0100
0100
1100
0000
1000
0100
0010
0001
0010
0001
0100
0010
0100
1000
0100
0010
,
1000
0000
0000
0000
1000
0000
0000
0000
0020
0000
0000
0000
0000
0000
0000
0000
0130
0000
0000
0000
0000
0000
0000
0000
0001
0000
1000
0000
0001
0000
1000
0000
0001
0000
1000
0000
0001
0000
1000
0000
0000
0001
0000
0000
0000
0000
0010
0000
0000
0000
0000
0000
0100
0000
0000
0000
2000
0000
0000
0000
3002
0000
0000
0000
,
0003
0000
0000
0000
0000
0000
0000
0000
0000
1000
0000
0000
0000
0000
0100
0000
0000
0000
0000
0000
0010
0000
0000
0000
0002
0000
0000
0000
2003
0000
0000
0000
3000
0000
0000
0000
0000
0000
0000
0000
0000
0010
0000
0000
0000
0000
0100
0000
0000
0000
0000
0000
0001
0000
0000
0000
0020
0000
0000
0000
0230
0000
0000
0000
,
0300
0000
0000
0000
0000
0000
0000
0000
0000
1000
0000
0000
0000
0000
0010
0000
0000
0000
0000
0000
0100
0000
0000
0000
0020
0000
0000
0000
0230
0000
0000
0000
0300
0000
0000
0000
0000
0000
0000
0000
0000
0001
0000
0000
0000
0000
0010
0000
0000
0000
0000
0000
1000
0000
0000
0000
0020
0000
0000
0000
0032
0000
0000
0000
,
0003
0000
0000
0000
0000
0000
0000
0000
0000
0010
0000
0000
0000
0000
0001
0000
0000
0000
0000
0000
0100
0000
0000
0000
0020
0000
0000
0000
2030
0000
0000
0000
3000
0000
0000
0000
0010
0000
0000
0000
2000
0000
0000
0000
3020
0000
0000
0000
0030
0000
0000
0000
1000
0000
0000
0000
0020
0000
0000
0000
2030
0000
0000
0000
,
3000
0000
0010
1000
0010
1000
0010
0000
0100
0010
0100
0000
0001
1000
0001
0000
1000
0000
1000
0000
1000
0000
1000
0000
0001
0000
0000
0000
0100
0000
0010
0000
,
0000
0010
1000
0000
0200
0000
1300
0000
0100
1000
0000
1000
0200
0300
0010
0000
,
0001
0000
0000
0021
0000
0030
0001
0010
0001
0000
0010
0001
0000
0001
0100
0000
,
0020
0000
0130
0000
0001
0100
0000
0010
2000
3000
0100
0000
1000
0000
0000
1200
,
0000
0300
1000
0001
1000
0000
0010
0100
0000
0001
1000
0000
0020
0000
0000
0000
,
0130
0010
0100
0010
0100
0010
0100
0010
0100
0010
0100
0010
0100
0010
0100
0010
0100
0000
0001
0000
0010
0000
0010
0000
0001
0000
0000
0010
0000
0000
0100
0000
,
1000
0000
0100
0000
1000
0010
1000
0000
0010
0000
0100
0000
0010
0000
0000
0000
,
1000
0000
0100
0010
0001
0000
0010
0000
0001
0000
0100
0000
0000
0000
0001
0000
,
0010
0100
1000
0010
0100
0000
0001
1000
,
0010
0000
0000
0000
0100
0000
0000
0000
0001
0000
0000
0000
0010
0000
0000
0000
0001
0000
1000
0000
0001
0000
1000
0000
0001
0010
0001
0010
0001
0000
0010
0000
,
0001
0010
0100
1000
0200
0000
0000
0000
0000
1300
0100
0010
0001
0010
0001
0010
,
0100
0000
1000
0000
0100
0000
1000
0000
0001
0010
0001
0000
1000
0100
1000
0000
0010
0100
0010
0000
1000
0001
1000
0000
0001
1000
0001
1000
0001
0000
1000
0000
,
0001
0100
0010
1000
0002
0000
0000
0000
0000
1003
0100
0010
0001
0100
0001
0100
,
0010
0000
1000
0000
0010
0000
1000
0000
0001
0100
0001
0000
1000
0010
1000
0000
0001
1000
0001
0000
0100
0010
0100
0000
0001
0010
0001
0100
0001
0010
0001
0100
,
0001
1000
0001
0100
0001
0010
0001
0100
0001
0010
0001
0000
0010
0000
0000
0000
0000
0000
0000
0000
0000
0000
0000
0000
0010
0100
0010
0000
0100
0000
0000
0000
,
0000
0000
0000
0000
1000
0100
1000
0000
0100
0000
0000
0000
0000
0000
0000
0000
1000
0001
1000
0000
0001
1000
0001
0000
1000
0100
1000
0000
0100
0000
1000
0000
,
0001
0000
0010
0000
0002
0000
0000
0000
1003
0000
0100
0000
1000
0000
0001
0000
0010
0000
0001
0000
1000
0000
0000
0000
0010
0100
0010
0000
0100
0000
0001
0000
,
1000
0000
0100
0000
2000
0000
0000
0000
3010
0000
0100
0000
0001
0000
0010
0000
0100
0000
0100
0000
0100
0000
0100
0000
0100
0010
0100
0000
1000
0000
0001
0000
,
1000
0000
0010
0000
0200
0000
0000
0000
0310
0000
1000
0000
0010
0000
0100
0000
0001
0000
0100
0000
0001
0000
0000
0000
1000
0100
1000
0000
0010
0000
0100
0000
,
0001
1000
0002
0000
1003
0010
0100
0001
1000
0100
0010
0000
0001
0000
1000
0001
,
0000
0001
1000
0000
0010
0000
0100
0010
0000
0010
0100
0000
0001
0000
0100
0010
,
0000
1000
0001
0000
1000
0000
0010
0100
0000
0001
1000
0000
1001
0000
1000
0001
,
0000
0001
1000
0000
1100
0000
0100
1000
0000
1000
0100
0000
1100
0000
1000
0010
,
0000
0100
0001
0000
0011
0000
0100
0001
0000
1000
0010
0000
1001
0000
0010
0100
,
0000
0010
0100
0000
0110
0000
0001
1000
0000
0001
1000
0000
0001
0000
0000
0001
,
0000
0000
0001
0000
1000
0000
0000
1000
0000
0000
1000
0000
0001
1000
0020
0000
,
0000
0000
0130
0000
0010
0100
0010
0100
0000
0100
0010
0000
1000
0010
0000
1000
,
0000
0000
1100
0000
0000
0100
1000
0100
0000
0010
0001
0000
0010
0001
0020
0000
,
0030
0001
0010
0000
0001
0100
0010
1000
0000
0000
1010
0000
1000
0100
0000
1000
,
0000
0000
1100
0000
0000
0100
0010
0001
0000
0010
0001
0000
1000
0001
2000
0000
,
0000
0000
3010
0000
0100
0010
0100
0010
0000
0010
1000
0000
0001
1000
0000
0010
,
0000
0100
0001
0000
1000
0100
0010
0001
0000
0001
0100
0000
0100
0010
2000
0000
,
3000
0010
2000
0000
3010
0100
0001
1000
0000
1000
0100
0000
0010
0001
0000
1000
,
0000
0000
0001
0000
0000
0010
0001
0010
0000
0100
0100
0000
0000
0010
0001
0010
,
0000
0100
0100
0000
0000
0010
0001
0010
0000
0100
0100
0000
0000
0010
0001
0010
,
0000
0100
0100
0000
2002
0000
0000
3003
2000
0000
3020
0000
0230
0000
0302
0000
,
1003
0001
1000
0001
0100
0010
0100
0000
0001
0010
0100
1000
0100
0010
0001
0100
,
0010
1000
0001
1000
0002
0000
0000
0000
1003
0100
0020
0000
0130
0010
0002
0000
,
1003
0000
0000
0010
0000
0000
0100
0000
0001
0000
0010
0000
0100
0000
1000
0000
0001
0000
0010
0000
0001
0000
0000
0000
0001
0000
0010
0000
0000
0000
0010
0000
,
0001
0000
1000
0000
0001
0000
1000
0000
0001
0000
1000
0000
0001
1000
0001
1000
0002
0000
0000
0000
0000
0000
0000
0000
2003
0000
0000
0000
0000
0000
0000
0000
,
3020
0000
0230
0000
0301
0010
0001
0100
,
0010
1000
0100
0000
1000
0010
0100
0001
,
0010
0001
0100
0001
1000
0001
0100
0001
,
2000
0000
0000
0000
3002
0023
0230
2300
,
3001
0100
0010
0100
0010
1000
0010
0000
1000
0100
0010
0100
1000
0100
0001
0100
,
1000
0000
0001
0000
1000
0000
0001
0000
2000
0000
0000
0000
0000
0000
0000
0000
3200
0000
0000
0000
0000
0000
0000
0000
1300
0100
1000
0100
1000
0100
1000
0100
,
2000
0000
0000
0000
0000
0000
0000
0000
3010
1000
0010
1000
0010
1000
0010
1000
0020
0000
0000
0000
0000
0000
0000
0000
0130
0001
0100
0001
0100
0001
0100
0001
,
0200
0000
0000
0000
0000
0000
0000
0000
0301
1000
0001
1000
0001
1000
0001
1000
0001
0000
1000
0000
0000
0000
1000
0000
0001
0000
0000
0000
0001
0000
0010
0000
,
0000
0000
0010
0000
0100
1000
0100
1000
0100
0000
1000
0000
0000
0000
1000
0000
0010
0000
0000
0000
0010
0000
0100
0000
0000
0000
0100
0000
0001
1000
0001
1000
,
0001
0000
0010
0000
0000
0000
0010
0000
0100
0000
0000
0000
0100
0000
1000
0000
0000
0000
1000
0000
0010
1000
0010
1000
0010
0000
0100
0000
0000
0000
0100
0000
,
0001
0000
0000
0000
0001
0000
1000
0000
0000
0000
1000
0000
0001
1000
0001
1000
0001
0000
0010
0000
0001
0000
0000
0000
0010
0000
0000
0000
0000
0000
0000
0000
,
0001
1000
0001
0000
1000
0000
0000
0000
0010
1000
0010
0000
1000
0000
0000
0000
,
0100
1000
0100
0000
1000
0000
0000
0000
0010
0100
0010
0000
0100
0000
0000
0000
,
0001
0010
0001
0000
0010
0000
0000
0000
0001
0100
0001
0100
0001
0100
0001
0100
,
0001
0000
0000
0000
;

//---------------dance-single - MANIAC----------------
#NOTES:
     dance-single:
     MANIAC:
     Hard:
     9:
     0.624,0.708,0.024,0.276,0.537:
0000
0000
0000
0000
,
0000
0000
0000
0000
,
0000
0000
0000
0000
0001
0010
0100
1000
,
0001
0100
0010
1000
0001
0010
0100
1000
,
0001
0100
0010
1000
0001
0010
0001
1000
,
0100
1000
0001
0010
0001
1000
0100
1000
,
0001
0010
0001
1000
0001
0001
1000
1000
,
0010
0010
0100
0100
0001
0010
0001
1000
,
0100
0000
1000
0000
0001
0000
0000
0100
0000
0000
0001
0000
0000
0000
1000
0000
,
0001
0000
0100
0000
0110
0000
0001
1000
,
0001
1001
1000
0100
0010
0001
0010
0100
,
1000
0001
0010
0002
0000
1000
0000
2003
,
0000
0001
0000
3002
0000
0010
0000
0023
,
0000
0100
0000
0230
0000
1000
0000
0320
,
0000
0000
0001
0000
0030
0000
0010
1000
0000
0000
0010
0001
0000
0000
0010
1000
,
0000
0010
0001
0000
0010
0000
1000
0000
0100
0000
0001
0000
0100
0000
0000
1000
,
0000
0010
0100
0001
0010
0001
0100
0010
,
1000
0000
0000
2000
0000
0000
3010
0000
0100
0000
0000
0001
0000
0000
0010
0000
,
0001
0000
0100
0000
0001
0000
0010
0000
0001
0000
1000
0000
0100
0000
0000
0200
,
0000
0000
1300
0000
0010
0000
0000
0100
0000
0000
0001
0000
1000
0000
0001
0000
,
1000
0000
0001
0000
1000
0000
0001
0000
1000
0000
0001
0000
1000
0000
0001
0000
1000
0000
0000
0000
0001
0000
0000
0000
1000
0000
0000
0100
0000
0000
0010
0000
,
0001
0100
0010
1000
0010
0100
0001
0000
,
1000
0100
0010
0001
0010
0100
0000
0100
,
0010
0001
0100
0010
1000
0000
0100
0010
,
0001
0000
1000
0000
0010
0000
0100
0000
0001
1000
0001
1000
0002
0000
0000
0100
,
0000
0010
0020
0003
0000
0031
1000
0100
,
0010
0000
0001
0000
1000
0100
1000
0000
0001
0010
0001
0000
2000
0000
0000
0100
,
0000
0010
0020
3000
0000
0130
0001
0010
,
0100
0000
1000
0000
0001
0100
0001
0000
1000
0010
1000
0000
0001
0010
0001
0100
,
0001
0010
0001
0100
0001
0000
1000
0000
0000
0000
0000
0000
0001
0000
0010
0000
,
0000
0000
0100
0000
1000
0000
0000
0000
0001
0000
1000
0000
0001
0010
0000
0001
,
0000
0000
2000
0000
3010
0000
0010
0000
0100
0000
0001
0000
0010
0001
0000
0100
,
0000
0000
0020
0000
1030
0000
1000
0000
0010
0100
0010
0100
0001
1000
0000
0010
,
0000
0000
0200
0000
0310
0000
0010
0000
1000
0000
0001
0000
1000
0100
0000
1000
,
0000
0000
0020
0000
1030
0000
1000
0000
0001
1000
0001
0000
1000
0000
0000
1000
,
0000
0000
1000
0000
0010
0000
0000
0010
0000
0000
0010
0000
0100
0000
0000
0100
,
0000
0000
0100
0000
0001
0000
0000
0001
0000
0000
0001
0000
1000
0000
0010
0100
,
0000
0100
0001
0000
0001
0000
0010
0100
0000
1000
0010
0000
0100
0000
0001
0100
,
0000
0100
0001
0000
1000
0000
0100
0010
0000
0001
1000
0000
0001
0000
0100
0010
,
0000
0010
1000
0000
0010
0000
0100
0001
0000
1000
0010
0000
1000
0100
0000
1000
,
0000
0000
1000
0000
0000
0000
0000
0001
0000
0000
0001
0000
1000
0001
1000
0000
,
0000
0000
1000
0000
0100
0000
0000
0100
0000
0000
0100
0000
0010
0001
0000
0001
,
0000
0000
0001
0000
0000
0001
0010
0001
0000
1000
0001
0000
0001
0100
0010
0000
,
0000
0000
0010
0000
1000
0000
0000
1000
0000
0000
1000
0000
0100
0010
0000
0001
,
0000
0000
1000
0000
0000
0010
0100
0010
0000
0100
0010
0000
1000
0001
1000
0000
,
0000
0000
0010
0000
0000
0000
0100
0000
0000
0000
0001
0000
1000
0100
0000
1000
,
0000
0000
0010
0000
0000
0100
0000
0001
0000
0000
1000
0000
0001
0010
0001
0000
,
0000
0000
0100
0000
0000
0000
0010
0000
0000
0000
1000
0000
0001
0100
0000
0010
,
0000
0000
1000
0000
0000
0100
0000
1000
0000
0100
1000
0000
0000
0100
0000
1000
,
0000
0100
1000
0000
0000
0100
0000
1000
0000
0100
1000
0000
0000
0100
0000
1000
,
0000
0100
1000
0000
2200
0000
0000
3300
1000
0000
0100
0000
0010
0000
0001
0000
,
1000
0100
1000
0010
1000
0100
1000
0000
0001
0010
0001
0010
0100
1000
0100
1000
,
0001
1000
0001
1000
0001
0000
0000
0000
1000
0010
1000
0000
0001
0010
0001
0000
,
2000
0000
3002
0000
0103
0010
1000
0001
,
1000
0000
0100
0000
0010
0001
0010
0001
1000
0000
0000
0000
0100
0000
0000
0000
,
1000
0000
0001
0000
1000
0001
1000
0001
,
1000
0001
1000
0000
0010
0100
0010
0100
,
0010
0100
0010
1000
0010
0001
0010
1000
,
0002
0000
0000
0000
1003
0010
0100
0001
,
1000
0100
1000
0100
1000
0100
1000
0000
0001
0010
0001
0010
0001
0010
0100
1000
,
0001
0100
0010
1000
0002
0000
0000
0000
0203
0000
0000
0000
0320
0000
0000
0000
,
2030
3020
0230
0302
,
2003
0000
0000
0000
3001
1000
0001
1000
0001
1000
0000
1000
0001
0000
0001
1000
,
0000
1000
0010
0100
0010
0100
0000
0100
0010
0000
0010
0100
0000
0100
0010
0100
,
0001
0010
0000
0010
0100
0000
0100
1000
0000
1000
0001
1000
0001
1000
0000
1000
,
0100
0000
0100
0010
0000
0010
0001
0010
0002
0000
0000
0000
0013
0000
0000
0000
,
0002
0103
0002
1003
,
0002
0103
0002
0013
,
0002
0000
1003
0000
0001
1000
0001
1000
,
0001
0000
0000
0000
;

//---------------dance-single - TRICKY----------------
#NOTES:
     dance-single:
     TRICKY:
     Medium:
     5:
     0.317,0.327,0.047,0.252,0.091: // measure 1
0000
0000
0000
0000
,  // measure 2
0000
0000
0000
0000
,  // measure 3
0000
0000
0001
0010
,  // measure 4
0001
0010
0100
1000
,  // measure 5
0100
1000
0001
1000
,  // measure 6
0001
1000
0010
0100
,  // measure 7
0010
0100
0001
0001
,  // measure 8
1000
1000
0001
0010
,  // measure 9
0100
0000
0000
0000
2000
0000
0000
0001
0000
0000
0000
0000
0000
0000
0000
0001
,  // measure 10
0000
0000
0001
0000
0000
0001
0000
0001
,  // measure 11
3000
0001
0000
0010
0000
0100
0000
1000
,  // measure 12
0000
2020
0000
0030
3000
0020
0000
0130
,  // measure 13
0000
0200
0000
0310
0000
0020
0000
0130
,  // measure 14
0000
0200
0000
0301
0000
0002
0000
0103
,  // measure 15
0000
0200
0000
0301
0000
0001
0000
0001
,  // measure 16
0000
0001
1000
0100
0010
0001
1000
0000
,  // measure 17
0100
0010
0001
1000
,  // measure 18
0010
0000
0000
1000
0000
0000
0000
0000
0010
0000
0000
0000
0100
0000
0000
0000
,  // measure 19
0001
0000
0000
0000
1000
0000
0000
0000
0001
0000
0000
0000
0010
0000
0000
0100
,  // measure 20
0000
1000
0001
0010
,  // measure 21
0002
0000
0000
0000
0000
0000
2000
3003
,  // measure 22
1000
0100
1000
0000
,  // measure 23
0001
0000
0010
0000
0001
0000
0000
0100
,  // measure 24
0000
0010
0000
0100
0000
0000
0001
0000
,  // measure 25
1000
0000
0001
0000
1000
0001
1000
0000
,  // measure 26
0100
2000
0000
3001
,  // measure 27
1001
1000
1001
0001
,  // measure 28
0100
0020
0000
0130
,  // measure 29
0101
0001
0101
0100
,  // measure 30
0001
0200
0300
0020
,  // measure 31
0030
2000
0000
3000
0200
0000
1300
0001
,  // measure 32
0000
0002
0000
0000
0003
0000
0100
0010
,  // measure 33
0000
0020
0000
0000
0030
0000
0100
0001
,  // measure 34
0000
0002
0000
0000
0003
0000
1000
0100
,  // measure 35
0000
0200
0000
0000
0300
0000
1000
0000
,  // measure 36
0100
1000
0100
0010
,  // measure 37
0001
0010
0001
1000
,  // measure 38
0100
0010
0001
1000
,  // measure 39
0010
0100
0001
1000
,  // measure 40
0010
1000
0100
1000
,  // measure 41
0000
0000
0001
0000
0000
0000
0000
1000
,  // measure 42
0000
0000
0100
0000
0000
0000
0010
0000
0000
0000
0001
0000
0000
0000
0000
1000
,  // measure 43
0000
0000
0010
0000
0000
0100
0000
0010
0000
0000
1000
0000
0000
0000
0001
0000
,  // measure 44
0000
0000
0010
0000
0000
0000
0100
0000
0000
0000
1000
0000
0000
0000
0000
0001
,  // measure 45
0000
0000
0010
0000
0000
0001
0000
0100
0000
0000
0001
0000
0000
0000
1000
0000
,  // measure 46
0000
0000
0000
1000
0000
0000
0000
0001
,  // measure 47
0000
0000
0000
0001
0000
0000
0000
1000
,  // measure 48
0000
0000
0100
0000
0000
0000
0010
0000
0000
0000
0001
0000
0000
0000
0000
1000
,  // measure 49
0000
0000
0001
0000
0000
1000
0000
0000
0000
0000
0010
0000
0000
1000
0000
0000
,  // measure 50
0000
0000
0010
0000
0000
1000
0000
0000
0000
0000
0010
0000
0000
1000
0000
0000
,  // measure 51
0000
0010
1010
0000
1000
0000
1000
0000
,  // measure 52
0100
0100
0010
0001
,  // measure 53
0010
0001
0100
0100
,  // measure 54
0020
0000
1030
0100
,  // measure 55
1000
0001
1000
0001
1000
0000
0000
0000
,  // measure 56
0100
0000
0010
0000
,  // measure 57
0001
0000
1000
0001
,  // measure 58
1000
0001
1000
0001
,  // measure 59
1000
0000
0001
0001
,  // measure 60
1000
1000
0001
0010
,  // measure 61
0100
2000
3000
0002
,  // measure 62
0003
2000
3000
0002
,  // measure 63
0003
0000
0000
0000
1000
0000
0001
0000
0000
1000
0000
0000
0001
0000
0000
0001
,  // measure 64
0000
0000
1000
0000
0000
1000
0000
0000
0001
0000
0000
0001
0000
0000
1000
0000
,  // measure 65
0000
0010
0000
0000
0100
0000
0000
0100
0000
0000
0010
0000
0000
0100
0000
0000
,  // measure 66
0100
0000
0000
0010
0000
0000
0100
0000
0002
0000
0000
0000
0000
0000
0000
0000
,  // measure 67
2003
0000
3020
0000
,  // measure 68
0230
0000
0302
0000
,  // measure 69
2003
0000
3001
1000
,  // measure 70
0001
0000
0000
0000
;

//---------------dance-single - BASIC----------------
#NOTES:
     dance-single:
     BASIC:
     Easy:
     3:
     0.167,0.245,0.016,0.189,0.016: // measure 1
0000
0000
0000
0000
,  // measure 2
0000
0000
0000
0000
,  // measure 3
0000
0000
0001
0000
,  // measure 4
0001
0000
1000
0000
,  // measure 5
1000
0000
0001
0000
,  // measure 6
0010
0000
0100
0000
,  // measure 7
1000
0000
0001
0000
,  // measure 8
0001
0000
1000
0000
,  // measure 9
2000
0000
0000
0000
,  // measure 10
0000
0000
0000
0000
,  // measure 11
0000
3000
0000
0000
0000
0000
0000
0000
,  // measure 12
0000
0020
0000
0000
0000
0100
0000
0000
,  // measure 13
0000
0100
0000
0000
0000
0100
0000
0000
,  // measure 14
0000
0100
0000
0000
0000
0100
0000
0000
,  // measure 15
0000
1000
0000
0100
0000
0100
0000
0100
,  // measure 16
0000
0100
0000
0200
0000
0330
0001
0000
,  // measure 17
0000
0001
0000
0002
,  // measure 18
0000
0003
1000
0000
,  // measure 19
1000
0000
2000
0000
,  // measure 20
3000
0010
0000
0100
,  // measure 21
0020
0000
0000
0000
0000
0000
1000
0030
,  // measure 22
0001
0000
0000
0000
,  // measure 23
1000
0000
0000
0000
0000
0000
0000
0010
,  // measure 24
0000
0000
0000
0100
,  // measure 25
0000
0000
0000
0001
,  // measure 26
0000
1001
0000
1000
,  // measure 27
1000
0001
0001
0100
,  // measure 28
0000
0110
0000
0010
,  // measure 29
0010
0100
0100
0002
,  // measure 30
0000
0000
0000
0003
0000
0000
2000
3000
,  // measure 31
0000
0020
0030
0000
0200
0000
0320
0000
,  // measure 32
0030
0100
0000
0000
0000
0000
0020
0000
,  // measure 33
0030
0100
0000
0000
0000
0000
0200
0000
,  // measure 34
0300
0010
0000
0000
0000
0000
0200
0000
,  // measure 35
0300
0010
0000
0000
0000
0000
1000
0000
,  // measure 36
0000
1000
0000
1000
,  // measure 37
0000
1000
0000
0001
,  // measure 38
0000
0010
0000
0001
,  // measure 39
0000
0100
0000
0001
,  // measure 40
0000
1000
0000
0001
,  // measure 41
0000
0000
0000
0002
,  // measure 42
0000
0003
0000
2000
,  // measure 43
0000
3000
0000
0020
,  // measure 44
0000
0030
0000
0200
,  // measure 45
0000
0300
0000
0001
,  // measure 46
0000
0001
0000
1000
,  // measure 47
0000
1000
0000
0010
,  // measure 48
0000
0010
0000
0100
,  // measure 49
0000
0100
0000
0100
,  // measure 50
0000
0100
0000
0100
,  // measure 51
0000
0100
0010
1000
,  // measure 52
0010
1000
0001
0100
,  // measure 53
0001
0100
0001
0000
,  // measure 54
0001
0000
1000
0000
,  // measure 55
1000
0001
1000
0000
,  // measure 56
0000
0000
1000
0000
,  // measure 57
0000
0000
0001
0000
,  // measure 58
0000
0000
0001
0000
,  // measure 59
0000
0000
1000
0100
,  // measure 60
0010
0001
1000
0010
,  // measure 61
0100
0002
0000
0000
,  // measure 62
0000
0000
0000
0000
,  // measure 63
0000
0000
0000
0000
0003
0000
0000
0000
0000
2000
0000
0000
3000
0000
0000
0000
,  // measure 64
0000
0000
0000
0000
0000
0002
0000
0000
0003
0000
0000
0000
0000
0000
0000
0000
,  // measure 65
0000
0200
0000
0000
0300
0000
0000
0000
0000
0000
0000
0000
0000
0020
0000
0000
,  // measure 66
0030
0000
1000
0000
,  // measure 67
0000
0000
0001
0000
,  // measure 68
0000
0000
1000
0000
,  // measure 69
0000
0000
0002
0000
,  // measure 70
0003
0000
0000
0000
;
