#TITLE:Fire Field;
#SUBTITLE:[F-Zero];
#ARTIST:ShAdOxViRuS;
#TITLETRANSLIT:;
#SUBTITLETRANSLIT:;
#ARTISTTRANSLIT:;
#GENRE:;
#CREDIT:;
#MENUCOLOR:;
#METERTYPE:DDR;
#BANNER:firefield.png;
#BACKGROUND:firefield-bg.png;
#LYRICSPATH:;
#CDTITLE:!hiryuu.png;
#MUSIC:firefield.ogg;
#OFFSET:0.000;
#SAMPLESTART:4.611;
#SAMPLELENGTH:18.466;
#SELECTABLE:YES;
#LISTSORT:;
#BPMS:0.000=104.010,8.000=208.020,216.000=104.010,224.000=208.020,312.000=104.010,320.000=208.020,336.000=104.010;
#STOPS:;
#BGCHANGES:;
#ATTACKS:;

//---------------dance-single - MANIAC----------------
#NOTES:
     dance-single:
     MANIAC:
     Hard:
     11:
     0.869,1.000,0.160,0.444,0.621:
0000
0000
0000
0000
,
0000
0000
0000
0000
,
MMMM
0000
1000
0100
1000
0001
0000
0010
,
1000
0010
0001
0100
0000
1000
0100
0000
,
0001
0010
0100
2000
0000
3010
0100
0001
,
0010
1000
0010
0002
0000
1003
0010
0100
,
0010
0000
0100
0001
0010
0100
0000
0100
,
1000
0010
0100
0001
0000
0001
0010
0000
,
0010
0100
1000
0020
0000
0130
0001
1000
,
0100
0010
0001
2000
0000
0000
3001
1000
,
00MM
MM00
0001
0010
0001
1M00
0000
0010
,
1000
0001
0010
0001
0M00
0000
1000
0100
,
M001
0100
1000
0010
0M01
0010
0100
0001
,
0010
1M00
0010
0001
1000
0010
010M
0010
,
MM00
00MM
1000
0010
0100
0001
0010
0001
,
2M00
00M0
310M
20M0
000M
3M10
200M
0M00
,
3001
0010
0100
100M
0100
0010
M001
0010
0100
100M
0100
0010
,
M001
0000
0010
0000
0100
0000
100M
0000
0100
0000
0020
0000
M002
0000
0000
0M00
0000
0000
M000
0000
0000
0M00
0030
0000
,
0003
0000
0010
0M01
1000
001M
M100
0001
,
20M0
0M00
301M
2M00
00M0
310M
20M0
0M00
,
30M1
0000
1000
0M10
0001
0M10
1000
001M
,
0200
M0M0
0301
M2M0
000M
M310
020M
00M0
,
1300
00M0
0100
M001
0010
0100
10M0
0001
,
1M00
0000
100M
0100
0000
M100
0010
0M01
,
0010
M000
0001
0100
M010
010M
M000
0000
,
0001
0000
0010
MM00
0001
0000
M010
0000
0001
0000
0010
0000
0100
0000
1000
000M
0100
0000
10MM
0000
0100
0000
1000
0000
,
0001
1000
0000
1M1M
0000
M11M
0000
0001
,
1000
00M0
1000
010M
0000
M100
0010
0000
,
0001
0100
0000
M1M2
0000
00M0
2M00
0000
,
0M10
0000
00M0
0100
00M0
0M03
3001
1000
,
0001
0010
0000
MM11
0000
M1M1
0000
0100
,
0010
1M00
0010
200M
0000
3010
0100
M001
,
0010
0001
0100
M020
000M
0000
1030
0000
,
11MM
0000
0000
M1M1
0000
0000
1000
0100
,
1000
0010
0100
0001
0010
0001
0100
0010
,
1000
0000
0100
0000
2000
0000
0M2M
0000
0000
000M
0100
0000
010M
0000
3130
0000
,
0001
0010
0000
M11M
0000
11MM
0000
1000
,
0001
00M0
0001
0100
M000
0100
0010
000M
,
1000
0100
0010
M002
0000
0103
0010
1M00
,
0001
0010
0100
2000
0000
3M01
1000
00M1
,
1000
0100
0000
11MM
0000
MM11
0000
0001
,
M100
0010
1000
0200
000M
1300
0010
0M01
,
0010
1000
0001
2M00
0000
3001
0010
0100
,
1000
0000
0010
0M00
1000
0000
0010
0000
1000
000M
0010
0000
0100
0000
0001
M000
0100
0000
0001
0000
0100
00M0
0001
0000
,
1000
0000
0010
1000
0000
0100
2000
02MM
,
0000
0000
0010
0001
0010
0001
0010
3301
,
1000
0000
0001
0010
0000
0000
0002
M2M0
,
0000
0000
0010
1000
0010
1000
0010
1303
,
0001
0010
0100
1000
0000
1000
0010
0100
,
0001
0010
1000
0010
0000
0010
0001
0100
,
0010
1000
0100
1000
0000
1000
0010
0001
,
0010
1000
0100
0001
0000
0001
0100
1000
,
0001
M100
0010
100M
0010
0M01
0010
M100
,
0010
0M01
0010
100M
0100
M010
0001
10M0
,
0002
0000
0M00
0023
M000
0000
0M32
0000
20M3
0000
000M
3200
00M0
0000
230M
0000
,
3M20
0000
000M
0230
M000
0000
03M2
0000
1003
0010
0100
0001
0100
0010
1000
0010
,
0100
0001
0000
M1M1
0000
11MM
0000
0100
,
0001
0010
0100
2000
00M0
3001
1000
0000
,
0001
0100
M010
0200
0000
0310
1000
0000
,
1000
0100
00M1
M100
0000
0100
100M
0010
,
0100
0001
0000
MM11
0000
11MM
0000
1000
,
0010
0M01
0010
1000
0000
100M
0100
0010
,
M001
0100
0010
200M
0000
3010
0100
00M1
,
1000
0100
0001
0200
0000
1300
0001
1000
,
MMM2
MMM0
MMM0
MMM0
MMM0
MMM0
MMM0
MMM0
,
1003
0000
0100
00M0
1000
0000
0100
0000
1000
000M
0100
0000
0010
0000
0001
M000
0010
0000
0001
0000
0010
0M00
0001
0000
,
1000
0M10
1000
0001
M010
0001
1000
0M10
,
1000
0001
0100
M010
0100
0001
0M10
0001
,
2000
0000
0000
3020
0000
0130
0002
0000
,
0023
0000
0000
0032
0000
0000
2003
0000
,
3M01
0010
0100
10M0
0001
M100
0010
1000
,
0M01
0010
0100
10M0
0001
M100
0010
1000
,
0MM2
M000
0M00
10M0
0000
01M0
M000
0M13
,
0001
0000
0010
0M00
0001
0000
0010
0000
0001
M000
0010
0000
0100
0000
1000
000M
0100
0000
1000
0000
0100
00M0
1000
0000
,
0001
0010
0001
1000
0100
1000
0001
0010
0001
1000
0100
1000
,
0010
0100
0010
1000
0001
1000
0010
0100
0010
1000
0001
1000
,
0010
0001
0010
1000
0100
1000
0010
0001
0010
1000
0100
1000
,
0001
0010
0001
0100
0010
0100
0010
1000
0010
0100
0001
0100
,
0001
0000
1MM0
0001
1000
0000
M01M
0100
0010
0000
1MM0
0001
1000
0000
0MM1
1000
,
0100
1000
001M
0100
M001
0010
M001
0100
0010
1010
000M
0000
1M10
0000
101M
0000
,
1000
0010
1000
0001
0100
0001
1000
0010
1000
0001
0100
0001
,
1000
0100
1000
0001
0010
0001
1000
0100
1000
0001
0010
0001
,
0100
0010
0100
0001
1000
0001
0100
0010
0100
0001
1000
0001
,
0010
0001
0010
0100
1000
0100
0010
0001
1000
0010
0100
0001
,
10M0
0000
010M
1000
01M0
0000
1M00
0001
10M0
0000
0M10
0001
M010
0000
00M1
0100
,
0010
1000
010M
1000
0010
0100
M001
0010
0001
0100
M000
0010
000M
1000
0M10
1000
,
0000
MMMM
MMMM
MMMM
MMMM
0000
0000
0000
0000
0000
0000
0000
0000
0000
0000
0000
0000
0000
0000
0000
0000
0000
0000
0000
0000
0000
0000
0000
0000
0000
0000
0000
;

//---------------dance-single - TRICKY----------------
#NOTES:
     dance-single:
     TRICKY:
     Medium:
     8:
     0.572,0.725,0.133,0.577,0.107:
0000
0000
0000
0000
,
0000
0000
0000
0000
,
0000
0000
1000
0100
0010
0001
0000
0000
,
1000
0000
0000
0001
0000
0000
1000
0000
,
0001
0010
0100
2000
0000
3001
0100
0010
,
1000
0100
0010
0002
0000
0000
0000
0000
,
0003
0000
1000
0010
0100
0001
0000
0000
,
0010
0000
0000
0001
0000
0000
0010
0000
,
0001
0100
0010
2000
0000
3100
1000
0010
,
0100
0001
0010
0002
0000
0000
0000
0000
,
0003
0000
0010
0001
0100
0010
0000
0000
,
1000
0000
0000
0100
0000
0000
1000
0100
,
1000
0010
0100
0010
0100
0001
0010
0001
,
0100
0010
1000
0001
1000
0010
0100
0001
,
0000
0000
1000
0100
0010
0001
0000
0000
,
1001
0000
0000
0110
0000
0000
1001
0000
,
2000
3002
0203
0320
,
2030
3200
0320
0000
,
0030
0000
0001
0100
1000
0200
0000
0000
,
00M1
0000
0000
M001
0000
0000
03M1
0000
,
1001
0000
0001
0010
1000
0020
0000
0000
,
M001
0000
0000
0M01
0000
0000
M031
0000
,
0011
0000
0010
0001
1000
0200
0000
0000
,
10M0
0000
0000
M001
0000
0000
031M
0100
,
0110
0000
1000
0100
1000
0001
0000
0000
,
1000
0000
0100
0000
0010
0000
0001
0000
0100
0000
0010
0000
,
1000
0001
0000
1000
0000
0001
0000
0010
,
0002
0000
0000
0203
0000
0000
0320
0000
,
1030
0100
0000
2000
0000
0000
3010
0000
,
0200
0000
0000
0320
0000
0000
2030
0000
,
3001
0010
0000
0001
0000
1000
0000
0010
,
0200
0000
0000
0320
0000
0000
2030
0000
,
3001
0010
0000
0200
0000
0000
2300
0000
,
3002
0000
0000
2003
0000
0000
3020
0000
,
0130
M010
010M
0010
1000
0M01
1000
00M1
,
0100
M010
0100
0020
000M
0100
M100
0100
,
M13M
0010
0000
1000
0000
0100
0000
0010
,
0002
0000
0000
0203
0000
0000
0320
0000
,
1030
0100
0000
0002
0000
0000
0203
0000
,
2300
0000
0000
3020
0000
0000
0230
0000
,
0301
1000
0000
0010
0000
0100
0000
0001
,
2000
0000
0000
3020
0000
0000
0032
0000
,
0013
1000
0000
1010
0000
0000
0101
0000
,
0001
0000
0010
0000
0100
0000
1000
0000
0010
0000
0100
0000
,
M001
0000
0000
100M
0000
0000
M001
0000
,
2M00
00M0
000M
0M00
00M0
000M
0M00
000M
,
3M10
0000
0000
01M0
0000
0000
0M10
0000
,
M200
00M0
000M
M000
00M0
000M
M000
000M
,
M310
0000
000M
1000
0000
0M00
0001
0000
,
10M0
0000
0000
001M
0000
M000
0100
0000
,
00M1
0000
M000
0010
0000
000M
0100
0000
,
M010
0000
0000
010M
0000
00M0
1000
0M00
,
0001
0010
0001
0100
0010
1000
0100
1000
,
0010
0100
0001
0010
0100
1000
0010
0100
,
0001
0000
00M0
0001
M000
0000
0001
0000
1M00
0000
0000
1000
000M
0000
1000
0000
,
0M10
0000
0000
0100
00M0
0000
2MM2
0000
0000
0000
0MM0
0000
0000
0000
3MM3
0000
,
0001
0010
0000
0011
MM00
0011
0000
0010
,
0001
M000
0000
0M01
0000
M000
0001
0000
,
1000
0100
0000
1100
0000
0000
2000
0000
,
3200
0000
0000
0302
0000
0000
0203
0000
,
1300
0010
0000
1010
0M0M
1010
0000
0010
,
1000
000M
0000
10M0
0000
0000
100M
0000
,
0001
0100
0000
0101
0000
0000
0001
0000
,
0020
0000
0000
0032
0000
0000
2003
0000
,
3002
MMM0
MMM0
MMM0
,
0203
M0MM
M0MM
M0MM
,
0310
1000
0010
1000
0001
0100
0001
0100
,
0001
0010
0001
0010
0001
1000
0001
1000
,
0100
0000
0000
2000
0000
3100
0020
0000
,
0032
0000
0000
2003
0000
0000
3001
0000
,
1000
0100
1000
0100
0010
0001
0010
0001
,
0010
0100
0010
0100
1000
0001
1000
0001
,
2000
0000
0000
3020
0000
0230
0000
0301
,
0020
MM00
0M0M
M00M
,
0M31
M010
010M
10M0
,
0M10
M100
0M01
M010
,
0M01
01M0
001M
10M0
,
010M
10M0
0M10
M100
,
0001
0000
0010
0001
0000
0100
0010
0000
1000
0000
0100
1000
0000
0010
0000
0000
,
0100
0010
1000
0100
0010
0001
1000
0002
0000
0000
0000
MMM0
0000
0000
0000
0000
,
1M03
M010
010M
00M1
,
0M10
M001
01M0
M010
,
100M
01M0
001M
0M01
,
01M0
M010
100M
0M01
,
2M0M
0000
0010
0000
3MM2
0000
0100
00M0
,
1003
0000
0100
0000
0010
0000
0M01
0000
1000
0010
0000
0100
0000
0001
1MM0
0001
;

//---------------dance-single - BASIC----------------
#NOTES:
     dance-single:
     BASIC:
     Easy:
     4:
     0.252,0.345,0.000,0.249,0.000:
0000
0000
0000
0000
,
0000
0000
0000
0000
,
0000
2000
0000
0000
,
3001
0000
0000
0001
0000
0000
0001
0000
,
0200
0000
0000
0000
,
0320
0000
0000
0000
,
0030
0200
0000
0000
,
0310
0000
0000
0010
0000
0000
0010
0000
,
2000
0000
0000
0000
,
3002
0000
0000
0000
,
0003
0020
0000
0000
,
0031
0000
0000
0010
0000
0000
0001
0000
,
0M20
0000
0000
0000
,
0032
0000
0000
0000
,
0003
2000
0000
0000
,
3100
0000
0000
1000
0000
0000
0100
0000
,
20M0
0000
3020
0000
,
M230
0000
0302
0000
,
0003
1000
0010
0000
,
1000
0000
0000
0010
0000
0000
1000
0000
,
0000
0001
0100
0000
,
0001
0000
0000
0100
0000
0000
0001
0000
,
0000
1000
0100
0000
,
0010
0000
0000
0001
0000
0000
0010
0000
,
0000
0001
0100
0000
,
00M2
0000
2M03
0000
,
3001
0000
0001
0000
,
1000
0000
1000
0000
,
0010
0000
0010
0000
,
0100
0000
0100
0000
,
0001
0000
0010
0000
,
0100
0000
1000
0000
,
0010
0000
0100
0000
,
0001
0000
1000
0000
,
0M02
M0M0
0M00
M0M0
,
0M00
M0M0
0M03
0000
,
1000
0000
0100
0000
,
0010
0000
0001
0000
,
0100
0000
0010
0000
,
1000
0000
0001
0000
,
1000
0000
0010
0000
,
0100
0000
0001
0000
,
1000
0000
0001
0000
,
0010
0000
0100
0000
,
20M0
0M0M
00M0
0M0M
,
30M0
0000
MMMM
0000
,
0M02
M0M0
0M00
M0M0
,
0M03
0000
MMMM
0000
,
1000
0000
1000
0000
,
0001
0000
0001
0000
,
1000
0000
0001
0000
,
0100
0000
0010
0000
,
1000
0100
1000
0100
,
0010
0001
0010
0001
,
1000
1000
0010
0010
,
0100
0100
0002
0000
,
1003
0000
0100
0000
,
1000
0000
0001
0000
,
0100
0000
0010
0000
,
1000
0000
0001
0000
,
0010
0000
0001
0000
,
0100
0000
0010
0000
,
1000
0000
0100
0000
,
1000
0000
0001
0000
,
2M00
0000
0000
0000
,
00M2
0000
0000
3003
,
M001
0010
0001
0100
,
00M1
1000
0001
0100
,
M001
0000
0001
0000
,
1000
0000
1000
0000
,
100M
0100
1000
0010
,
1M00
0001
1000
0010
,
100M
0000
0100
0000
,
2000
0000
0000
0000
,
301M
0000
0010
0000
,
M100
0000
0100
0000
,
00M1
0000
0001
0000
,
1M00
0000
1000
0000
,
0001
0001
0010
0010
,
0100
0100
2000
0000
,
30M1
0000
0001
0000
,
0M10
0000
0010
0000
,
01M0
0000
1000
0000
,
0M10
0000
0100
0000
,
MMM2
0000
2MM3
0000
,
3M2M
0000
M23M
0000
,
0300
0M00
0000
0000
;
