#TITLE:Double Orbit;
#SUBTITLE:[GF 3rd / DM 2nd];
#ARTIST:MUTSUHIKO IZUMI;
#TITLETRANSLIT:;
#SUBTITLETRANSLIT:;
#ARTISTTRANSLIT:;
#GENRE:;
#CREDIT:;
#MENUCOLOR:;
#NEWMETERSYSTEM:NO;
#BANNER:do.png;
#BACKGROUND:do-bg.png;
#LYRICSPATH:;
#CDTITLE:!hiryuu.png;
#MUSIC:do.ogg;
#OFFSET:0.000;
#SAMPLESTART:24.013;
#SAMPLELENGTH:19.197;
#SELECTABLE:YES;
#LISTSORT:;
#BPMS:0.000=200.000;
#STOPS:;
#BGCHANGES:;
#ATTACKS:;

//---------------dance-single - MANIAC----------------
#NOTES:
     dance-single:
     MANIAC:
     Hard:
     9:
     0.780,0.790,0.539,0.734,0.069:
0000
0000
0000
0000
,
0000
0000
0000
0000
,
0000
0000
0000
0000
,
0000
0000
0000
0000
,
1010
0000
0000
0110
0000
0000
0012
0000
,
0000
0013
1000
0100
0001
0100
1000
0010
,
0011
0000
0000
0110
0000
0000
1010
0000
,
0000
2002
0000
3003
0001
1000
0001
1000
,
0011
0000
0000
0110
0000
0000
2010
0000
,
0000
3010
0001
0100
1000
0100
0001
0010
,
1010
0000
0000
0110
0000
0000
0011
0000
,
0000
2002
0000
0000
0000
0000
0000
3003
,
0101
0000
0000
0110
0000
0000
2100
0000
,
0000
3100
0001
0010
1000
0010
0001
0100
,
1100
0000
0000
0110
0000
0000
0101
0000
,
0000
2002
0000
0000
0000
0000
0000
3003
,
1000
1000
0100
1000
1000
1000
0010
1000
,
1000
1000
0001
1000
1000
1000
0010
1000
,
0100
0000
0001
0000
0100
0000
1000
0000
0010
0000
0100
0000
,
0001
0000
0010
0000
1000
0000
0110
0000
0011
0000
1001
0000
,
0001
0010
0100
0010
0001
1000
0100
0010
,
0100
0000
1000
0000
0010
0000
0100
0000
0001
0000
1000
0000
0100
1000
0100
0000
,
1000
0100
0010
0100
1000
0001
0010
0100
,
0012
0000
0013
0110
0000
2002
0000
3003
,
1000
0100
0010
0100
1000
0001
0010
0100
,
0010
0000
0001
0000
1000
0000
0100
0000
0010
0000
0001
0000
0010
0001
0010
0000
,
0001
0010
0100
0010
0001
1000
0100
0010
,
2100
0000
3010
0011
0000
0220
0000
0330
,
2000
0000
0001
3200
0000
0001
0320
0000
,
0000
0130
1000
0010
0001
0010
1000
0100
,
0020
0000
0001
0230
0000
0001
2300
0000
,
0000
0002
0000
0000
0000
0000
0000
3003
,
0002
0000
1000
0023
0000
1000
0230
0000
,
0000
0310
0001
0100
1000
0100
0001
0010
,
0200
0000
1000
0320
0000
1000
0032
0000
,
0000
2000
0000
0000
0000
0000
0000
3003
,
0001
0010
0100
1000
0010
0100
0001
0010
,
0001
0000
1000
0000
0100
0000
1000
0000
0001
0000
1000
0000
0001
1000
0001
0000
,
1000
0100
0010
0001
0100
0010
1000
0100
,
0210
0000
0310
0011
0000
0202
0000
0303
,
0001
0100
0010
1000
0100
0010
0001
0100
,
0001
0000
1000
0000
0010
0000
1000
0000
0010
0000
0100
0000
0010
0100
0010
0000
,
1000
0010
0100
0001
0010
0100
1000
0010
,
1000
0001
1000
0001
1000
0001
1000
0001
,
1000
0010
0100
0010
1000
0010
0100
0010
,
2000
3200
0320
0032
,
0203
0000
0302
0000
,
0103
0001
0100
0001
0200
0002
0000
0303
,
0001
0100
0010
0100
0001
0100
0010
0100
,
0002
0023
0230
2300
,
3001
0001
0010
0001
0001
0100
0001
0001
,
1000
0001
0010
0100
2000
0000
0000
3000
,
0010
1000
0100
1000
0010
1000
0100
1000
,
0002
0203
0320
2030
,
3001
0001
0100
1000
1000
0100
0001
0001
,
0010
1000
1000
0010
0002
0000
0000
0003
,
0100
0001
0010
0001
0100
0001
0010
0001
,
2000
3020
0230
0302
,
1003
0100
1000
0010
0100
0001
0010
0001
,
1000
0010
1000
0001
0100
0001
0010
0001
,
0020
0000
0030
0020
0030
0020
0030
0200
,
0000
0000
0000
0300
,
1100
0000
0000
0110
0000
0000
0102
0000
,
0000
0103
1000
0010
0001
0010
1000
0100
,
1100
0000
0000
1010
0000
0000
0110
0000
,
0000
2020
0000
3000
1030
0010
1000
0010
,
1010
0000
0000
0110
0000
0000
0012
0000
,
0000
0013
1000
0100
0001
0100
1000
0010
,
1010
0000
0000
1100
0000
0000
0110
0000
,
0000
2100
0000
0000
0000
0000
0000
0000
,
0002
0000
0000
0000
,
0000
0000
0000
0000
,
0000
0000
3003
0000
;

//---------------dance-single - TRICKY----------------
#NOTES:
     dance-single:
     TRICKY:
     Medium:
     7:
     0.523,0.707,0.080,0.677,0.046:
0000
0000
0000
0000
,
0000
0000
0000
0000
,
0000
0000
0000
0000
,
0000
0000
0000
0000
,
1000
0000
0000
0100
0000
0000
0020
0000
,
0000
0031
0010
0100
,
1000
0000
0000
0100
0000
0000
0010
0000
,
0000
0002
0000
0000
2000
0000
3003
0000
,
0100
0000
0000
0010
0000
0000
0002
0000
,
0000
1003
0010
0100
,
0001
0000
0000
0010
0000
0000
0100
0000
,
0000
2000
0000
0000
0000
0000
3000
0000
,
0010
0000
0000
0100
0000
0000
0002
0000
,
0000
1003
0100
0010
,
0001
0000
0000
0100
0000
0000
0010
0000
,
0000
2000
0000
0000
0000
0000
3000
0000
,
0001
0010
0001
0000
0010
0100
0010
0000
,
0100
1000
0100
0000
0010
0100
0010
0000
,
0001
0000
0010
0000
0100
0000
1000
0000
0001
0000
0010
0000
,
0001
0000
1000
0000
0100
0000
0010
0000
0001
0000
1000
0000
,
0000
0001
0010
0100
0010
0001
0000
0101
,
0000
0100
1000
0000
1000
0200
0000
0300
,
0000
0001
0010
0100
1000
0100
0010
0001
,
1000
0000
0001
1000
0000
2002
0000
3003
,
0000
1000
0100
0010
0100
1000
0000
1100
,
0000
0100
0001
0000
0001
0200
0000
0300
,
0000
1000
0100
0010
0001
0010
0100
1000
,
0010
0000
0100
0010
0000
0220
0000
0330
,
0020
0000
0000
2030
0000
0000
3002
0000
,
0000
0013
0100
1000
,
0020
0000
0000
0032
0000
0000
0023
0000
,
0000
2030
0000
0000
0000
0000
3000
0000
,
0002
0000
0000
0023
0000
0000
0230
0000
,
0000
1300
0100
0010
,
0002
0000
0000
0203
0000
0000
0302
0000
,
0000
0023
0000
0000
0000
0000
0030
0000
,
0000
0100
1000
0100
0010
0001
0000
0011
,
0000
0010
1000
0000
1000
0020
0000
0000
,
0030
0001
0100
0010
1000
0010
0100
0001
,
1000
0000
0010
0100
0000
2002
0000
3003
,
0000
0001
0100
0010
1000
0010
0000
1010
,
0000
0010
0001
0000
0001
0020
0000
0000
,
1030
0100
0010
0001
1000
0100
0010
0001
,
2000
0000
0000
3000
,
0001
0010
0001
0000
1000
0100
1000
0000
,
0001
0010
0100
1000
,
0020
0000
0230
0000
,
0302
0000
2003
0000
,
3001
0100
0001
0000
1000
0010
1000
0000
,
0001
0100
0010
1000
,
0001
0000
0100
0010
0000
1000
0100
0000
,
1000
0010
0000
0100
0002
0000
0003
0000
,
1000
0100
0010
0000
0001
0100
0010
0000
,
1000
0100
0010
0001
,
1000
0000
0100
0001
0000
0001
0100
0000
,
0100
1000
0000
1000
0020
0000
0030
0000
,
0100
0001
0010
0000
0100
1000
0010
0000
,
1000
0010
0100
0001
,
2000
3200
0320
0032
,
2003
3020
0230
0302
,
1003
0000
0000
1000
0000
1000
0000
2000
,
0000
0000
0000
3000
,
1000
0000
0000
0100
0000
0000
0020
0000
,
0000
0031
0010
0001
,
0020
0000
0000
0230
0000
0000
2300
0000
,
0000
3002
0000
0000
2000
0000
3003
0000
,
1000
0000
0000
0010
0000
0000
0200
0000
,
0000
0310
1000
0100
,
0020
0000
0000
0032
0000
0000
0203
0000
,
0000
0320
0000
0000
0000
0000
0000
0000
,
0230
0000
0000
0000
,
0000
0000
0000
0000
,
0000
0000
0300
0000
;

//---------------dance-single - BASIC----------------
#NOTES:
     dance-single:
     BASIC:
     Easy:
     5:
     0.310,0.361,0.069,0.172,0.000:
0000
0000
0000
0000
,
0000
0000
0000
0000
,
0000
0000
0000
0000
,
0000
0000
0000
0000
,
1000
0000
0000
0001
0000
0000
2000
0000
,
0000
0000
0000
3000
,
0010
0000
0000
0100
0000
0000
0010
0000
,
0000
0200
0000
0000
0000
0000
0300
0000
,
0001
0000
0000
0010
0000
0000
0002
0000
,
0000
0000
0000
0003
,
1000
0000
0000
0100
0000
0000
1000
0000
,
0000
0200
0000
0000
0000
0000
0300
0000
,
1000
0000
0000
0010
0000
0000
2000
0000
,
0000
0000
0000
3000
,
0001
0000
0000
0100
0000
0000
0001
0000
,
0000
0200
0000
0000
0000
0000
0300
0000
,
0001
0001
0010
0010
,
0001
0001
0010
0010
,
0001
0000
0010
0000
,
0100
0000
1000
0000
,
0001
0000
0010
0000
0001
0000
0000
0100
,
0000
0010
1000
0000
,
0100
1000
0010
0100
,
0001
0000
0000
1000
0000
1001
0000
0000
,
1000
0000
0100
0000
1000
0000
0000
0010
,
0000
0100
0001
0000
,
0010
0001
0100
0010
,
1000
0000
0000
0001
0000
1001
0000
0000
,
1000
0000
0000
0010
0000
0000
0200
0000
,
0000
0000
0000
0300
,
0001
0000
0000
0100
0000
0000
0001
0000
,
0000
0020
0000
0000
0000
0000
0030
0000
,
0100
0000
0000
1000
0000
0000
0002
0000
,
0000
0000
0000
0003
,
1000
0000
0000
0010
0000
0000
0100
0000
,
0000
0002
0000
0000
0000
0000
0003
0000
,
1000
0000
0010
0000
1000
0000
0000
0001
,
0000
0010
0001
0000
,
1000
0100
0001
0100
,
1000
0000
0000
0010
0000
0110
0000
0000
,
0001
0000
0100
0000
0001
0000
0000
1000
,
0000
0100
1000
0000
,
0001
0010
1000
0010
,
0001
0000
0000
0100
0000
0110
0000
0000
,
1000
1000
0001
0001
,
1000
0100
0010
0001
,
1000
0000
0100
0000
,
0010
0000
0001
0000
,
0100
0100
0010
0010
,
1000
0010
0100
0001
,
1000
0000
0010
0000
,
0100
0000
0001
0000
,
1000
1000
0100
0100
,
1000
0100
1000
0001
,
1000
0000
0100
0000
,
1000
0000
0001
0000
,
0010
0010
0001
0001
,
0010
0001
1000
0001
,
1000
0100
0010
0001
,
0010
0100
1000
0001
,
2000
0000
0000
0000
,
3000
0000
0000
0000
,
1000
0000
0000
0001
0000
0000
2000
0000
,
0000
0000
0000
3000
,
0010
0000
0000
0100
0000
0000
0010
0000
,
0000
0100
0000
0000
0220
0000
0330
0000
,
0010
0000
0000
1000
0000
0000
0200
0000
,
0000
0000
0000
0300
,
0001
0000
0000
0100
0000
0000
1000
0000
,
0000
0010
0000
0000
0000
0000
0000
0000
,
1001
0000
0000
0000
;

//---------------dance-single - BASIC----------------
#NOTES:
     dance-single:
     BASIC:
     Beginner:
     2:
     0.159,0.241,0.080,0.000,0.000: // measure 1
0000
0000
0000
0000
,  // measure 2
0000
0000
0000
0000
,  // measure 3
0000
0000
0000
0000
,  // measure 4
0000
0000
0000
0000
,  // measure 5
1000
0000
0000
0001
,  // measure 6
0000
0000
0000
0000
,  // measure 7
0100
0000
0000
0010
,  // measure 8
0000
0000
0000
0000
,  // measure 9
1000
0000
1000
0000
,  // measure 10
0001
0000
0001
0000
,  // measure 11
0100
0000
0010
0000
,  // measure 12
0100
0000
0000
0000
,  // measure 13
0010
0000
0010
0000
,  // measure 14
0100
0000
0100
0000
,  // measure 15
0001
0000
0010
0000
,  // measure 16
0100
0000
0000
0000
,  // measure 17
1000
0000
0000
0000
,  // measure 18
1000
0000
0000
0000
,  // measure 19
1000
0000
0000
0000
,  // measure 20
0000
0000
0000
0000
,  // measure 21
0001
0000
0001
0000
,  // measure 22
1000
0000
1000
0000
,  // measure 23
0010
0000
0100
0000
,  // measure 24
0110
0000
0000
0000
,  // measure 25
1000
0000
1000
0000
,  // measure 26
0100
0000
0100
0000
,  // measure 27
0010
0000
0001
0000
,  // measure 28
0011
0000
0000
0000
,  // measure 29
0001
0000
0000
0010
,  // measure 30
0000
0000
0000
0000
,  // measure 31
0100
0000
0000
1000
,  // measure 32
0000
0000
0000
0000
,  // measure 33
0001
0000
0000
1000
,  // measure 34
0000
0000
0000
0000
,  // measure 35
0010
0000
0000
0100
,  // measure 36
0000
0000
0000
0000
,  // measure 37
0001
0000
0010
0000
,  // measure 38
0001
0000
0100
0000
,  // measure 39
0001
0000
0010
0000
,  // measure 40
0011
0000
0000
0000
,  // measure 41
1000
0000
0100
0000
,  // measure 42
1000
0000
0010
0000
,  // measure 43
1000
0000
0100
0000
,  // measure 44
1100
0000
0000
0000
,  // measure 45
1000
0000
1000
0000
,  // measure 46
1000
0000
0000
0000
,  // measure 47
0001
0000
0000
0000
,  // measure 48
0100
0000
0000
0000
,  // measure 49
0010
0000
0010
0000
,  // measure 50
0010
0000
0000
0000
,  // measure 51
0100
0000
0000
0000
,  // measure 52
0001
0000
0000
0000
,  // measure 53
1000
0000
0100
0000
,  // measure 54
0010
0000
0000
0000
,  // measure 55
0001
0000
0000
0000
,  // measure 56
1000
0000
0000
0000
,  // measure 57
0001
0000
0100
0000
,  // measure 58
0010
0000
0000
0000
,  // measure 59
1000
0000
1000
0000
,  // measure 60
0001
0000
0001
0000
,  // measure 61
1001
0000
0000
0000
,  // measure 62
0110
0000
0000
0000
,  // measure 63
1000
0000
0000
0100
,  // measure 64
0000
0000
0000
0000
,  // measure 65
0010
0000
0000
0001
,  // measure 66
0000
0000
0000
0000
,  // measure 67
1000
0000
0000
0010
,  // measure 68
0000
0000
0000
0000
,  // measure 69
0100
0000
0000
0001
,  // measure 70
0000
0000
0000
0000
,  // measure 71
1001
0000
0000
0000
;
