#TITLE:Doppelganger;
#SUBTITLE:;
#ARTIST:LeaF;
#TITLETRANSLIT:;
#SUBTITLETRANSLIT:;
#ARTISTTRANSLIT:;
#GENRE:;
#CREDIT:;
#MENUCOLOR:;
#METERTYPE:DDR;
#BANNER:dg.png;
#BACKGROUND:dg-bg.png;
#LYRICSPATH:;
#CDTITLE:!hiryuu.png;
#MUSIC:dg.ogg;
#OFFSET:0.000;
#SAMPLESTART:0.000;
#SAMPLELENGTH:18.861;
#SELECTABLE:YES;
#LISTSORT:;
#BPMS:0.000=280.040,46.000=140.020,47.000=280.040,71.000=140.020,72.000=280.040,80.000=140.020,104.000=280.040,110.500=140.020,112.000=280.040,115.500=140.020,120.000=280.040,133.000=140.020,135.000=280.040,189.000=140.020,191.000=280.040,193.000=140.020,194.000=280.040,196.000=140.020,197.000=280.040,198.000=140.020,198.500=280.040,199.500=140.020,200.000=280.040,201.000=140.020,202.000=280.040,204.000=140.020,204.500=280.040,206.500=140.020,212.000=280.040,230.000=140.020,232.000=280.040,244.000=140.020,246.000=280.040,254.000=140.020,268.000=280.040,281.000=140.020,282.000=280.040,284.000=560.080,288.000=280.040,292.000=140.020,293.000=280.040,294.000=560.080,296.000=140.020,296.500=280.040,300.000=140.020,301.000=280.040,314.000=560.080,318.000=140.020,319.000=280.040,354.500=560.080,362.500=280.040,365.500=560.080,370.500=280.040,371.000=140.020,371.500=280.040,385.000=70.010,393.003=140.020,407.000=280.040,415.000=560.080,575.000=140.020,582.000=280.040,583.000=560.080;
#STOPS:63.000=0.107
,63.500=0.107
,64.000=0.107
,65.500=0.107
,69.000=0.214
,69.500=0.214
,70.000=0.214
,70.500=0.214
,104.000=0.107
,104.500=0.107
,105.000=0.054
,105.250=0.054
,105.500=0.054
,105.750=0.054
,106.000=0.054
,106.250=0.054
,107.000=0.107
,108.000=0.107
,108.500=0.214
,109.000=0.214
,109.500=0.214
,110.000=0.214
,112.000=0.107
,112.500=0.107
,113.000=0.107
,113.500=0.214
,114.000=0.214
,114.500=0.214
,115.000=0.214
,119.500=0.214
,125.500=0.107
,126.500=0.107
,144.500=0.107
,145.500=0.107
,146.000=0.107
,146.500=0.107
,150.500=0.107
,153.500=0.107
,157.000=0.107
,159.500=0.107
,160.000=0.107
,160.500=0.107
,164.000=0.214
,166.000=0.107
,167.000=0.107
,170.000=0.321
,170.500=0.321
,182.500=0.107
,183.500=0.107
,184.000=0.107
,184.500=0.107
,217.000=0.214
,228.000=0.107
,228.500=0.107
,229.000=0.107
,229.500=0.107
,237.500=0.107
,238.500=0.107
,239.000=0.107
,240.000=0.107
,241.000=0.107
,241.500=0.107
,242.000=0.107
,243.000=0.107
,247.500=0.107
,248.500=0.107
,249.000=0.107
,250.000=0.107
,251.000=0.107
,251.500=0.107
,252.000=0.107
,253.000=0.107
,280.000=0.107
,280.500=0.054
,280.750=0.054
,288.000=0.107
,288.250=0.107
,296.500=0.107
,301.000=0.107
,301.500=0.107
,308.000=0.054
,308.250=0.054
,308.500=0.054
,308.750=0.054
,309.000=0.054
,309.250=0.054
,309.500=0.054
,309.750=0.054
,310.500=0.214
,311.500=0.214
,328.500=0.214
,329.000=0.214
,329.500=0.214
,333.500=0.214
,334.000=0.214
,334.500=0.214
,339.000=0.107
,339.500=0.214
,340.500=0.107
,352.500=0.214
,353.000=0.214
,354.000=0.107
,364.500=0.054
,364.750=0.054
,365.000=0.054
,365.250=0.054
,371.500=0.107
,376.500=0.214
,381.000=0.214
;
#BGCHANGES:0.000=dg.mpg=1.000=1=0=0,
672.000=dg-bg.png=1.000=1=0=0,
99999=-nosongbg-=1.000=0=0=0 // don't automatically add -songbackground-
;
#ATTACKS:;

//---------------dance-single - HELL----------------
#NOTES:
     dance-single:
     HELL:
     Hard:
     14:
     1.000,1.000,0.222,1.000,0.408: // measure 1
0000
0000
0000
0000
,  // measure 2
0000
0000
0000
0000
,  // measure 3
0000
0000
0000
0000
,  // measure 4
0000
0000
0000
0000
,  // measure 5
0001
0010
0001
0100
0000
0001
0000
0100
,  // measure 6
0000
0010
1000
0000
0100
0000
1000
0000
,  // measure 7
0010
1000
0010
0100
0010
1000
0010
0100
,  // measure 8
0010
0000
0001
0000
0010
0000
0100
0000
0010
0000
1000
0000
0001
1000
0001
1000
,  // measure 9
0001
0010
0001
0100
0000
0001
0000
0100
,  // measure 10
0000
0010
1000
0000
0100
0000
1000
0000
,  // measure 11
0010
1000
0010
0100
0010
0001
0010
0000
,  // measure 12
1010
1001
0022
0033
,  // measure 13
0001
1000
0001
0100
0001
0010
0001
1000
,  // measure 14
0001
0100
0001
0010
0001
0000
0000
0000
,  // measure 15
1000
0001
1000
0010
1000
0100
1000
0001
,  // measure 16
1000
0000
0010
0000
1000
0000
0100
0000
1000
0000
0000
0000
0002
0003
2000
3000
,  // measure 17
0020
0030
0100
0000
0010
0000
0200
0300
0001
0000
0000
0000
1000
0001
1000
0001
,  // measure 18
1000
0000
0000
0000
1001
0000
0011
0000
0110
0000
1100
0000
2002
0000
0000
3003
,  // measure 19
0220
0000
0000
0000
,  // measure 20
0330
0000
0010
1000
0100
0000
0010
0000
,  // measure 21
0001
0000
0100
0000
0010
0000
1000
0000
0100
0000
1000
0010
1000
0000
0100
0000
,  // measure 22
1000
0000
0010
0000
1000
0000
0001
0010
0001
0000
1000
0100
1000
0000
0010
0100
,  // measure 23
0001
0000
0010
0000
0001
0000
1000
0010
0100
0000
0001
0000
0010
0000
0100
1000
,  // measure 24
0100
0000
1000
0000
0010
1000
0010
0001
0010
0000
1000
0000
0100
0000
0010
0000
,  // measure 25
0001
0000
0000
0100
0000
0000
0010
0000
0000
1000
0000
0000
0001
0000
0000
0010
0001
0010
0001
0000
0000
1000
0000
0000
,  // measure 26
0010
0100
0001
1000
0020
0000
0230
0000
,  // measure 27
0302
0000
0003
0000
2000
0000
3000
0000
0002
0003
0020
0030
0002
0003
0020
0030
0002
0003
0020
0030
0002
0003
0000
0000
2000
0000
3000
0000
0100
0000
0000
0000
,  // measure 28
2000
3000
1100
0000
0110
0000
0011
0000
1001
0000
0220
0000
0000
0000
0330
0000
,  // measure 29
0020
0030
0200
0300
0020
0030
1010
0000
0110
0000
0011
0000
0110
0000
2020
0000
,  // measure 30
0000
0000
0000
0000
0000
0000
0000
3030
,  // measure 31
1000
0000
0010
0000
1000
0010
1000
0100
,  // measure 32
1000
0000
0001
0000
1000
0000
0200
0300
0100
0000
0020
0030
0001
1000
0001
1000
,  // measure 33
0001
1000
0001
0010
0100
1000
0100
0010
,  // measure 34
0001
1000
0002
0023
0230
2300
3001
0010
,  // measure 35
0001
0100
0001
0010
0001
0000
1000
0100
,  // measure 36
1000
0010
1000
0100
1000
0100
0010
0001
,  // measure 37
1000
0000
0020
0030
0100
0000
0002
0003
2000
3000
0020
0030
0100
0000
0000
0000
,  // measure 38
0001
0000
0010
0000
0100
0000
1000
0000
0001
0000
2000
3000
0010
0000
0100
0000
,  // measure 39
0001
0000
1000
0000
0001
0000
2000
3000
0001
0000
1000
0000
0001
0000
1000
0000
,  // measure 40
0001
0000
1000
0000
0002
0003
0010
0000
0100
0000
1000
0000
0001
0000
1001
0000
,  // measure 41
0110
1001
0100
0000
1000
0100
1000
0010
,  // measure 42
2000
0000
3001
0000
0010
0000
0001
0000
0200
0000
0301
0000
0020
0030
0100
0000
,  // measure 43
1000
0000
0000
0001
0000
0000
1000
0000
2002
3003
0220
0330
1000
0000
0000
1000
,  // measure 44
0000
0000
0100
0000
0000
0000
0000
0000
0000
0000
0100
0000
0000
0000
0010
0000
0000
0000
0000
0000
0000
0000
0001
0000
0000
1000
0000
0001
0000
1000
0000
0000
,  // measure 45
0001
0000
0010
0000
0200
0000
0000
0000
1300
0000
0100
1000
0100
0000
1000
0000
,  // measure 46
0010
0000
0100
0000
0001
0000
1000
0000
0100
0000
0020
0030
0001
0000
2000
3000
,  // measure 47
0020
0030
0200
0300
0001
0000
0000
0000
0010
0000
0000
0000
0001
0000
0000
0000
,  // measure 48
0010
0000
0000
0000
0000
0000
0000
0000
0200
0300
0000
0000
2000
3000
0200
0300
2000
3000
0000
0000
0200
0300
0000
0000
0010
0000
0000
0000
0000
0000
0000
0000
,  // measure 49
0001
0000
0000
0000
0000
0000
0000
0000
2000
3000
0000
0000
0200
0300
2000
3000
0001
0000
0000
0000
0000
0000
0000
0000
0010
0000
0000
0000
0001
0000
0000
0000
,  // measure 50
2000
3000
0000
0000
0200
0300
2000
3000
0001
0000
0000
0000
0000
0000
0000
0000
2000
3000
0000
0000
0001
0000
0000
0000
0000
0000
0000
0000
2000
3000
0200
0300
,  // measure 51
0010
0000
0000
0000
0000
0000
0000
0000
0200
0300
0000
0000
2000
3000
0000
0000
0001
0000
0000
0000
0010
0000
0000
0000
0001
0000
0000
0000
0000
0000
0000
0000
,  // measure 52
2000
3000
0000
0000
0001
0000
0000
0000
0010
0000
0000
0000
0001
0000
0000
0000
0010
0000
0000
0000
0200
0300
0000
0000
2000
3000
0000
0000
0200
0300
0000
0000
,  // measure 53
0000
0000
0000
0000
0000
0000
2000
0000
0000
3000
0000
0000
0200
0000
0000
0300
0000
0000
0020
0000
0000
0030
0000
0000
0002
0000
0000
0003
0000
0000
2000
0000
0000
3000
0000
0000
0200
0300
2000
3000
0200
0300
2000
3000
0000
0000
0000
0000
,  // measure 54
0010
0100
0001
1000
,  // measure 55
0001
0000
0000
0000
0000
0000
0000
0000
0000
0000
0000
0000
0220
0000
0000
0330
0000
0000
0000
0000
0000
0000
0000
0000
1000
0000
0000
0000
0000
0000
0000
0000
0000
0000
0000
0000
0001
0000
0000
0000
0010
0000
0000
0000
0100
0000
0000
0000
,  // measure 56
1000
0000
0100
1000
0000
0010
0100
0000
0001
0010
0000
0010
,  // measure 57
0100
0000
0100
1000
0000
1000
0100
0000
0100
0010
0000
0010
,  // measure 58
0002
0000
0003
0000
2000
0000
3000
0000
0020
0000
0030
0000
0200
0000
0300
0000
0220
0000
0000
0000
0000
0000
0000
0000
0330
0000
0000
0000
0001
1000
0001
1000
,  // measure 59
0001
0010
0100
1000
0010
0100
0001
0000
,  // measure 60
1000
0000
0100
0000
1000
0000
0200
0300
0010
0000
0002
0000
0023
0000
0031
0000
,  // measure 61
2000
3000
0100
0000
0020
0000
0032
0003
2000
3000
0010
0000
0200
0300
0001
0000
,  // measure 62
0020
0000
0000
0000
0230
0000
0000
0000
1300
0000
0000
0000
0100
0000
2000
3000
,  // measure 63
0010
0000
2000
0000
3200
0000
0310
0000
0002
0003
0100
0000
0020
0030
2000
3000
,  // measure 64
0020
0000
0030
0000
0100
0000
0000
0000
0002
0000
0003
0000
0100
0000
0000
0000
0020
0000
0000
0030
1000
0000
0010
0000
0100
0000
0000
0000
0001
0000
0000
0000
,  // measure 65
1000
0000
0010
0000
0100
0000
0001
0000
0010
0000
0001
0100
0001
0000
0010
0000
,  // measure 66
0001
0000
0100
0000
0001
0000
1000
0100
1000
0000
0001
0010
0001
0000
0100
0010
,  // measure 67
1000
0000
0100
0000
1000
0000
0001
0100
0010
0000
1000
0000
0100
0000
0010
0001
,  // measure 68
0010
0000
0000
0000
0000
0000
0001
0000
0000
0010
0000
0000
0000
0000
0001
0000
0010
0000
0001
0000
0100
0000
0010
0000
,  // measure 69
1000
0000
0100
1000
0000
0000
0001
0000
0000
1000
0001
1000
,  // measure 70
0001
0010
0001
0100
0001
1000
0001
0100
,  // measure 71
0020
0000
0230
0320
1030
0000
0001
0000
1000
0000
0000
0000
0100
0000
0000
0000
,  // measure 72
10MM
0000
0100
1000
0001
0000
MM10
0001
,  // measure 73
2000
3200
0310
0000
0001
0000
0100
0000
0001
0000
0010
0000
0001
0000
0000
0000
,  // measure 74
2000
3200
0310
0100
0020
0000
M00M
0000
,  // measure 75
0032
0000
2003
0000
3001
0000
0010
0100
0010
0000
0001
0000
0010
0000
0001
0000
,  // measure 76
1000
0100
1000
0100
1100
0000
0110
0000
0022
0000
0000
0000
0003
0000
0000
0000
,  // measure 77
0031
1000
0001
1000
0001
1000
0001
1000
,  // measure 78
0002
0003
0020
0030
0200
0300
2000
3000
0002
0003
0020
0030
0200
0300
2000
3000
0001
0000
0000
0000
2000
0000
0000
0000
3010
0000
0000
0000
0200
0000
0000
0000
,  // measure 79
0301
1000
0100
0010
M002
0000
0M00
0000
,  // measure 80
00M0
0M00
2003
3002
,  // measure 81
0000
0023
0000
0000
0230
0000
1300
0000
,  // measure 82
0100
0000
0000
0000
0000
0000
1000
0001
1000
0000
0001
0000
1000
0000
0000
0010
0000
0000
0100
0000
0000
0001
0000
0000
,  // measure 83
0010
0000
0200
0300
1001
0000
0110
0000
1000
0001
1000
0001
1000
0000
0000
0000
,  // measure 84
0010
0000
0100
0002
0023
0230
1300
0010
,  // measure 85
0100
0000
0001
0000
1000
0001
1000
0001
1000
0001
1000
0000
0200
0300
0020
0000
,  // measure 86
0130
0000
0020
0030
0001
0000
1000
0001
1000
0000
0010
0000
0000
0000
0100
0000
,  // measure 87
0020
0000
2030
0000
3020
0000
0130
0002
,  // measure 88
0000
0000
1003
0010
1000
0001
1000
0100
,  // measure 89
1000
0000
0020
0000
0230
0000
0310
0000
0200
0300
0020
0000
M000
0000
0000
0000
,  // measure 90
000M
M000
000M
M000
,  // measure 91
000M
0000
0000
0000
0000
0000
M000
0000
0000
0000
0000
0000
000M
0000
0000
1030
0000
0100
0000
1000
0000
0100
0000
0010
,  // measure 92
0000
0000
0000
0000
0000
0000
0000
0000
0001
0000
0000
0000
0000
0000
0000
0000
0000
0000
0000
0000
0000
0000
0000
0000
0020
0000
0000
0000
0000
0000
0030
0000
0000
0000
0000
0000
0002
0000
0000
0000
0000
0000
0003
0000
0000
0000
0000
0000
0020
0000
0000
0000
0000
0000
0030
0000
0000
0000
0000
0000
0200
0000
0000
0000
0000
0000
0300
0000
0000
0000
0000
0000
2000
0000
0000
0000
0000
0000
0000
0000
0000
0000
0000
0000
0000
0000
0000
0000
0000
0000
0000
0000
0000
0000
0000
0000
000M
0000
0000
0000
0000
0000
0000
0000
0000
0000
0000
0000
0000
0000
0000
0000
0000
0000
0000
0000
0000
0000
0000
0000
0000
0000
0000
0000
0000
0000
0000
0000
0000
0000
0000
0000
0000
0000
0000
0000
0000
0000
0000
0000
0000
0000
0000
0000
00M0
0000
0000
0000
0000
0000
0000
0000
0000
0000
0000
0000
0000
0000
0000
0000
0000
0000
0000
0000
0000
0000
0000
0000
0000
0000
0000
0000
0000
0000
0000
0000
0000
0000
0000
0000
0000
0000
0000
0000
0000
0000
0000
0000
0000
0000
0000
0000
,  // measure 93
000M
0M00
00M0
0000
,  // measure 94
3001
0000
0000
0010
0000
0000
0100
0000
,  // measure 95
1000
0000
0020
0030
0100
0000
0000
0000
0100
0000
0000
0000
0000
0000
0100
0000
,  // measure 96
0000
0000
0000
0000
0200
0300
0000
0000
0002
0000
0000
0000
0000
0000
0000
0000
,  // measure 97
0000
0000
0000
0000
2003
0000
0100
0000
0001
0000
0000
0100
0100
0000
0100
0000
,  // measure 98
0001
0000
0100
0000
0100
0000
0100
0000
0001
0000
0000
0100
0100
0000
0100
0000
,  // measure 99
0001
0000
0000
0000
0100
0000
0000
0000
0000
3000
0000
0000
0100
0000
0010
0000
0001
0000
0000
0000
0010
0000
0000
0000
0001
0000
0000
0000
0100
0000
0000
0000
,  // measure 100
0010
0000
1000
0000
0100
0000
1000
0010
1000
0000
0100
0000
1000
0000
0010
0000
,  // measure 101
1000
0000
0001
0010
0001
0000
1000
0100
1000
0000
0010
0100
0001
0000
0010
0000
,  // measure 102
0001
0000
1000
0010
0100
0000
0001
0000
0010
0000
0100
1000
0001
0000
0000
0000
,  // measure 103
0010
0000
0001
0010
0001
0010
0001
0000
0100
0010
0000
1000
,  // measure 104
0100
1000
0010
0000
0100
0000
M001
0000
,  // measure 105
0000
010M
0000
M010
,  // measure 106
0000
100M
0000
M100
,  // measure 107
0000
100M
0010
M100
,  // measure 108
0000
00M1
0000
M100
,  // measure 109
0000
00M1
0000
010M
,  // measure 110
0000
M010
1000
010M
,  // measure 111
0000
M010
0001
01M0
,  // measure 112
0000
M010
1000
00M1
,  // measure 113
0000
M010
0000
0M01
,  // measure 114
0000
M100
0010
100M
,  // measure 115
0000
01M0
0000
100M
,  // measure 116
0000
M100
1000
00M1
,  // measure 117
0000
1M00
0000
001M
,  // measure 118
1000
0M01
0010
M001
,  // measure 119
0000
01M0
0000
M001
,  // measure 120
0000
0000
1MM0
0001
1000
0001
1MM0
0000
,  // measure 121
0000
M010
0000
01M0
,  // measure 122
0000
M001
0000
001M
,  // measure 123
0000
0000
0000
M100
0000
0010
0000
0100
0000
100M
0000
0000
,  // measure 124
0000
01M0
0000
100M
,  // measure 125
0000
0M10
0000
100M
,  // measure 126
0000
0000
M100
0000
0000
0000
10MM
0100
,  // measure 127
1000
0100
10MM
0000
0000
0000
MM10
0001
,  // measure 128
0010
0001
MM10
0000
0000
0000
00M1
0000
,  // measure 129
0000
0000
M100
0000
0000
0000
M01M
0100
,  // measure 130
0010
0100
M01M
0000
0000
0000
10M0
0000
,  // measure 131
0000
0000
M01M
0000
0100
0010
M10M
0010
,  // measure 132
0100
0010
M10M
0000
0000
0000
0M01
0000
,  // measure 133
0000
0000
10M0
0000
0000
0000
001M
1000
,  // measure 134
0100
1000
001M
0000
0000
0000
M100
0000
,  // measure 135
0000
0000
00M1
0000
1000
0001
01M0
0001
,  // measure 136
1000
0010
1M00
0000
0000
0000
M001
0100
,  // measure 137
0010
0100
M001
0000
0000
0000
100M
0010
,  // measure 138
0100
0010
100M
0000
0000
0000
0M01
0000
,  // measure 139
0010
M001
0100
001M
,  // measure 140
1000
0000
0MM1
1000
0001
1000
0MM1
0000
,  // measure 141
0100
00M1
1000
00M1
,  // measure 142
0100
M001
0010
M001
,  // measure 143
0100
00M1
1000
00M1
,  // measure 144
0100
M001
0010
M000
,  // measure 145
2M02
00M0
0M00
00M0
0M00
00M0
0M00
00M0
0M00
00M0
0M00
00M0
0M00
00M0
0M00
00M0
,  // measure 146
0M00
00M0
0M00
00M0
0M00
00M0
0M00
00M0
0M00
00M0
0M00
00M0
0M00
00M0
0M00
00M0
,  // measure 147
3M03
M00M
0000
0000
;
