#TITLE:Disconnected Percussion;
#SUBTITLE:;
#ARTIST:DJ Lawlzy (aka TanYah);
#TITLETRANSLIT:;
#SUBTITLETRANSLIT:;
#ARTISTTRANSLIT:;
#CREDIT:;
#BANNER:discperc.png;
#BACKGROUND:discperc-bg.png;
#LYRICSPATH:;
#CDTITLE:!hiryuu.png;
#MUSIC:discperc.ogg;
#OFFSET:0.000;
#SAMPLESTART:10.629;
#SAMPLELENGTH:13.200;
#SELECTABLE:YES;
#BPMS:0.000=180.000;
#STOPS:200.000=1.667
;
#BGCHANGES:;

//---------------dance-single - SMANIAC----------------
#NOTES:
     dance-single:
     SMANIAC:
     Challenge:
     11:
     0.834,0.944,0.566,0.263,0.499:
0000
0000
0000
0000
,
0000
0000
0000
0000
,
0000
0000
0000
0000
,
0000
0000
0000
0000
,
1000
0000
0100
0000
1000
0000
0100
000M
1000
0000
0100
0000
1000
0000
0100
0000
,
1000
0000
0001
0000
1000
0000
0001
0M00
1000
0000
0001
0000
1000
0000
0001
0000
,
0100
0001
0100
0001
01M0
0001
0100
0001
,
0100
0000
0000
000M
1000
0000
0100
0000
0000
0000
M001
0000
0100
0000
0000
0000
,
M11M
0000
0000
0000
0010
1000
0010
0000
1000
0000
0010
0000
0100
0000
0010
0000
,
1000
0000
0100
0010
0100
0000
0010
0001
0010
0000
0001
0000
1000
0000
0000
0000
,
1MM1
0000
0000
0000
0001
0100
0001
0000
0100
0000
0010
0000
0100
0000
0001
0000
,
0010
0000
0100
1000
0100
0000
1000
0001
1000
0000
0010
0000
0100
0000
0000
0000
,
0002
0200
0010
M3M3
,
0001
0000
0000
0000
0000
0000
0000
0000
0000
0000
0000
0000
0000
0000
0000
0000
0000
0000
0000
0000
0000
0000
0000
0000
0000
0000
0000
0000
0000
0000
0000
0000
0000
0000
0000
0000
0100
0000
0000
0000
0000
0000
0000
0000
0000
0000
0000
0000
0000
0000
0000
0000
0000
0000
0000
0000
0000
0000
0000
0000
0000
0000
0000
0000
0000
0000
0010
0000
0000
0000
0000
0000
0000
0000
0000
0000
0000
0000
0000
0000
0000
0000
0000
0000
0000
0000
0000
0000
1000
0000
0000
0000
0000
0000
0000
0000
0000
0000
0000
0000
0000
0000
0000
0000
0000
0000
0000
0000
0000
0000
0000
0000
0100
0000
0000
0000
0000
0000
0000
0000
0000
0000
0000
0000
0000
0000
0000
0000
1000
0000
0000
0000
0000
0000
0000
0000
0000
0000
0000
0000
0000
0000
0000
0000
0000
0000
0000
0000
0000
0000
0000
0000
0000
0000
0000
0000
0000
0000
0000
0000
0000
0000
0000
0000
0000
0000
0000
0000
0000
0000
0000
0000
0000
0000
0000
0000
0000
0000
0000
0000
0000
0000
0000
0000
0000
0000
0000
0000
0000
0000
0000
0000
,
11MM
0000
0000
0000
1000
0100
1000
0000
0100
0000
0010
0000
0001
0000
0010
0000
,
0001
0000
0100
0010
0100
0000
0010
1000
0010
0000
0100
0000
0001
0000
0000
0000
,
M1M1
0000
0000
0000
0001
1000
0001
0000
1000
0000
0100
0000
1000
0000
0010
0000
,
0100
0000
0001
0010
0001
0000
0100
0001
0100
0000
0010
0000
1000
0000
0001
0000
,
0100
0000
0001
0000
1000
0000
0001
0000
2000
0000
0M00
00M0
0000
0000
000M
0000
,
3010
0100
0010
0000
0000
0000
0100
0010
0100
0000
0000
0000
0000
0000
0010
0000
,
0000
0000
0000
0000
0000
0000
0100
0000
0000
0000
0000
0000
0000
0000
0000
0000
0000
0000
0000
0000
0000
0000
0000
0000
0000
0000
0000
0000
0000
0000
0000
0000
0000
0000
0000
0000
0001
0000
0000
0000
0000
0000
0000
0000
0000
0000
0000
0000
0000
0000
0000
0000
0000
0000
0000
0000
0000
0000
0000
0000
0000
0000
0000
0000
0000
0000
0000
0000
0000
0000
0000
0000
0000
0000
0000
0000
0010
0000
0000
0000
0000
0000
0000
0000
0000
0000
0000
0000
0000
0000
0000
0000
0000
0000
0000
0000
0000
0000
0000
0000
0000
0000
0100
0000
0000
0000
0000
0000
0000
0000
0000
0000
0000
0000
0000
0000
0000
0000
0000
0000
0000
0000
0000
0000
0000
0000
0000
0000
0000
1000
0000
0000
0000
0000
0000
0000
0000
0000
0000
0000
0000
0000
0000
0000
0000
0000
0000
0000
0000
0000
0000
0000
0000
0000
0000
0000
0000
0000
0000
0000
0000
0000
0000
0000
0000
0000
0000
0000
0000
0000
0000
0000
0000
0000
0000
0000
0000
0000
0000
0000
0M00
0000
0000
0000
0000
0000
0000
0000
0000
0000
0000
0000
,
0001
M000
0010
0000
0001
M000
0100
0000
0010
000M
1000
0000
0000
0000
1000
0000
,
0100
0000
0010
0000
0001
0000
1000
0000
0002
0000
00M0
0M00
0000
0000
M000
0000
,
0103
0001
0100
0000
0000
0000
0010
1000
0010
0000
0000
0000
0000
0000
1000
0000
,
0000
0000
0000
0000
0000
0000
0010
0000
0000
0000
0000
0000
0000
0000
0000
0000
0000
0000
0000
0000
0000
0000
0000
0000
0000
0000
0000
0000
0000
0000
0000
0000
0000
0000
0000
0000
0100
0000
0000
0000
0000
0000
0000
0000
0000
0000
0000
0000
0000
0000
0000
0000
0000
0000
0000
0000
0000
0000
0000
0000
0000
0000
0000
0000
0000
0000
0000
0000
0001
0000
0000
0000
0000
0000
0000
0000
0000
0000
0000
0000
0000
0000
0000
0000
0000
0000
0000
0000
0000
0000
0010
0000
0000
0000
0000
0000
0000
0000
0000
0000
0000
0000
0000
0000
0000
0000
0000
0000
0000
0000
0000
0000
0000
0000
0000
0000
0000
0100
0000
0000
0000
0000
0000
0000
0000
0000
0000
0000
0000
0000
0000
0000
0000
0000
0000
0000
0000
0000
0000
0000
0000
0000
0000
0000
M000
0000
0000
0000
0000
0000
0000
0000
0000
0000
0000
0000
0000
0000
0000
0000
0000
0000
0000
0000
0000
0000
0000
0000
000M
0000
0000
0000
0000
0000
0000
0000
0000
0000
0000
0000
0000
0000
0000
0000
0000
0000
0000
0000
0000
0000
0000
0000
,
0010
0000
0000
0000
0000
0000
0000
0000
0000
0000
0000
0000
0000
0000
0000
0000
0000
0000
0000
0000
0000
0000
0000
0000
0000
0000
0000
0000
0000
0000
0000
0000
0000
0000
0000
0000
0M01
0000
0000
0000
0000
0000
0000
0000
0000
0000
0000
0000
0000
0000
0000
0000
0000
0000
0000
0000
0000
0000
0000
0000
0010
0000
0000
0000
0000
0000
0000
0000
0000
0000
0000
0000
0000
0000
0000
0000
0000
0000
0000
0000
0001
0000
0000
0000
0000
0000
0000
0000
0000
0000
0000
0000
0000
0000
0000
0000
1000
0000
0000
0000
0000
0000
0000
0000
0000
0000
0000
0000
0000
0000
0000
0000
0000
0000
0000
0000
0000
0010
0000
0000
0000
0000
0000
0000
0000
0000
0000
0000
0000
0000
0000
0000
0M00
0000
0000
0000
0000
0000
0000
0000
0000
0000
0000
0000
0000
0000
0000
0000
0000
0000
0000
0000
0000
0000
0000
0000
0000
0000
0000
0000
0000
0000
0000
0000
0000
0000
0000
0000
0000
0000
0000
0000
0000
0000
0000
0000
0000
0000
0000
0000
0000
0000
0000
0000
0000
0000
0000
0000
0000
0000
0000
0000
,
1MM1
0000
0000
0000
0010
1000
0010
0000
0100
0000
0001
0000
0100
0000
0010
0000
,
1000
0000
0001
0010
0001
0000
0100
0001
0100
0000
0001
0000
1000
0000
0000
0000
,
11MM
0000
0000
0000
0010
0001
0010
0000
0001
0000
0100
0000
0010
0000
1000
0000
,
0100
0000
1000
0100
1000
0000
0010
0001
0010
0000
0001
0000
1000
0M01
1000
00M1
,
1000
0000
0000
0000
0001
1000
0100
0000
1000
0000
0010
0000
0100
0000
0001
0000
,
0010
0000
0001
0100
0010
0000
1000
0100
0010
0000
0001
0000
1000
0000
0000
0000
,
11MM
0000
0000
0000
0100
1000
0010
0000
0100
0000
0001
0000
0010
0000
0100
0000
,
1000
0000
0001
0010
0100
0000
1000
0010
0100
0000
0001
0000
1000
0000
0000
0000
,
M1M1
0000
M11M
0000
0010
1000
0000
1M1M
,
0000
0000
M1M1
0000
0000
0000
1M1M
0000
0000
0000
0010
0000
1000
0M10
1000
0000
,
1M1M
0000
1MM1
0000
0100
0001
0000
M11M
,
0000
0000
MM11
0000
0000
0000
0M01
0000
1MM1
0000
0000
MMMM
0000
0000
0000
0000
,
MM11
0000
M11M
0000
1000
0100
0000
11MM
,
0000
0000
1MM1
0000
0000
0000
M1M1
0000
0000
0000
0001
0000
0100
00M1
0100
0000
,
M1M1
0000
M11M
0000
0010
1000
0000
11MM
,
0000
0000
M11M
0000
0000
0000
0M10
0000
MM11
0000
0000
MMMM
0000
0000
0000
0000
,
1000
0000
0100
0010
0001
0000
0100
0000
0010
0000
1000
0000
0100
0000
0010
0000
,
0001
0000
1000
0010
0100
0000
0001
0000
1000
0000
0100
0000
MM11
0000
0000
0000
,
0001
0000
0100
0010
1000
0000
0001
0000
0010
0000
0100
0000
1000
0000
0001
0000
,
0100
0000
0010
1000
0001
0000
1000
0000
0100
0000
0010
0000
1MM1
0000
0000
0000
,
1000
0000
0100
0010
0100
0000
0001
0000
0010
0000
0001
0000
0100
0000
0010
0000
,
1000
0000
0100
1000
0100
0000
1000
0000
0010
0000
0100
0000
1MM1
0000
0000
0000
,
0100
0000
0010
1000
0010
0000
0100
0000
0001
0000
0010
0000
0001
0000
0100
0000
,
0010
0000
1000
0100
1000
0000
0010
0000
0100
0000
0001
0000
1MM1
0000
0000
0000
,
2002
3003
M00M
0000
1000
0000
0M01
0000
1000
00M1
1M00
0001
1000
0000
0100
1000
,
0100
0000
1000
0010
1000
0000
0001
0100
0001
0000
0010
0001
0010
0000
0100
0010
,
0100
0000
0010
0001
1000
0000
0001
0000
1MM1
0000
0000
0000
0001
0000
0010
0001
,
0010
0000
0001
0100
0001
0000
1000
0010
1000
0000
0001
1000
0001
0000
1000
0100
,
1000
0000
0010
1000
0100
0000
0010
0000
M11M
0000
0000
0000
0001
0000
1000
0100
,
1000
0000
0001
0010
0001
0000
0100
0010
0100
0000
0001
1000
0001
0000
1000
0100
,
0010
0000
0001
0100
0010
0000
1000
0000
1M1M
0000
0000
0000
0010
0000
0100
0010
,
0100
0000
0001
0010
0001
0000
1000
0100
1000
0000
0001
1000
0001
0000
1000
0010
,
0100
0000
0001
0010
0100
0000
1000
0000
11MM
0000
0000
0000
10M1
0000
0000
0000
,
0001
0100
M110
0000
0010
1000
110M
0000
,
M110
MM11
1MM1
110M
,
1000
0010
M110
0000
0010
0100
M1M1
0000
,
11MM
M1M1
MMMM
011M
,
0010
1000
11M0
0000
1000
0100
011M
0000
,
0M11
M11M
1MM1
M011
,
0010
0100
011M
0000
0100
1000
11MM
0000
,
M1M1
11MM
M11M
1MM1
,
0001
1000
0001
0000
0100
0000
0001
0000
0100
0000
0010
0000
1000
0000
0010
0100
,
0010
0000
1000
0001
1000
0000
0100
0000
0010
0000
0000
0000
MM11
0000
0000
0000
,
0001
0100
0001
0000
0100
0000
0010
0000
1000
0000
0010
0000
1000
0000
0100
1000
,
0100
0000
0010
0001
0010
0000
0001
0000
M1M1
0000
0000
0000
M11M
0000
0000
0000
,
0010
1000
0010
0000
1000
0000
0100
0000
0010
0000
0001
0000
0010
0000
0100
0010
,
0100
0000
0010
0001
0010
0000
0001
0000
1MM1
0000
0000
0000
11MM
0000
0000
0000
,
0100
1000
0100
0000
1000
0000
0010
0000
0100
0000
0001
0000
0010
0000
0001
0100
,
0001
0000
1000
0001
1000
0000
0110
0000
0010
0100
M01M
0100
0010
0000
0000
0000
,
1000
0100
0010
0000
0001
0000
1000
0000
0100
0000
0010
0000
0001
0000
1000
0010
,
0100
0000
0001
1000
0010
0000
0100
0000
0001
0000
0000
0000
1MM1
0000
0000
0000
,
0001
0010
0100
0000
1000
0000
0001
0000
0010
0000
0100
0000
1000
0000
0000
0000
,
0100
M000
0001
0000
0000
0000
0100
000M
1000
0000
0000
0000
1MM1
0000
0000
0000
,
1000
0100
1000
0000
0100
0000
0010
0000
0001
0000
0010
0000
0001
0000
0010
0001
,
0010
0000
0001
1000
0001
0000
1000
0000
1MM1
0000
0000
0000
M1M1
0000
0000
0000
,
0001
0100
0001
0000
0100
0000
0001
0000
1000
0000
0100
0000
1000
0000
0000
0000
,
0010
M000
0001
0000
0000
0000
0010
000M
1000
0000
0000
0000
002M
0000
0000
0000
,
M200
0030
00M2
0300
M020
0003
020M
0030
,
20M0
0300
002M
3000
0M02
0030
M020
0003
,
2M00
0030
020M
3000
00M2
0300
M103
0000
,
100M
0100
00M0
0001
M100
0000
20M0
0000
,
0M20
3000
020M
0030
M002
0300
0M20
0003
,
200M
0030
0M20
3000
M002
0030
02M0
0003
,
M020
0300
200M
0030
0M02
3000
10M3
0000
,
M010
0000
0001
0000
0M00
0000
0010
0000
100M
0000
0000
0000
2M22
0M00
0M00
0M00
,
3M33
0000
0000
0000
;

//---------------dance-single - MANIAC----------------
#NOTES:
     dance-single:
     MANIAC:
     Hard:
     9:
     0.619,0.653,0.367,0.343,0.040:
0000
0000
0000
0000
,
0000
0000
0000
0000
,
0000
0000
0000
0000
,
0000
0000
0000
0000
,
1000
0100
0010
0001
,
0100
0010
1000
0001
,
0010
0001
0100
0010
,
1000
0000
0010
0001
0000
0010
1000
0000
,
0001
0000
0100
0010
0100
0001
0010
0001
,
0100
0010
0100
0001
0010
0001
1000
0000
,
0001
0000
1000
0100
1000
0010
0100
0010
,
1000
0100
1000
0010
0100
0010
1000
0000
,
0002
2003
3002
0003
,
M000
0000
0000
00M0
0000
M000
0000
0000
0M00
0000
000M
0000
00M0
0000
000M
0000
,
1000
0000
0001
0010
0100
0010
0001
1000
,
0100
0010
0100
1000
0001
1000
0001
0000
,
1000
0000
0010
0100
0001
0010
0001
0100
,
0010
1000
0100
1000
0010
0100
0001
0000
,
1000
0000
0100
0000
0010
0000
0001
0000
1000
0000
0000
000M
00M0
M000
0000
0000
,
0000
0M00
0000
0000
00M0
0000
000M
0000
0000
00M0
M000
0000
0000
0000
0001
0000
,
0010
0000
0100
0000
1000
0000
0001
0000
0010
0000
0001
0000
0000
0000
0000
000M
,
0000
0000
00M0
0000
M000
0000
0M00
000M
0000
0000
1000
0000
0000
0000
0100
0000
,
1000
0000
0010
0000
0100
0000
0001
0000
0010
0000
0000
0000
0000
0000
0000
000M
,
00M0
0000
M000
0000
0M00
0000
000M
0000
00M0
M000
0000
0000
0000
0000
0001
0000
,
0010
0001
1000
0100
1000
0100
0000
0000
,
2MM2
0000
0000
0000
3003
0000
1000
0001
,
1000
0000
0100
0010
0001
0010
0100
1000
,
0010
0001
0010
1000
0001
1000
0001
0000
,
1000
0000
0010
0100
0001
0010
0001
1000
,
0010
0001
0010
1000
0100
0001
0100
0000
,
1000
0000
0001
0010
0001
1000
0100
1000
,
0010
0100
0001
0010
0001
1000
0100
0000
,
1000
0000
0010
0100
0001
0010
0001
1000
,
0100
1000
0010
0100
0001
0010
0001
0000
,
1000
0000
1M10
0000
0001
0100
0000
0001
,
0000
0100
0000
M1M1
0000
0000
0000
0000
,
0001
0000
10M1
0000
1000
0100
0000
1000
,
0000
0010
0000
1000
1MM1
0000
0000
0000
,
0001
0000
M011
0000
0100
1000
0000
0010
,
0000
0100
0000
M11M
0000
0000
0000
0000
,
0010
0000
011M
0000
0100
0001
0000
0010
,
0000
0100
0000
1000
11MM
0000
0000
0000
,
1000
0100
0010
0001
0010
0001
0100
0010
,
1000
0100
1000
0010
0100
0001
1001
0000
,
0001
0100
0001
0100
0010
1000
0010
1000
,
0100
0010
0001
0010
0100
1000
1001
0000
,
0010
0001
0100
0010
1000
0100
0010
0001
,
0100
0010
1000
0100
0010
0001
1001
0000
,
1000
0100
0010
0001
0010
1000
0010
0001
,
0100
1000
0100
0001
1000
0001
1001
0000
,
2MM2
0000
0000
0000
3003
MMMM
1000
0001
,
1000
0002
0000
0023
0000
0032
0000
0203
,
0000
0310
1000
0100
1100
0000
1000
0010
,
0100
0002
0000
0023
0000
0032
0000
0203
,
0000
0310
1000
0010
1010
0000
1010
0000
,
1000
0020
0000
0230
0000
0302
0000
0023
,
0000
0031
0100
0010
0110
0000
0100
0001
,
0010
0002
0000
0203
0000
0320
0000
2030
,
0000
3100
0010
0001
1001
0000
1001
0000
,
M00M
1100
MM00
0001
,
1000
1001
M00M
0011
,
00MM
1100
MM00
1000
,
0010
1010
M0M0
0110
,
0MM0
1001
M00M
1000
,
0100
0011
00MM
0101
,
0M0M
1010
M0M0
0010
,
0100
1MM1
M11M
1MM1
,
1000
0100
0010
0001
0010
0100
1000
0010
,
0001
0010
1000
0001
1001
0000
1010
0000
,
0010
1000
0010
0001
0010
1000
0100
0001
,
0100
1000
0010
0100
0101
0000
0011
0000
,
0010
0001
0010
1000
0010
0001
0100
1000
,
0100
0001
0100
1000
0101
0000
0110
0000
,
0010
1000
0100
0010
0001
0100
0010
1000
,
0001
0010
0100
1000
0001
1000
1001
0000
,
1000
0100
0010
0001
0100
0010
1000
0010
,
0100
0001
0010
0001
0011
0000
0101
0000
,
0001
0100
0010
1000
0001
1000
0M10
0000
,
0001
0M10
0000
1000
0M10
0000
0110
0000
,
0010
1000
0100
0010
0001
0010
0100
1000
,
0010
0001
0010
1000
1001
0000
1100
0000
,
1000
0100
0010
0001
1000
0001
10M0
0000
,
0100
00M1
0000
0100
10M0
0000
0M02
0000
,
0000
M023
0000
0000
0M32
0000
0000
0203
,
M000
0000
0320
0000
203M
0000
3020
0M00
,
0000
0230
0000
M000
0320
0000
1030
000M
,
0100
10M0
0000
100M
0100
00M0
2000
000M
,
0000
3020
0M00
0000
0230
000M
0000
0302
,
M000
0000
0023
0M00
0032
0000
M023
0000
,
0000
0M32
0000
M000
0203
0000
0310
000M
,
1000
0010
0M00
0010
100M
0000
2MM2
0000
,
3003
0000
0000
0000
;

//---------------dance-single - TRICKY----------------
#NOTES:
     dance-single:
     TRICKY:
     Medium:
     6:
     0.362,0.399,0.080,0.223,0.000:
0000
0000
0000
0000
,
0000
0000
0000
0000
,
0000
0000
0000
0000
,
0000
0000
0000
0000
,
1000
0100
1000
0001
,
0010
0001
0100
0010
,
1000
0100
0001
1000
,
0010
0000
0000
0001
0000
0000
1000
0000
,
0001
0100
0001
0100
,
0010
1000
0010
1000
,
0010
0100
0010
0100
,
0001
1000
0001
1000
,
M002
0000
0000
0000
,
1003
0000
M00M
0000
,
0001
0010
0100
1000
,
0010
0100
0001
1000
,
0001
0010
1000
0010
,
0001
1000
0010
0100
,
0M20
0000
0000
0000
,
0130
0000
0000
0000
0000
00M0
0000
0000
,
M002
0000
0000
0000
,
1003
0000
0000
0000
0000
000M
0000
0000
,
M200
0000
0000
0000
,
1300
0000
0000
0000
0000
M000
0000
0000
,
0002
0000
0000
0000
,
2MM0
0000
0000
0000
0000
0000
0000
3003
,
0001
0010
0100
0010
,
0001
1000
0100
0010
,
0100
1000
0010
0001
,
0010
1000
0100
0010
,
0001
0010
0100
0010
,
0001
1000
0001
0100
,
1000
0010
0001
0010
,
1000
0001
1000
0100
,
2000
0000
0000
0000
3010
0000
0000
1000
,
0000
0M10
0000
1000
0000
0000
0000
0000
,
0002
0000
0000
0000
0103
0000
0000
0001
,
0000
01M0
0000
0001
1000
0000
0000
0000
,
2000
0000
0000
0000
3001
0000
0000
0100
,
0000
M010
0000
1000
0000
0000
0000
0000
,
0002
0000
0000
0000
1003
0000
0000
0100
,
0000
10M0
0000
0100
0010
0000
0000
0000
,
0001
0010
0100
1000
,
0010
0000
0100
0000
0001
1000
0001
0000
,
1000
0100
0010
0001
,
0100
0000
0010
0000
1000
0100
1000
0000
,
0010
0100
0001
0010
,
0001
0000
0100
0000
0010
1000
0010
0000
,
1000
0010
0001
0010
,
1000
0000
0100
0000
0010
0001
0010
0000
,
MM22
0000
0033
0002
,
0000
1000
0000
M100
0000
1M00
0000
M100
,
0003
1000
0001
1000
0010
0000
0020
0000
,
0000
0100
0000
0M01
0000
010M
0000
0M01
,
0030
0100
0010
0100
0001
0000
2000
0000
,
0000
0001
0000
010M
0000
0M01
0000
010M
,
3000
0001
1000
0001
1000
0000
0200
0000
,
0000
001M
0000
00M1
0000
001M
0000
0001
,
0300
0010
0100
0010
0100
0000
M011
0000
,
0000
0M11
0000
0001
,
001M
0001
0000
110M
,
0000
11M0
0000
1000
,
M100
1000
0000
0M11
,
0000
11M0
0000
0001
,
100M
0001
0000
1M10
,
0000
01M1
0000
0100
,
0M10
0100
0000
0001
,
0010
0001
0100
0010
,
1000
0100
1000
0010
,
0001
0010
1000
0100
,
0001
0100
1000
0001
,
0010
0100
0010
0001
,
1000
0100
0010
0100
,
1000
0001
1000
0010
,
0100
0000
0010
1000
0001
0000
1000
0000
,
0010
0100
0001
0010
,
0001
0000
0100
0001
0100
0000
0001
0000
,
1000
0100
1000
0010
,
0000
0001
0000
0000
0010
0000
1000
0000
,
0100
0010
0001
1000
,
0100
0000
1000
0010
1000
0000
0010
0000
,
0100
0001
0010
1000
,
0000
0010
0000
0000
0001
0000
2000
0000
,
00M0
0000
0000
0000
3002
0M00
0000
0000
,
0000
00M0
2003
0000
0000
000M
3020
0000
,
0000
M000
0000
0000
0230
000M
0000
0000
,
0000
00M0
0000
0000
0000
000M
0320
0000
,
0000
M000
0000
0000
0230
000M
0000
0000
,
M000
0302
00M0
2003
,
0M00
0000
0000
0000
320M
0000
0000
M000
,
0000
0300
0000
2MM2
,
3003
0000
0000
0000
;

//---------------dance-single - BASIC----------------
#NOTES:
     dance-single:
     BASIC:
     Easy:
     3:
     0.218,0.254,0.112,0.032,0.000:
0000
0000
0000
0000
,
0000
0000
0000
0000
,
0000
0000
0000
0000
,
0000
0000
0000
0000
,
1000
0000
1000
0000
,
0001
0000
0001
0000
,
1000
0000
0001
0000
,
0100
0010
0100
0000
,
0001
0000
0010
0000
,
0100
0000
1000
0000
,
0010
0000
0100
0000
,
0001
0000
1000
0000
,
0001
0000
0000
0000
,
1001
0000
0000
0000
,
1000
0000
0100
0000
,
0010
0000
0001
0000
,
1000
0000
0010
0000
,
1000
0000
0001
0000
,
10M0
0000
0000
0000
,
1010
0000
0000
0000
,
0M01
0000
0000
0000
,
0101
0000
0000
0000
,
100M
0000
0000
0000
,
1010
0000
0000
0000
,
M001
0000
0000
0000
,
0101
0000
0000
0000
,
1000
0000
1000
0000
,
0001
0000
0001
0001
,
0001
0000
0100
0000
,
0100
0000
0010
0010
,
0010
0000
1000
0000
,
0100
0000
0010
0010
,
0010
0000
0001
0000
,
1000
0000
0001
0001
,
0001
0000
0001
0000
,
0001
0001
0001
0000
,
1000
0000
1000
0000
,
1000
1000
1000
0000
,
0010
0000
0100
0000
,
0010
0100
0010
0000
,
1000
0000
0100
0000
,
1000
0100
1000
0000
,
0010
0000
0100
0000
,
0001
0000
0010
0100
,
1000
0000
0010
0000
,
0100
0000
0001
1000
,
0001
0000
1000
0000
,
0100
0000
1000
0010
,
0100
0000
0001
0000
,
0010
0000
0100
1000
,
00M1
0000
0000
1000
,
0000
1000
0000
1000
,
0000
0001
1000
0001
,
0000
0001
0000
0001
,
0000
0001
1000
0010
,
0000
0010
0000
0010
,
0000
0100
0010
0100
,
0000
0100
0000
0100
,
0000
0100
0001
10M0
,
0000
0000
0000
1M01
,
0000
0000
0000
0M10
,
0000
0000
0000
M110
,
0000
0000
0000
M001
,
0000
0001
0000
0001
,
0100
01M1
0000
100M
,
0000
0010
0000
1000
,
0010
1M10
0000
1000
,
0000
0010
0000
1000
,
0000
0010
1000
0010
,
0000
0100
0000
0010
,
0000
0100
0010
0100
,
0000
0001
0000
0100
,
0000
0001
0100
0001
,
0000
1000
0000
0001
,
0000
1000
0001
1000
,
0000
0100
0000
0010
,
0000
0001
0000
1000
,
0000
0010
0000
0200
,
0000
0000
0000
0310
,
0000
1000
0000
0100
,
0000
0010
0000
0001
,
0000
1000
0000
0002
,
0000
0000
0000
1003
,
0000
0000
0000
1M01
,
0000
0000
0000
0001
,
0000
0000
0000
011M
,
0000
0000
0000
0001
,
0000
0000
0000
M011
,
0000
0000
0000
0100
,
0000
0000
0000
110M
,
0000
0000
0000
2M02
,
3003
0000
0000
0000
;

//---------------dance-single - SIMPLE----------------
#NOTES:
     dance-single:
     SIMPLE:
     Beginner:
     1:
     0.080,0.145,0.048,0.000,0.000: // measure 1
0000
0000
0000
0000
,  // measure 2
0000
0000
0000
0000
,  // measure 3
0000
0000
0000
0000
,  // measure 4
0000
0000
0000
0000
,  // measure 5
1000
0000
0000
0000
,  // measure 6
0001
0000
0000
0000
,  // measure 7
0100
0000
0000
0000
,  // measure 8
0010
0000
0000
0000
,  // measure 9
1000
0000
0000
0000
,  // measure 10
0000
0000
0000
0000
,  // measure 11
0001
0000
0000
0000
,  // measure 12
0000
0000
0000
0000
,  // measure 13
1001
0000
0000
0000
,  // measure 14
0000
0000
0000
0000
,  // measure 15
0001
0000
0000
0000
,  // measure 16
0100
0000
0000
0000
,  // measure 17
0010
0000
0000
0000
,  // measure 18
1000
0000
0000
0000
,  // measure 19
1001
0000
0000
0000
,  // measure 20
0000
0000
0000
0000
,  // measure 21
0110
0000
0000
0000
,  // measure 22
0000
0000
0000
0000
,  // measure 23
0011
0000
0000
0000
,  // measure 24
0000
0000
0000
0000
,  // measure 25
1100
0000
0000
0000
,  // measure 26
0000
0000
0000
0000
,  // measure 27
1000
0000
0000
0000
,  // measure 28
0100
0000
0000
0000
,  // measure 29
0010
0000
0000
0000
,  // measure 30
0001
0000
0000
0000
,  // measure 31
1000
0000
0000
0000
,  // measure 32
0010
0000
0000
0000
,  // measure 33
0100
0000
0000
0000
,  // measure 34
0001
0000
0000
0000
,  // measure 35
1000
0000
0000
0000
,  // measure 36
0000
0000
0000
0000
,  // measure 37
0010
0000
0000
0000
,  // measure 38
0000
0000
0000
0000
,  // measure 39
0100
0000
0000
0000
,  // measure 40
0000
0000
0000
0000
,  // measure 41
0001
0000
0000
0000
,  // measure 42
0000
0000
0000
0000
,  // measure 43
1000
0000
0000
0000
,  // measure 44
0100
0000
0000
0000
,  // measure 45
1000
0000
0000
0000
,  // measure 46
0100
0000
0000
0000
,  // measure 47
0010
0000
0000
0000
,  // measure 48
0001
0000
0000
0000
,  // measure 49
0010
0000
0000
0000
,  // measure 50
0001
0000
0000
0000
,  // measure 51
0000
0000
0000
0001
,  // measure 52
0000
0000
0000
0000
,  // measure 53
0000
0000
0000
1000
,  // measure 54
0000
0000
0000
0000
,  // measure 55
0000
0000
0000
0010
,  // measure 56
0000
0000
0000
0000
,  // measure 57
0000
0000
0000
0100
,  // measure 58
0000
0000
0000
0000
,  // measure 59
0000
0000
0000
0010
,  // measure 60
0000
0000
0000
0010
,  // measure 61
0000
0000
0000
0100
,  // measure 62
0000
0000
0000
0100
,  // measure 63
0000
0000
0000
0001
,  // measure 64
0000
0000
0000
0001
,  // measure 65
0000
0000
0000
1000
,  // measure 66
0000
0000
0000
1000
,  // measure 67
0000
0000
0000
0001
,  // measure 68
0000
0000
0000
0000
,  // measure 69
0000
0000
0000
0010
,  // measure 70
0000
0000
0000
0000
,  // measure 71
0000
0000
0000
0100
,  // measure 72
0000
0000
0000
0000
,  // measure 73
0000
0000
0000
1000
,  // measure 74
0000
0000
0000
0000
,  // measure 75
0000
0000
0000
0001
,  // measure 76
0000
0000
0000
0100
,  // measure 77
0000
0000
0000
0001
,  // measure 78
0000
0000
0000
0000
,  // measure 79
0000
0000
0000
1000
,  // measure 80
0000
0000
0000
0100
,  // measure 81
0000
0000
0000
1000
,  // measure 82
0000
0000
0000
0000
,  // measure 83
0000
0000
0000
1000
,  // measure 84
0000
0000
0000
0100
,  // measure 85
0000
0000
0000
1000
,  // measure 86
0000
0000
0000
0000
,  // measure 87
0000
0000
0000
0001
,  // measure 88
0000
0000
0000
0100
,  // measure 89
0000
0000
0000
0001
,  // measure 90
0000
0000
0000
0000
,  // measure 91
0000
0000
0000
1001
;
