#TITLE:Crystal Flash;
#SUBTITLE:[Super Metroid Megamix];
#ARTIST:Virt;
#TITLETRANSLIT:;
#SUBTITLETRANSLIT:;
#ARTISTTRANSLIT:;
#CREDIT:;
#BANNER:cflash.png;
#BACKGROUND:black.png;
#LYRICSPATH:;
#CDTITLE:!hiryuu.png;
#MUSIC:cflash.ogg;
#OFFSET:0.000;
#SAMPLESTART:80.709;
#SAMPLELENGTH:25.077;
#SELECTABLE:YES;
#DISPLAYBPM:*;
#BPMS:0.000=98.440,87.000=115.000,392.000=106.600,476.000=160.100,662.000=119.900,738.000=113.300,771.000=169.880,869.000=150.000,869.500=135.000,870.000=120.000,870.500=105.000,871.000=95.000,871.500=85.000,872.000=78.000,872.500=75.000,873.000=74.000,873.500=73.000,1044.000=145.980,1420.000=112.000,2002.000=49.000,2029.000=150.000,2192.000=175.000,2340.000=66.700,2352.000=132.400,2353.000=149.800,2363.000=100.000,2363.500=95.000,2364.000=90.000,2380.000=137.000,2396.000=139.020,2612.000=190.000;
#STOPS:2352.000=2.266;
#BGCHANGES:0.000=/img/1-0.png=1.000=1=0=0,
2.000=/img/1-1.png=1.000=1=0=0,
36.000=/img/1-2.png=1.000=1=0=0,
72.000=/img/1-3.png=1.000=1=0=0,
87.000=/img/2A.png=1.000=0=0=0,
87.250=/img/2-0.png=1.000=1=0=0,
91.000=/img/2-1.png=1.000=1=0=0,
109.000=/img/2-2.png=1.000=1=0=0,
172.000=/img/2-3.png=1.000=1=0=0,
220.000=/img/2-4.png=1.000=1=0=0,
276.750=/img/3A.png=1.000=0=0=0,
277.000=/img/3-1.png=1.000=1=0=0,
378.750=/img/4A.png=1.000=0=0=0,
379.000=/img/4-0.png=1.000=1=0=0,
392.000=/img/4-1.png=1.000=1=0=0,
434.667=/img/4-2.png=1.000=1=0=0,
475.750=/img/5A.png=1.000=0=0=0,
476.000=/img/5-1.png=1.000=1=0=0,
542.000=/img/5-2.png=1.000=1=0=0,
661.750=/img/6A.png=1.000=0=0=0,
662.000=/img/6-1.png=1.000=1=0=0,
722.000=/img/6-2.png=1.000=1=0=0,
731.750=/img/7A.png=1.000=0=0=0,
732.000=/img/7-0.png=1.000=1=0=0,
741.000=/img/7-1.png=1.000=1=0=0,
868.750=/img/8A.png=1.000=0=0=0,
869.000=/img/8-0.png=1.000=1=0=0,
877.000=/img/8-1.png=1.000=1=0=0,
923.000=/img/8-2.png=1.000=1=0=0,
995.750=/img/9A.png=1.000=0=0=0,
996.000=/img/9-1.png=1.000=1=0=0,
1044.000=/img/9-2.png=1.000=1=0=0,
1090.750=/img/10A.png=1.000=0=0=0,
1091.000=/img/10-1.png=1.000=1=0=0,
1136.000=/img/10-2.png=1.000=1=0=0,
1215.750=/img/11A.png=1.000=0=0=0,
1216.000=/img/11-1.png=1.000=1=0=0,
1344.000=/img/11-2.png=1.000=1=0=0,
1419.750=/img/12A.png=1.000=0=0=0,
1420.000=/img/12-1.png=1.000=1=0=0,
1506.500=/img/12-2.png=1.000=1=0=0,
1512.000=/img/13A.png=1.000=0=0=0,
1513.000=/img/13-1.png=1.000=1=0=0,
1589.000=/img/13A.png=1.000=1=0=0,
1592.750=/img/14A.png=1.000=0=0=0,
1593.000=/img/14-1.png=1.000=1=0=0,
1657.000=/img/14-2.png=1.000=1=0=0,
1784.750=/img/15A.png=1.000=0=0=0,
1785.000=/img/15-1.png=1.000=1=0=0,
1865.000=/img/15-2.png=1.000=1=0=0,
1998.250=/img/16A.png=1.000=0=0=0,
1998.500=/img/16-0.png=1.000=1=0=0,
2002.000=/img/16-1.png=1.000=1=0=0,
2028.750=/img/17A.png=1.000=0=0=0,
2029.000=/img/17-0.png=1.000=1=0=0,
2042.000=/img/17-1.png=1.000=1=0=0,
2076.000=/img/17-2.png=1.000=1=0=0,
2124.000=/img/17-3.png=1.000=1=0=0,
2186.000=/img/18A.png=1.000=0=0=0,
2192.000=/img/18-1.png=1.000=1=0=0,
2294.000=/img/18-2.png=1.000=1=0=0,
2339.750=/img/19A.png=1.000=0=0=0,
2340.000=/img/19-1.png=1.000=1=0=0,
2346.000=/img/19-2.png=1.000=1=0=0,
2353.000=/img/19-3.png=1.000=1=0=0,
2370.000=/img/19-4.png=1.000=1=0=0,
2379.750=/img/20A.png=1.000=0=0=0,
2380.000=/img/20-1.png=1.000=1=0=0,
2392.000=/img/20-X.png=1.000=1=0=0,
2396.000=/img/20-2.png=1.000=1=0=0,
2400.000=/img/20-2-1.png=1.000=1=0=0,
2408.000=/img/20-2.png=1.000=1=0=0,
2412.000=/img/20-2-2.png=1.000=1=0=0,
2420.000=/img/20-X.png=1.000=1=0=0,
2424.000=/img/20-3.png=1.000=1=0=0,
2428.000=/img/20-3-1.png=1.000=1=0=0,
2436.000=/img/20-3.png=1.000=1=0=0,
2440.000=/img/20-3-2.png=1.000=1=0=0,
2448.000=/img/20-3.png=1.000=1=0=0,
2452.000=/img/20-3-3.png=1.000=1=0=0,
2460.000=/img/20-X.png=1.000=1=0=0,
2464.000=/img/20-4.png=1.000=1=0=0,
2468.000=/img/20-4-1.png=1.000=1=0=0,
2476.000=/img/20-4.png=1.000=1=0=0,
2480.000=/img/20-4-2.png=1.000=1=0=0,
2488.000=/img/20-X.png=1.000=1=0=0,
2492.000=/img/20-5.png=1.000=1=0=0,
2496.000=/img/20-5-1.png=1.000=1=0=0,
2504.000=/img/20-5-2.png=1.000=1=0=0,
2512.000=/img/20-5-3.png=1.000=1=0=0,
2520.000=/img/20-5-4.png=1.000=1=0=0,
2528.000=/img/20-5-5.png=1.000=1=0=0,
2536.000=/img/20-5-6.png=1.000=1=0=0,
2544.000=/img/20-5-A7.png=1.000=1=0=0,
2546.000=/img/20-5-7.png=1.000=1=0=0,
2554.000=/img/20-5-A7.png=1.000=1=0=0,
2558.000=/img/20-5-8.png=1.000=1=0=0,
2566.000=/img/20-5-A7.png=1.000=1=0=0,
2570.000=/img/20-5-9.png=1.000=1=0=0,
2578.000=/img/black.png=1.000=1=0=0,
2594.000=/img/20-6-1.png=1.000=1=0=0,
2606.000=/img/20-6-2.png=1.000=1=0=0,
2628.000=black.png=1.000=1=0=0,
99999=-nosongbg-=1.000=0=0=0 // don't automatically add -songbackground-
;

//---------------dance-single - MANIAC----------------
#NOTES:
     dance-single:
     MANIAC:
     Hard:
     11:
     0.518,0.901,0.242,0.238,0.448: // measure 1
0000
0000
0000
0000
,  // measure 2
0000
0000
0000
2000
0000
0000
0000
0000
,  // measure 3
0002
0000
0000
3000
0000
0000
0000
0000
,  // measure 4
0003
0000
0000
0000
,  // measure 5
0000
0000
0000
0000
,  // measure 6
0000
0000
0000
2000
0000
0000
0000
0000
,  // measure 7
0000
0002
0000
0000
3000
0000
0003
0000
,  // measure 8
0000
0000
0000
0000
,  // measure 9
0000
0000
0000
0000
,  // measure 10
0000
0000
0000
0200
0000
0000
0000
0000
,  // measure 11
0000
0000
0000
0020
0000
0300
0000
0000
,  // measure 12
0030
0000
0000
0000
,  // measure 13
0000
0200
0000
0000
0000
0002
0000
0300
,  // measure 14
0000
0003
0000
0000
,  // measure 15
0000
0000
0000
0020
0000
0000
0000
0200
,  // measure 16
0000
0030
0300
0000
,  // measure 17
0000
0000
0000
0020
0000
0000
0000
0002
,  // measure 18
0000
0030
0000
0003
0000
0000
0000
0000
,  // measure 19
0000
0000
0000
0000
0000
0200
0000
0000
,  // measure 20
0000
0020
0000
0300
0000
0030
0000
0000
,  // measure 21
0000
0000
0000
0000
0000
0200
0000
0000
,  // measure 22
0000
0000
0000
0000
0020
0000
0000
0300
,  // measure 23
0000
0000
0030
0000
,  // measure 24
1000
0100
1000
0100
0010
0001
0010
0001
0100
0010
0100
0010
1000
0001
1000
0001
,  // measure 25
1000
0100
1000
0100
0010
0001
0010
0001
0100
0010
0100
0010
1000
0001
1000
0001
,  // measure 26
0010
0001
0010
0001
1000
0100
1000
0100
1000
0010
1000
0010
0100
0001
0100
0001
,  // measure 27
0010
0001
0010
0001
1000
0100
1000
0100
0010
1000
0010
1000
0001
0100
0001
0100
,  // measure 28
1001
0000
0001
0010
0001
0010
0001
0010
,  // measure 29
0000
0000
1000
0010
1000
0010
1000
0010
,  // measure 30
0000
0000
0010
0001
0010
0001
0010
0001
,  // measure 31
0000
0000
0100
1000
0100
1000
0100
1000
,  // measure 32
0000
0000
0000
0000
0100
0010
0100
0010
0100
1000
0100
1000
0100
0010
0100
0010
,  // measure 33
0000
0000
0000
0000
1000
0001
1000
0001
1000
0010
1000
0010
1000
0001
1000
0001
,  // measure 34
0000
0000
0000
0000
0010
0001
0010
0001
0010
0100
0010
0100
0010
0001
0010
0001
,  // measure 35
0000
0000
0000
0000
1000
0001
1000
0001
1000
0100
1000
0100
1000
0001
1000
0001
,  // measure 36
1000
0000
0010
0100
0002
0000
0000
0000
0000
0000
1003
0000
0100
0000
1000
0000
,  // measure 37
0001
0000
0000
0001
2000
0000
0000
0000
0000
0000
0000
0000
0000
0000
0000
0000
,  // measure 38
3001
0000
0100
0010
2000
0000
0000
0000
0000
0000
3010
0000
0100
0000
0010
0000
,  // measure 39
1000
0000
0000
0001
2000
0000
0000
0000
0000
0000
0000
0000
0000
0000
0000
0000
,  // measure 40
3001
0100
0001
0100
0000
0000
0001
1000
0001
1000
0001
1000
0001
1000
0001
1000
0000
0000
0100
1000
0100
1000
0100
1000
,  // measure 41
0100
0000
1000
0000
0100
0000
1000
0000
0000
0000
0000
0000
0010
0000
1000
0000
0010
0000
1000
0000
0010
0000
1000
0000
0010
0000
0000
1000
0000
0000
0001
0000
0000
0100
0000
0000
0001
0000
0000
1000
0000
0000
0010
0000
0000
0100
0000
0000
,  // measure 42
0002
0000
0000
0000
0000
0000
0000
0000
0000
0000
0000
0000
2000
0000
0000
0003
0000
0000
0001
0000
0001
3000
0001
0000
,  // measure 43
2002
0000
0000
3000
0000
0000
1000
0000
1000
0003
1000
0000
0001
0000
0010
0000
0100
0000
1000
0000
0100
0000
0010
0000
,  // measure 44
0002
0000
1003
1001
0000
0001
0010
0100
,  // measure 45
1000
0000
0000
0000
1000
0100
1000
0010
1000
0002
0000
0000
0103
0000
0101
0000
,  // measure 46
2001
0000
0000
0000
3010
0000
0110
0000
0000
0000
0100
0010
0100
0001
0100
0010
,  // measure 47
0100
0000
0000
1000
0000
0000
0100
0000
0000
0010
0000
0000
0100
0000
0000
0001
0000
0000
0100
0000
0000
0010
0000
0000
1000
0000
0001
0000
1000
0000
0001
0000
0000
0000
0000
0000
0001
0000
0000
0020
0000
0000
0000
0000
0000
0000
0000
0000
,  // measure 48
0031
0000
0010
0100
2000
0000
0000
0000
0000
0000
3010
0000
0100
0001
0010
0100
,  // measure 49
0010
0000
0000
0010
0200
0000
0000
0000
0000
0000
0000
0000
1300
0010
0100
0001
,  // measure 50
1000
0000
0001
1000
0020
0000
0000
0000
0000
0000
0130
0001
1000
0000
0010
0000
,  // measure 51
0110
0000
0000
0000
2002
0000
0000
0000
0000
0000
0000
3000
1003
0100
0010
0001
,  // measure 52
1001
0101
1001
1010
,  // measure 53
0110
0011
0110
1010
,  // measure 54
2002
0000
0000
3003
0220
0000
0000
0330
,  // measure 55
2002
0000
0000
0000
0000
0000
0000
0000
0000
0003
0000
0000
3001
0000
0010
0000
0001
0000
0100
0000
0010
0000
1000
0000
,  // measure 56
0100
0000
1000
0100
1000
0000
1001
0000
0000
0000
0001
0000
0010
0000
0001
0000
,  // measure 57
0100
0000
0010
0100
0010
0000
1010
0000
0000
0000
0010
0000
1000
0001
1000
0001
,  // measure 58
0100
0000
0010
0100
0010
0000
0110
0000
0000
0000
0010
0000
1000
0001
1000
0001
,  // measure 59
0100
0000
0001
0100
0001
0000
0011
0000
0000
0000
0100
0000
0010
0200
0000
0000
,  // measure 60
0310
0000
0001
0000
0010
0000
0001
0000
0000
0000
0000
0000
0010
0000
0000
0000
0000
0000
0001
0000
0000
0000
0000
0000
0100
0000
0000
0000
0000
0000
0010
0000
0000
1000
0000
0000
0010
0000
0000
0000
0000
0000
1000
0000
0000
0001
0000
0000
,  // measure 61
1000
0000
0000
0100
0000
0000
1000
0000
0000
0010
0000
0000
0100
0010
0100
0010
0000
0000
0100
0000
0000
0001
1000
0001
,  // measure 62
1000
0000
0000
0001
0000
0000
0010
0001
0010
0001
0000
0000
1000
0000
0010
0000
0100
0000
0001
0000
0010
0000
0100
0000
,  // measure 63
1000
0000
0010
0000
1000
0000
0010
0000
0000
0000
0000
0000
1000
0000
0000
0000
0000
0000
0100
0000
0000
0000
0000
0000
0010
0000
0000
0000
0000
0000
0001
0000
0000
0100
0000
0000
0001
0000
0000
0000
0000
0000
1000
0000
0000
0000
0000
0000
,  // measure 64
0101
0010
1100
0010
0101
0010
1100
0010
,  // measure 65
1001
0000
0010
0000
0001
0010
0001
0100
0001
1000
0001
0100
0001
0010
0001
0100
,  // measure 66
0001
1000
0001
0100
0001
0010
0001
0001
1000
0100
1000
0010
1000
0001
1000
0010
,  // measure 67
1000
0100
1000
0010
1000
0001
1000
0010
1000
0100
1000
1000
0010
0100
0010
1000
,  // measure 68
0010
0100
0010
0001
0010
0100
0010
1000
0010
0100
0010
0001
0010
0100
0010
0010
,  // measure 69
0100
0001
0100
0010
0100
1000
0100
0010
0100
0001
0100
0010
0100
1000
0100
0010
,  // measure 70
0100
0001
0100
0100
1001
0000
0000
1001
0000
0000
0001
0000
1000
0000
0110
0000
,  // measure 71
0000
0110
0000
0000
0010
0000
0100
0000
0011
0000
0000
0011
0000
0000
0001
0000
,  // measure 72
0100
0000
1010
0000
0000
1010
0000
0000
1000
0000
0100
0000
0010
0001
1000
0002
,  // measure 73
00M0
0000
0000
0000
0103
0010
1000
0200
000M
0000
0000
0000
1300
0001
0020
0000
,  // measure 74
M000
0000
0000
0000
0031
0000
0000
0011
0M00
0000
1001
0000
1000
0001
0000
0000
,  // measure 75
0011
0000
0011
0000
0101
0000
0001
0100
0000
0100
0110
0000
0110
0000
1010
0000
,  // measure 76
0010
1000
0000
0000
1100
0000
1100
0000
1001
0000
1000
0001
0000
0001
0011
0000
,  // measure 77
1100
0000
1001
0000
2001
0000
0000
0000
0000
0000
3100
0010
0001
0100
0010
0000
,  // measure 78
0200
0000
0000
0000
0300
0000
0010
0100
0001
1000
0010
0100
0001
0010
0100
1000
,  // measure 79
0100
0000
0000
0010
0000
0000
0001
0000
0000
0100
0000
0000
0010
0000
0000
1000
0000
0000
0100
0000
0000
0010
0000
0000
0001
0000
0000
1000
0000
0000
0002
0000
0000
0000
0000
0000
0M00
0000
0000
0000
0000
0000
0013
0000
0001
0000
0010
0000
,  // measure 80
0200
0000
0000
0000
0000
0000
0310
0000
0000
0002
0000
0000
00M0
0000
0000
0013
0001
0010
0200
0000
0000
0000
0000
0000
,  // measure 81
0310
0000
0000
0002
0000
0000
M000
0000
0000
0103
0010
0100
0002
0000
0000
0000
0000
0000
1003
0000
0000
2000
0000
0000
,  // measure 82
000M
0000
0000
0000
0000
0000
0000
0000
0000
0000
0000
0000
0000
0000
0000
0000
0000
0000
0000
0000
0000
0000
0000
0000
3010
0000
0000
0000
0000
0000
0000
0000
0100
0000
0000
0000
0000
0000
0000
0000
0010
0000
0000
0000
0000
0000
0000
0000
2000
0000
0000
0000
0000
0000
0000
0000
0000
0000
0000
0000
0000
0000
0000
0000
0000
0000
0000
0000
0000
0000
0000
0000
0000
0000
0000
0000
0000
0000
0000
0000
0000
0000
0000
0000
0000
0000
0000
0000
0000
0000
0000
0000
0000
0000
0000
0000
3001
0000
0000
0000
0000
0000
0010
0000
0000
0000
0000
0000
0001
0000
0000
0000
0000
0000
0010
0000
0000
0000
0000
0000
0100
0000
0000
0000
0000
0000
0000
0000
0000
0000
0000
0000
1000
0000
0000
0000
0000
0000
0000
0000
0000
0000
0000
0000
0010
0000
0000
0000
0000
0000
0000
0000
0000
0000
0000
0000
0100
0000
0000
0000
0000
0000
0000
0000
0000
0000
0000
0000
0001
0000
0000
0000
0000
0000
0000
0000
0000
0000
0000
0000
1000
0000
0000
0000
0000
0000
0000
0000
0000
0000
0000
0000
,  // measure 83
0100
0000
0000
0000
0000
0000
0000
0000
0000
0000
0000
0000
0010
0000
0000
0000
0000
0000
0000
0000
0000
0000
0000
0000
0001
0000
0000
0000
0000
0000
0010
0000
0000
0000
0000
0000
0001
0000
0000
0000
0000
0000
0010
0000
0000
0000
0000
0000
0100
0000
0000
0000
0000
0000
0000
0000
1000
0000
0000
0000
0000
0000
0000
0000
0001
0000
0000
0000
0000
0000
0000
0000
0010
0000
0000
0000
0000
0000
0000
0000
0100
0000
0000
0000
0000
0000
0000
0000
1000
0000
0000
0000
0000
0000
0000
0000
0001
0000
0000
0000
0000
0000
1000
0000
0000
0000
0000
0000
0001
0000
0000
0000
0000
0000
0000
0000
0000
0000
0000
0000
1000
0000
0000
0000
0000
0000
0001
0000
0000
0000
0000
0000
1000
0000
0000
0000
0000
0000
0000
0000
0000
0000
0000
0000
0001
0000
0000
0000
0000
0000
0000
0000
0000
0000
0000
0000
1000
0000
0000
0000
0000
0000
0000
0000
0000
0000
0000
0000
0100
0000
0000
0000
0000
0000
0000
0000
0000
0000
0000
0000
1000
0000
0000
0000
0000
0000
0000
0000
0000
0000
0000
0000
,  // measure 84
0010
0100
0001
0010
0001
1000
0001
0100
0001
0020
0000
0000
0000
0000
0031
1000
,  // measure 85
0100
0010
0001
0020
0000
0000
0031
1000
0001
1000
0001
0020
0000
0001
0032
0000
,  // measure 86
0203
0000
0000
0000
0000
0000
0000
0000
0000
0000
0000
0000
0320
0000
0000
0000
0000
0000
0000
0000
0000
0130
0000
0000
0010
0000
0000
1000
0000
0000
0001
0000
0000
0010
0000
0000
0002
0000
0000
0000
0000
0000
0000
0000
1003
0000
0100
0000
,  // measure 87
1000
0000
0010
0000
0100
0000
0001
0000
0010
0000
0001
0000
0100
0000
0010
0000
1000
0000
0100
0000
0000
1000
0000
0000
0200
0000
0000
0000
0000
0000
0300
0000
0000
1100
0000
0000
0000
0000
0000
0000
0000
0000
2000
0000
0000
0000
0000
0000
,  // measure 88
0000
0000
3001
0000
0010
0001
0000
0001
0100
0001
0100
0000
0010
0000
1000
0010
,  // measure 89
1000
0000
0000
0010
0000
0000
1000
0000
0000
0100
0000
0000
0000
0000
0000
0100
0000
0000
1000
0000
0000
0000
0000
0000
0001
0000
0000
0000
0000
0000
1000
0000
0001
0000
1000
0000
0001
0000
1000
0000
0001
0000
1000
0000
0000
0100
0000
0000
,  // measure 90
0010
0001
0000
1000
0100
1000
0000
0001
0010
0001
0010
0000
0011
0000
0001
0010
,  // measure 91
0100
0000
0000
1000
0000
0000
0000
0000
0000
0001
0000
0000
0010
0000
0000
0001
0000
0000
0000
0000
0000
1000
0000
0000
0100
0000
0000
1000
0000
0000
0010
0000
0100
0000
0010
0000
0100
0000
0000
0000
0000
0000
0010
0000
0100
0000
0010
0000
,  // measure 92
0100
0010
0100
0001
1000
0001
1000
0000
0000
0001
0000
0000
1000
0001
1000
0001
0000
0000
1001
0000
0000
0000
0000
0000
,  // measure 93
0000
0000
0000
0100
1000
0100
1000
0000
0000
0100
0000
0000
1000
0100
1000
0100
0000
0000
1100
0000
0000
0000
0000
0000
,  // measure 94
0000
0000
0000
0001
0010
0001
0010
0000
0000
0001
0000
0000
0010
0001
0010
0001
0000
0000
0011
0000
0000
0000
0000
0000
,  // measure 95
0000
0000
0000
0100
0001
0100
0001
0000
0000
0101
0000
0000
0010
1000
0010
1000
0000
0000
1020
0000
0000
0000
0000
0000
,  // measure 96
0000
0000
0000
0000
,  // measure 97
0000
0000
0000
0000
,  // measure 98
0000
0000
0000
0000
,  // measure 99
1000
1000
1000
1000
0000
0000
0100
0100
0100
0100
0000
0000
,  // measure 100
0000
0000
0000
0000
0001
0001
0001
0001
0000
0000
0100
0100
,  // measure 101
0100
0100
0000
0000
0000
0000
0000
0000
0100
0100
0100
0100
,  // measure 102
0000
0000
0001
0001
0001
0001
0000
0000
0000
0000
0000
0000
,  // measure 103
0100
0100
0100
0100
0000
0000
1000
1000
1000
1000
0030
0000
,  // measure 104
1001
0100
0010
0001
0010
0001
0010
0001
0000
0000
0100
0001
,  // measure 105
0100
0001
0000
0000
0000
0000
0010
0001
1000
0100
1000
0100
,  // measure 106
0000
0000
1000
0010
1000
0010
0000
0000
0000
0000
0100
0010
,  // measure 107
1000
0001
1000
0001
0000
0000
0100
0010
0100
0010
0000
0000
,  // measure 108
0000
0000
0010
1000
0010
0100
0010
0100
0000
0000
0001
1000
,  // measure 109
0001
0000
0000
0000
0000
0000
0000
0000
0000
0000
0000
0000
0000
0000
0000
0000
1000
0000
0000
0000
0000
0000
0000
0000
0000
0000
0000
0000
0000
0000
0000
0000
0000
0000
0000
0000
0000
0000
0000
0000
0000
0000
0000
0000
0000
0000
0000
0000
1000
0000
0000
0000
0000
0000
0001
0000
0000
0000
0000
0000
1000
0000
0000
0000
0000
0000
0001
0000
0000
0000
0000
0000
0000
0000
0000
0000
0000
0000
0000
0000
1000
0000
0000
0000
0000
0000
0000
0000
0000
0000
0000
0000
0000
0000
0000
0000
0100
0000
0000
0000
0000
0000
0000
0000
0000
0000
0000
0000
0000
0000
0000
0000
0010
0000
0000
0000
0000
0000
0000
0000
0000
0000
0000
0000
0000
0000
0000
0000
0001
0000
0000
0000
0000
0000
0000
0000
0000
0000
0000
0000
0000
0000
0000
0000
0010
0000
0000
0000
0000
0000
0000
0000
0000
0000
0000
0000
0000
0000
0000
0000
0001
0000
0000
0000
0000
0000
0000
0000
0000
0000
0000
0000
0000
0000
0000
0000
0100
0000
0000
0000
0000
0000
0000
0000
0000
0000
0000
0000
0000
0000
0000
0000
,  // measure 110
0001
1000
0001
0000
1000
0000
0001
0000
0000
0000
0000
0000
,  // measure 111
1000
0000
0010
0000
0001
0000
0010
0000
1000
0000
0100
0000
,  // measure 112
0000
0000
0000
0000
1000
0100
1000
0010
1000
0001
1000
0000
,  // measure 113
0001
0000
1000
0000
0000
0000
0000
0000
0001
0000
0010
0000
,  // measure 114
1000
0000
0010
0000
0001
0000
1000
0000
1001
0000
1001
0000
,  // measure 115
0001
0000
0000
0010
0001
0000
0000
0010
0001
0000
0010
0000
,  // measure 116
0110
0000
0000
0000
0000
0000
0000
0000
1000
0000
0000
0100
0000
1000
0000
0000
0100
0000
0000
0000
0000
0000
0000
0000
1000
0000
0000
0000
0000
0000
0000
0000
0010
0000
0000
0000
0000
0000
0000
0000
0001
0000
0000
0000
0000
0000
0000
0000
,  // measure 117
0010
0000
0000
0000
1000
0000
0000
0000
0010
0100
0010
0000
0100
0000
0100
0000
0010
0000
0000
0000
0000
0000
0100
0000
,  // measure 118
0010
0000
0000
0000
0000
0000
0000
0000
0000
0000
0000
0000
1000
0000
0000
0000
0100
0000
0000
0000
0000
0000
0000
0000
1000
0000
0000
0000
0000
0000
0000
0000
1100
0000
0000
0000
0000
0000
0000
0000
1000
0000
0000
0001
0000
1000
0000
0000
,  // measure 119
0001
0000
0000
0000
0000
0000
0000
0000
0000
0000
0000
0000
0000
0000
0000
0000
0000
0000
0000
0000
0000
0000
0000
0000
0000
0000
0000
0000
0000
0000
0000
0000
0010
0000
0000
0000
0000
0000
0000
0000
0000
0000
0000
0000
0000
0000
0000
0000
0000
0000
0000
0000
0000
0000
0000
0000
0000
0000
0000
0000
0000
0000
0000
0000
1000
0000
0000
0000
0000
0000
0000
0000
0000
0000
0000
0000
0000
0000
0000
0000
0000
0000
0000
0000
0000
0000
0000
0000
0000
0000
0000
0000
0000
0000
0000
0000
0010
0000
0000
0000
0000
0000
0000
0000
0000
0000
0000
0000
0000
0000
0000
0000
0000
0000
0000
0000
0000
0000
0000
0000
0000
0000
0000
0000
0000
0000
0000
0000
0001
0000
0000
0000
0000
0000
0000
0000
0000
0000
0000
0000
0000
0000
0000
0000
0000
0000
0000
0000
0000
0000
0000
0000
0000
0000
0000
0000
0000
0000
0000
0000
1000
0000
0000
0000
0000
0000
0000
0000
0000
0000
0000
0000
0001
0000
0000
0000
0000
0000
0000
0000
0000
0000
0000
1000
0000
0000
0000
0000
0000
0000
0000
0000
,  // measure 120
0002
0000
1000
0000
1003
0000
0000
0001
,  // measure 121
0100
0000
0000
1000
0100
0000
0001
0000
,  // measure 122
1000
0000
0000
0000
0000
0000
1000
0000
0100
0000
0010
0000
0001
0000
0000
0010
0000
0000
0001
0000
0000
0100
0000
0000
,  // measure 123
0010
1000
0100
0010
0001
0100
0010
1000
,  // measure 124
0001
0010
0100
1000
0001
0000
0000
0001
,  // measure 125
0100
0000
0000
0100
0010
0000
1000
0000
,  // measure 126
0010
0000
0000
0000
0000
0000
0100
0000
0010
0000
1000
0000
0001
0000
0000
0010
0000
0000
0100
0000
0000
1000
0000
0000
,  // measure 127
0010
0000
0100
0000
0001
0000
1000
0000
0100
0010
0100
0000
0010
0001
0010
0000
,  // measure 128
0001
1000
0001
0000
0010
0100
0010
0000
1000
0000
0000
0000
1000
0000
0001
0000
,  // measure 129
1000
0000
1000
0010
1000
0000
0100
0000
,  // measure 130
0010
0000
0000
0000
0000
0000
0001
0000
0010
0000
0001
0000
0010
0000
0000
0001
0000
0000
0100
0000
0000
0010
0000
0000
,  // measure 131
0100
0001
0010
0001
1000
0100
1000
0010
,  // measure 132
0100
0000
0001
0000
1000
0001
1000
0001
1000
0000
0000
0000
1000
0000
0100
0000
,  // measure 133
1000
0000
1000
0010
1000
0000
1000
0000
,  // measure 134
0001
0000
0000
0100
0010
0001
1000
0000
0000
0010
0100
0001
,  // measure 135
0010
0000
0000
0100
1000
0010
0100
0001
0010
0100
1000
0100
,  // measure 136
0010
0001
0100
0010
1000
0001
2000
0000
0000
3200
0000
0000
,  // measure 137
0320
0032
0203
0320
,  // measure 138
2030
3002
2003
3200
,  // measure 139
0320
0032
0203
0320
,  // measure 140
1030
0000
0100
0000
0010
0000
0002
0000
0000
0000
1000
0000
,  // measure 141
1000
0000
0000
0000
1000
0000
2003
0000
0000
3020
0000
0000
,  // measure 142
0230
0000
0000
0301
0010
0100
2000
0000
0000
0010
0000
0000
,  // measure 143
0100
0000
0000
3001
0000
0000
1000
0000
0100
0000
0010
0000
,  // measure 144
0001
0000
1000
0000
0100
0000
0010
0001
0100
0001
0100
0001
,  // measure 145
0010
0001
0100
0010
1000
0010
0100
1000
0100
1000
0010
0100
,  // measure 146
0001
0000
0000
1000
0000
0000
0001
0000
0000
1000
0000
0000
0001
0000
0000
0000
0010
0000
0000
0000
0100
0000
0000
0000
2000
0000
0000
0000
0000
0000
0000
0000
0000
0000
0000
0000
0020
0000
0000
0000
0000
0000
0000
0000
0000
0000
0000
0000
,  // measure 147
0000
0000
0000
3030
0000
0000
1000
0000
0010
0000
0100
0000
0010
0000
1000
0000
0010
0000
1000
0000
0100
0000
1000
0000
,  // measure 148
0001
0000
0100
0000
0001
0000
0010
0000
0001
0000
0100
0000
0001
0000
0000
0000
0000
0000
0000
0000
0000
0001
0000
0000
,  // measure 149
1000
0000
0000
1000
0001
0000
1001
0000
,  // measure 150
0110
0000
0011
0000
0101
0000
0000
0001
,  // measure 151
0100
0000
0000
0100
0010
0000
0110
0000
,  // measure 152
1000
0100
1000
0010
1000
0001
2000
0000
0000
3020
0000
0000
,  // measure 153
0230
0302
2003
3200
,  // measure 154
0320
0032
2003
3020
,  // measure 155
0230
0000
0000
0302
0000
0000
1003
0100
1000
0001
0010
0001
,  // measure 156
0100
0010
0100
0001
1000
0001
1000
0100
0010
0100
0010
0001
,  // measure 157
0010
0001
0100
0001
0100
0010
0100
0010
1000
0010
1000
0100
,  // measure 158
1000
0001
1000
0010
0100
0010
2000
0000
0000
3020
0000
0000
,  // measure 159
0230
0000
0000
0302
0000
0000
0023
0000
0000
0130
1000
0100
,  // measure 160
1000
0000
0000
0000
0001
0000
0000
0000
1000
0000
0000
0000
0010
0000
0000
0000
1000
0000
0000
0000
0010
0000
0000
0000
0100
0000
0000
0010
0000
0000
0100
0000
0000
0010
0000
0000
0100
0000
0000
0001
0000
0000
0100
0000
0000
0001
0000
0000
,  // measure 161
0100
0002
0000
0000
0000
0000
1003
0001
1000
0100
1000
0100
1000
0010
1000
0010
,  // measure 162
0100
0001
0100
0001
1000
0100
1000
0100
2000
0000
0000
0000
3100
1000
0100
1000
,  // measure 163
0100
0010
0200
0000
0000
0000
0310
0001
0020
0000
0000
0000
0031
0100
0002
0000
,  // measure 164
0000
0000
0000
0000
0000
0000
1003
0000
1000
0000
1000
0000
,  // measure 165
0001
0000
0001
0000
0001
0000
0100
0000
0100
0000
0100
0000
,  // measure 166
0010
0000
0000
0000
0010
0000
0000
0000
0010
0000
0000
0000
1000
0000
0000
1000
0000
0000
0000
0000
0000
1000
0000
0000
,  // measure 167
1000
0000
1000
1000
0000
1000
1000
0000
,  // measure 168
0001
0001
0000
0001
0001
0000
0001
0001
,  // measure 169
0000
0001
0001
0000
1000
0100
0010
0100
,  // measure 170
0010
0000
0001
0000
1000
0000
0001
1000
0000
0000
M002
0000
0000
0000
0003
0000
,  // measure 171
0000
0000
0000
0000
0000
0000
0000
0000
0001
0000
1000
0000
0100
0000
0010
0001
,  // measure 172
0000
0000
0000
0000
,  // measure 173
0000
0000
0000
0000
1000
0100
0010
0100
,  // measure 174
1000
0000
0001
0000
0010
0000
0100
0010
0000
0000
0000
0000
0000
0000
0000
0000
,  // measure 175
0000
0000
0000
0000
0000
0000
0000
0000
0001
0000
0100
0000
0010
0000
1000
0001
,  // measure 176
0000
0000
0000
0000
0000
0000
0000
0000
0000
0000
0000
0000
0000
0000
0000
0000
0000
0000
0000
0000
0000
1000
0001
1000
,  // measure 177
0001
0000
0000
0000
0000
0000
1000
0000
0001
0000
1000
0000
0001
0000
0000
1000
0000
0000
0001
0000
0000
0000
0000
0000
1000
0000
0000
0000
0000
0000
0100
0000
0000
0000
0000
0000
0010
0000
0000
0000
0000
0000
0100
0000
0000
0000
0000
0000
,  // measure 178
0010
0000
0001
0000
1000
0000
0001
1000
0001
0000
0000
0000
0000
0000
1000
0000
,  // measure 179
0001
0000
1000
0000
0000
0000
0000
0000
0001
0000
0010
0000
0100
0000
1000
0001
,  // measure 180
1000
0000
0000
0000
0000
0000
0010
0000
0100
0000
0000
0000
0000
0000
0001
0010
,  // measure 181
0001
0010
0000
0000
0100
1000
0010
0100
,  // measure 182
0001
0000
0010
0000
0100
0000
1000
0001
0000
0000
0000
0000
0000
0000
1000
0000
,  // measure 183
0001
0000
0000
0000
0000
0000
0000
0000
0001
0000
1000
0000
0001
0000
1000
0001
,  // measure 184
0000
0000
0000
0000
,  // measure 185
0000
0000
0000
0000
,  // measure 186
0000
0000
0000
1000
,  // measure 187
0001
0000
0000
1000
0000
0000
0001
0000
0000
1000
0000
0001
,  // measure 188
0100
0010
0100
0010
,  // measure 189
0100
0000
0010
1000
0000
0000
0100
0000
0000
1000
0000
0000
,  // measure 190
0100
0000
0000
1000
0000
0001
0010
0000
0000
0001
0000
0000
,  // measure 191
0010
0000
0000
0001
0000
0000
0010
0000
0001
1000
0001
0000
,  // measure 192
0000
1000
0001
0000
0000
1000
0000
0000
0010
0000
0000
0100
,  // measure 193
0000
0000
0001
0000
0000
0000
1000
0000
0100
0000
0010
0000
0001
0000
0010
0000
0100
0000
1000
0000
0000
0100
0000
0000
,  // measure 194
1000
0100
11M0
0000
0000
0001
0010
0001
,  // measure 195
0010
0001
0M11
0000
0000
0001
0010
0100
,  // measure 196
1000
0100
M011
0000
0000
0001
0100
0010
,  // measure 197
0001
0010
110M
0000
0000
0001
0010
0100
,  // measure 198
1000
0001
1MM1
0000
0000
0010
0100
0001
,  // measure 199
0010
0100
11MM
0000
0000
0100
0010
0001
,  // measure 200
1000
0010
M11M
0000
0000
0010
1000
0001
,  // measure 201
1000
0010
1000
0100
0010
0001
1100
0100
,  // measure 202
0010
0011
0001
1000
1001
0001
1000
1100
,  // measure 203
1000
0010
0110
0010
0110
0110
0010
0100
,  // measure 204
0101
0001
0010
0011
0010
0100
1100
1000
,  // measure 205
0010
1010
1000
1001
1001
0001
1000
0100
,  // measure 206
0010
0001
0010
0100
1000
0001
1000
0100
,  // measure 207
0010
0001
0010
0100
1000
0001
0010
0100
,  // measure 208
0010
0001
1000
0100
0010
0100
1000
0100
,  // measure 209
0010
0001
1001
0000
0110
0000
1001
0000
,  // measure 210
0000
0110
0000
1001
0000
0000
1001
0000
,  // measure 211
0110
2000
3000
2000
,  // measure 212
3000
2000
3000
2000
,  // measure 213
3002
0003
0002
0003
,  // measure 214
0002
0003
0002
0203
,  // measure 215
0300
0200
0300
0200
,  // measure 216
0300
0200
0320
0030
,  // measure 217
0020
0030
0020
0030
,  // measure 218
0020
2030
0000
0000
,  // measure 219
0000
0000
0000
0000
,  // measure 220
0000
3000
0000
1000
0010
1000
0001
1000
,  // measure 221
0010
0100
0001
0010
0001
0100
0001
0010
,  // measure 222
0001
0100
0001
1000
0001
0100
0001
1000
,  // measure 223
0100
1000
0010
1000
0100
1000
0001
0010
,  // measure 224
0100
0010
0001
1000
0001
1000
0100
0010
,  // measure 225
0100
1000
0001
1000
0100
1000
0001
0010
,  // measure 226
0100
0010
0001
1000
0001
1000
0100
0010
,  // measure 227
0100
1000
0001
0010
0001
0100
0001
0010
,  // measure 228
0100
0000
0000
0000
1000
0000
0000
0000
0010
0000
0000
0000
0100
0000
0000
0002
0003
0000
0000
0000
1000
0000
0000
0000
0100
0000
0000
0000
0010
0000
0000
0000
,  // measure 229
0001
0000
0000
0000
0100
0000
0000
0000
0010
0000
0000
0000
1000
0000
0000
0000
0000
0000
0002
0003
0000
0020
0030
0002
0003
0000
0000
2000
3000
0000
0000
0000
,  // measure 230
0001
0000
1000
0000
0100
1000
0100
0000
1000
0000
0100
0000
0010
0000
0001
0000
,  // measure 231
0010
0000
0000
0000
0000
0000
0001
0000
1000
0000
0001
0000
1000
0000
0000
0100
0000
0000
0010
0000
0001
0000
1000
0000
0001
0000
0010
0000
0100
0000
1000
0000
0000
0001
0000
0000
1000
0000
0000
0000
0000
0000
1000
0000
0000
0000
0000
0000
,  // measure 232
0001
0001
0100
0100
0010
0100
0010
0010
,  // measure 233
1000
0000
0000
1000
0000
0000
0001
0000
0000
0001
0000
0000
0010
0000
0200
0300
0020
0030
0000
0200
0300
0000
0000
0000
,  // measure 234
0010
0010
0001
0001
0010
0001
0010
0010
,  // measure 235
0001
0001
1000
1000
0010
1000
0010
0010
,  // measure 236
1000
1000
0001
0001
1000
1000
0010
0010
,  // measure 237
0100
0100
0001
0001
0100
0100
0001
0010
,  // measure 238
0001
0000
0000
0000
1000
0001
1000
0001
1000
0000
0100
1000
0100
1000
0000
0100
0000
1000
0000
0000
0100
0000
0010
0000
0001
0000
0000
0000
0000
2000
3000
0000
,  // measure 239
0000
0100
2000
0001
0100
0010
0100
3001
,  // measure 240
1000
0000
0001
0000
1000
0000
0010
0100
0010
1000
0010
0200
0000
0000
0310
0000
,  // measure 241
1000
0000
0100
0010
0001
0000
0010
0100
1000
0000
0100
0000
1000
0000
0010
0000
,  // measure 242
1000
0000
0100
0000
1000
0010
1000
0000
0010
0000
0100
0000
0001
0000
0010
0001
,  // measure 243
0010
0100
1000
0100
1000
0010
0100
0001
0010
0000
0001
0000
0010
0000
0001
0000
,  // measure 244
0010
0001
0100
0010
0100
0010
0100
0010
,  // measure 245
1000
0100
1000
0100
1000
0100
1000
0001
,  // measure 246
1000
0001
1000
0001
1000
0100
1000
0010
,  // measure 247
1000
0001
0010
0001
0100
0001
1000
0001
,  // measure 248
1000
0100
0010
0001
0100
0010
1000
0100
,  // measure 249
0010
0100
1000
0001
0010
0100
0010
0001
,  // measure 250
1000
0000
0001
0000
1000
0000
0001
1000
,  // measure 251
1001
0000
0001
0000
0100
0000
0001
0010
,  // measure 252
0011
0000
0001
0000
0010
0000
0100
1000
,  // measure 253
1100
0000
0100
0000
0010
0000
0001
1000
,  // measure 254
1001
0000
0001
0000
0100
0000
0010
0100
,  // measure 255
0110
0000
0000
0000
0010
0000
0000
0000
1000
0000
0000
0000
0100
1000
0100
1000
,  // measure 256
0100
1000
0100
1000
0100
1000
0000
0000
,  // measure 257
1100
0000
1000
0000
0100
0000
1000
0100
,  // measure 258
1100
0000
0000
0000
0000
0000
1000
0000
0000
0000
0000
0000
0001
0000
0000
0000
0000
0000
0100
0000
0000
0001
0100
0001
,  // measure 259
0100
0000
0000
0000
0001
0000
0000
0000
1000
0000
0000
0000
0001
0000
0000
0000
0010
0000
0000
0000
0001
0000
0000
0000
0000
0000
0000
0000
0001
0100
0001
0000
,  // measure 260
0202
0000
0000
0000
0303
0000
0001
1000
,  // measure 261
2002
0000
0000
0000
0000
0000
0000
0000
0000
0000
0000
0000
0000
0000
0000
0000
0000
0000
0000
0000
0000
0000
0000
0000
3003
0000
0000
0000
0000
0000
0000
0000
0000
1000
0001
1000
0001
0000
0000
0010
0000
0000
0100
0000
0000
1000
0000
0000
,  // measure 262
0001
0100
1000
0100
0001
0010
1000
0010
,  // measure 263
0001
0100
0010
1000
0100
0001
0100
1000
,  // measure 264
0010
0001
0010
1000
0010
0100
0001
0010
,  // measure 265
0100
0000
0000
1000
0000
0000
0100
0000
0000
0010
0000
0000
0002
0000
0000
0000
0000
0000
1003
0000
0010
0000
0100
0000
,  // measure 266
0001
0000
0010
0001
0010
0001
0010
0000
0001
0100
0001
0100
0002
0000
0000
0000
,  // measure 267
0000
0000
0000
0000
0000
0000
1000
0000
0003
0100
0000
0000
1000
0000
0000
0100
0000
0000
1000
0000
0000
0000
0000
0000
0001
0000
0000
0000
1000
0000
0000
0000
0100
0000
0000
0000
1000
0000
0000
0000
0001
0000
0000
0000
0010
0000
0000
0000
,  // measure 268
0001
0000
1000
0100
0010
0100
1000
0000
0001
0010
0100
0010
0002
0000
0000
0000
,  // measure 269
1003
0010
0001
0010
1000
0100
0001
0100
1000
0010
0100
0010
,  // measure 270
1000
0000
0001
0010
0100
1000
0001
0000
1000
0100
0010
0001
2000
0000
0000
0000
,  // measure 271
3010
0000
0000
0000
0000
0000
0100
0000
0000
0010
0000
0000
1000
0000
0000
0001
0000
0000
0010
0000
0000
0000
0000
0000
0001
0000
0000
0000
0100
0000
0000
0000
0001
0000
0000
0000
0010
0000
0000
0000
0001
0000
0000
0000
1000
0000
0000
0000
,  // measure 272
0001
0000
0010
0001
0100
0010
1000
0000
0100
1000
0010
0100
0002
0000
0000
0000
,  // measure 273
1003
0000
0000
0100
0000
0000
0010
0000
0000
0001
0000
0000
0010
0000
0000
0100
0000
0000
1000
0000
0000
0100
0000
0000
0010
0000
0001
0000
0010
0000
0001
0000
0010
0000
0001
0000
1000
0000
0000
0100
0000
0000
1000
0000
0000
0100
0000
0000
,  // measure 274
1000
0010
0100
0010
1000
0100
0010
0100
,  // measure 275
1000
0010
0001
0010
1000
0100
0001
0100
,  // measure 276
1000
0100
1000
0010
1000
0001
1000
0100
,  // measure 277
1000
0100
0001
0100
1000
0010
0001
0010
,  // measure 278
1000
0001
2000
0000
0000
0000
0000
0000
,  // measure 279
3001
0000
0010
0000
0001
0000
0100
0000
0010
0000
1000
0000
0100
1000
0100
1000
,  // measure 280
0100
1000
0001
0010
0001
1000
0100
1000
,  // measure 281
0001
0100
0010
1000
0100
0010
0100
1000
,  // measure 282
0001
0100
0001
0010
0100
1000
0100
0010
,  // measure 283
0001
0000
0100
0000
1000
0000
0100
0000
0001
0000
0010
0000
0000
0100
0000
1000
,  // measure 284
0001
1000
0020
0000
0000
0000
0000
0000
,  // measure 285
1030
0000
0100
0000
0010
0000
0001
0000
0100
0000
0010
0000
1000
0100
0010
0001
,  // measure 286
1000
0100
0001
0100
1000
0010
0100
0001
,  // measure 287
1000
0010
0001
0010
1000
0100
0010
0001
,  // measure 288
0010
0000
0000
0100
0000
0000
1000
0000
0000
0001
0000
0000
0010
0001
0010
0001
0000
0000
1000
0100
1000
0100
0000
0000
,  // measure 289
1000
0100
1000
0100
0010
0001
0010
0001
,  // measure 290
1000
0000
0010
0000
1000
0000
0010
0000
0100
0000
0001
0000
0100
0001
0000
0010
,  // measure 291
0001
0000
1000
0000
0001
0100
0000
0010
0100
0000
0010
0000
1000
0001
0000
1000
,  // measure 292
0010
0000
0100
0000
0220
0000
0000
0000
0330
0000
0000
0000
0001
0010
0100
1000
,  // measure 293
0001
0010
0100
1000
0100
0010
0001
1000
,  // measure 294
0001
0100
1000
0100
0001
0010
1000
0010
,  // measure 295
0001
0010
0001
0100
0001
1000
0010
1000
,  // measure 296
0100
0100
1000
1000
0010
0010
0100
0100
,  // measure 297
0001
1000
0002
0000
0000
0000
0003
0200
,  // measure 298
0000
0000
0000
0300
0020
0000
0030
2000
,  // measure 299
0000
0000
3001
0010
0100
0000
1000
0100
0010
0100
1000
0100
0010
0001
0100
0010
,  // measure 300
0000
0002
0000
0000
2000
0000
3003
0000
1000
0001
1000
0001
0010
0000
0100
1000
,  // measure 301
0001
0000
0000
1000
0000
0000
0100
0000
1000
0000
0100
0000
2000
0000
0000
0000
0000
0000
0000
0000
0000
0000
0000
0000
,  // measure 302
3010
0000
0100
0002
0000
0000
0000
0000
0000
0023
0000
0000
,  // measure 303
0230
0000
0000
0000
0000
0000
0000
0000
0000
0000
0000
0000
0000
0000
0000
0000
0300
0000
0000
0000
0000
0000
0000
0000
0200
0000
0000
0000
0000
0000
0000
0000
0000
0320
0000
0000
0000
0000
0000
0000
0000
0000
0032
0000
0000
0000
0000
0000
,  // measure 304
0000
0000
2003
0000
0200
0000
0000
3300
,  // measure 305
1200
0000
0000
0000
0000
0000
0000
0000
0000
0000
0000
0000
1300
0000
0100
0000
1000
0000
0000
0000
0000
0000
0010
0000
0000
0000
0000
0100
0000
0000
0000
0000
,  // measure 306
0201
0000
0000
0000
0000
0000
0000
0000
0000
0000
0000
0000
0301
0000
0010
0000
0001
0000
0000
0000
0000
0000
0010
0000
0000
0000
0000
0100
0000
0000
0000
0000
,  // measure 307
1200
0000
0000
0000
0000
0000
0000
0000
0000
0000
0000
0000
1300
0000
0010
0000
1000
0000
0000
0000
0000
0000
0010
0000
0000
0000
0000
0100
0000
0000
0000
0000
,  // measure 308
0220
0000
0000
0330
,  // measure 309
1002
0000
0000
0000
0000
0000
0000
0000
0000
0000
0000
0000
1003
0000
0010
0000
0100
0000
0000
0000
0000
0000
0001
0000
0000
0000
0000
0010
0000
0000
0000
0000
,  // measure 310
0210
0000
0000
0000
0000
0000
0000
0000
0000
0000
0000
0000
1300
0000
0010
0000
1000
0000
0000
0000
0000
0000
0010
0000
0000
0000
0000
0100
0000
0000
0000
0000
,  // measure 311
0012
0000
0000
0000
0000
0000
0000
0000
0000
0000
0000
0000
0013
0000
0100
0000
1000
0000
0000
0000
0000
0000
0100
0000
0000
0000
0000
0010
0000
0000
0000
0000
,  // measure 312
2002
0000
0000
3003
,  // measure 313
1000
0000
0000
0000
0100
0000
0000
0000
0010
0000
0000
0000
0001
0000
0100
0000
0001
0000
0000
0000
0000
0000
0010
0000
0000
0000
0000
0100
0000
0000
0000
0000
,  // measure 314
1000
0000
0000
0000
0010
0000
0000
0000
0100
0000
0000
0000
0001
0000
1000
0000
0001
0000
0000
0000
0000
0000
0100
0000
0000
0000
0000
0010
0000
0000
0000
0000
,  // measure 315
1000
0000
0000
0000
0010
0000
0000
0000
1000
0000
0000
0000
0100
0000
1000
0000
0100
0000
0000
0000
0000
0000
1000
0000
0000
0000
0000
0010
0000
0000
0000
0000
,  // measure 316
0210
0001
1000
0310
,  // measure 317
0010
0000
0000
0000
1000
0000
0000
0000
0100
0000
0000
0000
0010
0000
0100
0000
0010
0000
0000
0000
0000
0000
0001
0000
0000
0000
0000
1000
0000
0000
0000
0000
,  // measure 318
1010
0000
0000
0000
0010
0000
0000
0000
0100
0000
0000
0000
0001
0000
0010
0000
0001
0000
0000
0000
0000
0000
0010
0000
0000
0000
0000
0100
0000
0000
0000
0000
,  // measure 319
1100
0000
0000
0000
0010
0000
0000
0000
0100
0000
0000
0000
0001
0000
1000
0000
0001
0000
0000
0000
0000
0100
0000
0000
0000
0000
0010
0000
0000
0000
0000
0000
,  // measure 320
0220
0000
0000
0000
0000
0000
0000
0000
0000
0000
0000
0000
0330
0000
0000
0000
1001
0000
0000
0000
0000
1001
0000
0000
0000
0000
1001
0000
0000
0000
0000
0000
,  // measure 321
2000
0000
0000
0000
0000
0000
0000
0000
0000
0000
3020
0000
0000
0230
0000
0000
,  // measure 322
0302
0000
0000
0023
0000
0000
0130
0000
2000
0000
0000
3020
0000
0000
0130
0000
,  // measure 323
0002
0000
0000
2000
0000
0000
0003
0000
3001
0000
0010
0000
0001
0000
0100
0000
,  // measure 324
0001
1000
0100
1000
0010
0100
0001
0010
,  // measure 325
0002
0000
0000
0000
0000
0000
0103
0010
,  // measure 326
2000
0000
0000
0000
0000
0000
3200
0000
0000
0000
0000
0000
0310
0000
0000
0000
0002
0000
0000
0000
0000
0000
0203
0000
0000
0000
0000
0310
0000
0000
0000
0000
,  // measure 327
2000
0000
0000
0000
0000
0000
3002
0000
0000
0000
0000
0103
0000
0000
0000
0000
0020
0000
0000
0000
0000
0000
2030
0000
0000
0000
0000
3100
0000
0000
0000
0000
,  // measure 328
0020
0000
0000
0032
0000
0000
0000
0000
0013
0000
0001
0000
0100
0000
0001
1000
,  // measure 329
1001
1001
0000
0010
0100
0000
0011
0011
,  // measure 330
0000
1000
0100
0000
1100
0000
0110
0000
,  // measure 331
0101
0101
0000
0100
1000
0000
1010
1010
,  // measure 332
0000
0000
0010
0000
0001
0000
0000
0000
0010
1000
0010
0000
1000
0001
1000
0000
,  // measure 333
0011
0011
0000
1100
1100
0000
0110
0110
,  // measure 334
0000
1001
1001
0000
0110
0000
1001
0000
,  // measure 335
0001
0010
0100
0000
0000
0000
1000
0100
0010
0000
0000
0000
1001
0000
1001
0000
,  // measure 336
0000
0000
0001
1000
0001
0000
0000
0000
1000
0000
0100
0000
0010
0000
0001
0000
,  // measure 337
1000
0000
0000
0100
1000
0100
1000
0000
0010
0000
0100
0000
,  // measure 338
0001
0000
0000
0100
0000
0000
0010
0000
0000
0100
0000
0000
0101
0000
0000
0000
0101
0000
0000
0000
0101
0000
0000
0000
,  // measure 339
0001
0010
0001
1000
0010
1000
0001
0100
,  // measure 340
0001
0010
1000
0010
0001
0100
1000
0100
,  // measure 341
0001
0000
0000
0010
0001
0010
0001
0000
0010
0000
0100
0000
,  // measure 342
1000
0000
0000
0100
0000
0000
1000
0000
0000
0010
0000
0000
1000
0000
0000
0000
0100
0000
0000
0000
0010
0000
0000
0000
,  // measure 343
0001
0000
0010
0000
0001
0000
0100
0000
0001
0010
0001
0100
0001
0010
0100
0010
,  // measure 344
1000
0010
1000
0100
1000
0010
1000
0100
0010
0100
0001
0100
0001
0010
0001
0010
,  // measure 345
0001
0100
0001
1000
0100
1000
0001
0010
0001
1000
0010
1000
,  // measure 346
1001
0000
0000
0001
0000
0000
0010
0000
0000
0100
0000
0000
1001
0000
0000
0000
0100
0000
0000
0000
0010
0000
0000
0000
,  // measure 347
1001
0000
0000
0100
0000
0000
0010
0000
0000
1000
0000
0000
1001
0000
0000
0000
0010
0000
0000
0000
0100
0000
0000
0000
,  // measure 348
1001
0000
0001
0000
1000
0000
1001
0000
0110
0000
1001
0000
,  // measure 349
0011
0000
0000
0010
0001
0010
0011
0000
0101
0000
1010
0000
,  // measure 350
1001
0000
0001
1000
0001
1000
0011
0000
0110
0000
1100
0000
,  // measure 351
1010
0010
1000
0010
0100
0001
0010
0001
0100
0010
1000
0100
,  // measure 352
1000
0010
0100
0001
0010
0001
0010
0100
1000
0100
0010
0001
,  // measure 353
0100
0000
0000
0000
0010
0000
0000
0000
1000
0000
0000
0000
0001
0000
0000
0000
0100
0000
0000
0000
0001
0000
0000
0000
1001
0000
0000
0000
0000
0000
0000
0000
0000
0110
0000
0000
0000
0000
0000
0000
0000
0000
1001
0000
0000
0000
0000
0000
,  // measure 354
1000
0001
1001
0000
0000
0000
0010
0100
0110
0000
0000
0000
,  // measure 355
0001
0010
0011
0000
0000
0000
0100
1000
1100
0000
0000
0000
,  // measure 356
1000
0001
0001
0001
1000
0001
0001
0001
,  // measure 357
1000
0001
1000
0001
1000
0001
1000
0001
,  // measure 358
1000
1000
0001
0001
1000
1000
0001
0001
,  // measure 359
0001
0010
0100
1000
0100
0010
0001
0010
,  // measure 360
0100
1000
0100
0010
0001
0100
0010
1000
,  // measure 361
0010
0100
0001
0100
0010
1000
0010
0100
,  // measure 362
0001
0010
1000
0010
0001
1000
0001
0100
,  // measure 363
1000
0100
0001
1000
0001
0010
1000
0010
,  // measure 364
0001
1000
0001
0100
1000
0100
0001
1000
,  // measure 365
0001
0010
1000
0010
0001
1000
1M01
0001
,  // measure 366
0001
01M1
0100
0100
0100
011M
0010
1M10
,  // measure 367
101M
1000
11M0
0100
0100
011M
0010
0010
,  // measure 368
0010
0000
0M11
0000
0001
0000
10M1
0000
1M01
0000
0001
1000
10M1
0000
1000
0000
,  // measure 369
1000
110M
1000
1000
1000
1M10
0010
011M
,  // measure 370
M110
0100
01M1
M101
0001
0M11
0010
0100
,  // measure 371
0010
M110
0100
11M0
110M
1000
1M10
0010
,  // measure 372
1000
110M
0100
0010
0100
M110
0010
0M11
,  // measure 373
M011
0001
01M1
0100
0010
011M
1000
1M10
,  // measure 374
0100
0000
11M0
0000
110M
0000
10M1
0000
1M01
0000
M011
0000
0001
1000
0M01
1000
,  // measure 375
0001
0000
10M0
0001
1M00
0000
0010
0000
0100
0000
M001
0000
0010
0000
1M00
0000
,  // measure 376
0010
0000
M001
0000
0100
0000
10M0
0100
1000
0100
001M
0000
0100
0010
M100
0000
,  // measure 377
0001
0000
0000
0000
1000
0000
0010
0000
0100
0000
0000
0000
0001
0000
0000
0000
1000
0000
0000
0000
2002
3003
0000
0000
MMMM
MMMM
MMMM
MMMM
MMMM
MMMM
MMMM
MMMM
,  // measure 378
MMMM
MMMM
MMMM
MMMM
MMMM
MMMM
MMMM
0000
0000
0000
0000
0000
0000
0000
0000
0000
0000
0000
0000
0000
0000
0000
0000
0000
0000
0000
0000
0000
0000
0000
0000
0000
,  // measure 379
0000
2000
0000
0000
,  // measure 380
3000
0002
0000
0000
,  // measure 381
0003
2000
0000
0000
,  // measure 382
3000
0002
0000
0000
,  // measure 383
0003
2000
0000
0000
,  // measure 384
3000
0020
0000
0000
,  // measure 385
0030
0200
0000
0000
,  // measure 386
0300
0200
0000
0000
,  // measure 387
0300
0002
0000
0000
,  // measure 388
0003
0200
0000
0000
,  // measure 389
0300
0020
0000
0000
,  // measure 390
0030
0020
0000
0000
,  // measure 391
0030
2000
0000
0000
,  // measure 392
3000
0020
0000
0000
,  // measure 393
0030
0200
0000
0000
,  // measure 394
0300
0200
0000
0000
,  // measure 395
0300
0002
0000
0000
,  // measure 396
0003
0020
0000
0000
,  // measure 397
0030
0200
0000
0000
,  // measure 398
0300
0200
0000
0000
,  // measure 399
0300
2002
0000
0000
,  // measure 400
0000
3000
0200
0000
0000
0000
0000
0000
,  // measure 401
0303
0001
0101
0000
0000
0000
0000
1000
,  // measure 402
0100
0020
0000
0000
0000
0000
0000
0000
,  // measure 403
0030
1000
2020
0000
0000
0000
0000
0000
,  // measure 404
0030
0000
0002
0000
0000
0000
0000
3003
,  // measure 405
0000
1000
1001
0001
0010
0001
0100
0001
,  // measure 406
1000
0002
0000
0000
0000
0000
0000
0003
,  // measure 407
0000
1001
1001
1000
1000
1000
1000
1000
,  // measure 408
1010
1010
0010
0010
0010
0010
0011
0010
,  // measure 409
0110
0110
1001
0001
0100
0010
1000
0100
,  // measure 410
1100
0110
0010
0001
0100
0001
0011
0001
,  // measure 411
1001
1000
1100
0100
1000
0001
0100
0001
,  // measure 412
1010
1010
0010
0100
0001
0010
0100
1000
,  // measure 413
0110
0010
1001
1000
0100
0010
0100
1000
,  // measure 414
0011
0110
1000
0100
0010
0001
0100
0010
,  // measure 415
2001
3002
0000
0200
,  // measure 416
0300
0000
0020
0000
0000
0033
0011
0000
,  // measure 417
0000
0000
0010
1000
0010
0000
0000
0000
0010
0000
0000
0000
0001
0000
0000
0000
,  // measure 418
0100
1000
0100
0001
,  // measure 419
1000
0100
0010
0001
2001
0000
0000
0000
0000
0000
0000
0000
0020
0000
0000
0000
,  // measure 420
0030
0000
0200
0000
0000
3300
1100
0000
,  // measure 421
0000
0000
0010
0001
0010
0000
0000
0000
0210
0000
0000
0000
1000
0000
0000
0000
,  // measure 422
0010
0001
0010
1300
,  // measure 423
0001
1000
0001
1000
0001
0000
0010
0001
0010
0001
0010
0001
0010
0000
0001
0000
,  // measure 424
1000
0000
0100
1000
0100
0000
1000
0010
1000
0000
0010
0100
0010
0000
1000
0000
,  // measure 425
0001
0100
0001
0100
0001
0000
0010
0000
0100
0000
1000
0001
1000
0000
0100
0000
,  // measure 426
1000
0000
0010
0100
0010
0000
0100
0000
0001
0000
0010
0000
0100
0000
1000
0000
,  // measure 427
0001
0010
0100
1000
0001
0000
0001
0000
0100
0000
0100
0000
0010
0000
0010
0000
,  // measure 428
1000
1000
0001
0100
0010
1000
0001
0100
,  // measure 429
0010
1000
0001
0001
0010
0010
0100
0100
,  // measure 430
1000
1000
0001
0010
0100
1000
0001
0010
,  // measure 431
0100
1000
0001
0001
1000
1000
0010
0010
,  // measure 432
0100
0100
0001
1000
0010
0100
0001
1000
,  // measure 433
0010
0100
0001
0001
1000
1000
0001
0001
,  // measure 434
1000
0000
0000
1000
0000
0000
0001
0000
0000
1000
0000
0000
0001
0000
0000
1000
0001
1000
0001
0000
0000
1000
0001
1000
,  // measure 435
0001
0010
0100
0000
1000
0010
0100
0010
0100
0001
0010
0001
0010
0000
0001
0100
,  // measure 436
0010
1000
0010
0100
0010
0000
1000
0100
1000
0010
0100
0010
1000
0000
0100
1000
,  // measure 437
0010
0100
0001
0010
0001
0000
0010
0000
0001
0000
0100
0000
0010
0000
1000
0000
,  // measure 438
0100
1000
0001
0100
0010
1000
0001
0010
,  // measure 439
0100
0000
1000
0000
0001
0010
0001
0100
0010
1000
0100
0010
0001
0000
0100
0010
,  // measure 440
1000
0010
0100
0010
1000
0000
0100
0000
0010
0001
1000
0001
1000
0000
0001
0000
,  // measure 441
1000
0100
1100
1000
1010
0010
0110
0100
,  // measure 442
0101
0001
1001
0000
1100
0000
0110
0000
,  // measure 443
0011
0000
0000
0000
1001
0000
0000
0001
0010
0100
1100
0000
0000
1000
0100
0010
,  // measure 444
0001
0000
0000
1000
0000
0000
0010
0000
0000
0000
0000
0000
0110
0000
0000
0000
0000
0000
0000
0000
0000
0100
0000
0000
0001
0000
0000
0010
0000
0000
1100
0000
0000
0000
0000
0000
1000
0000
0000
0000
0010
0000
0000
0000
1000
0000
0000
0000
,  // measure 445
0001
0000
0000
0000
1000
0000
0000
0000
0100
0000
0000
0000
1100
0000
0000
0000
0000
0000
0000
0000
0000
0100
0000
0000
1000
0000
0000
0010
0000
0000
0110
0000
0000
0000
0000
0000
0000
0000
0000
0010
0000
0000
0100
0000
0000
0001
0000
0000
,  // measure 446
0011
0000
0000
0010
0100
1000
1100
0000
0000
1000
0001
0100
0001
0010
0100
1000
,  // measure 447
0001
0100
0010
1000
0001
0000
0010
0000
0001
0000
0010
0001
0010
0000
0001
0000
,  // measure 448
0010
0000
0100
1000
0100
0000
1000
0000
0100
0000
1000
0010
0100
0000
0001
0000
,  // measure 449
0010
0000
0001
0100
0001
0000
0100
0000
0001
0000
0100
0001
0100
0000
0010
0000
,  // measure 450
1000
0000
0010
1000
0010
0000
1000
0000
0010
0000
0100
0001
1000
0000
0100
0000
,  // measure 451
0010
0001
0010
0001
0000
0001
0000
0001
0100
0000
0110
0000
0000
0000
0000
0000
,  // measure 452
0020
0000
2030
0000
3200
0000
0320
0032
,  // measure 453
0000
0000
0000
0000
0000
1003
0000
1000
0100
0000
0110
0000
0000
0000
0000
0000
,  // measure 454
0020
0000
0032
0000
0203
0000
0320
2030
,  // measure 455
3002
0000
0000
0000
0000
1003
0000
1000
0010
0000
1010
0000
0000
0000
0000
0000
,  // measure 456
1000
0000
0010
1000
0010
0000
0100
0000
0001
0000
0010
0000
0001
0000
0100
0000
,  // measure 457
0010
0000
1000
0100
0000
0010
0000
0010
0001
0000
0011
0000
0000
0000
0000
0000
,  // measure 458
0001
0000
0000
0000
0000
0000
0010
0000
0000
0001
0000
0000
0010
0000
0000
0000
0000
0000
0001
0000
0000
0000
0000
0000
0100
0000
0000
0000
0000
0000
0010
0000
0000
0000
0000
0000
1000
0000
0001
0000
1000
0000
0001
0000
1000
0000
0001
0000
,  // measure 459
1000
0000
0001
0000
1000
0000
0001
0000
1000
0000
0001
0000
1000
0000
0000
0000
0000
0000
0100
0000
0000
0000
0000
0000
1000
0000
0000
0000
0000
0000
0100
0000
0000
1000
0000
0000
0001
0000
0000
0000
0000
0000
0010
0000
0000
0000
0000
0000
,  // measure 460
0001
0000
0100
0010
1000
0000
0100
0000
0010
0000
0011
0000
0000
0000
1100
0000
,  // measure 461
0000
0000
0000
0000
0010
0000
0100
0000
0001
0000
0010
0001
0100
0000
0010
0000
,  // measure 462
1000
0000
0100
1000
0010
0000
0100
0000
0001
0000
1001
0000
0000
0000
0110
0000
,  // measure 463
0000
0000
0000
0000
1000
0000
0100
0000
0010
0000
0001
1000
0001
0000
0010
0000
,  // measure 464
0100
0000
1000
0100
1000
0000
0010
0000
0100
0000
0011
0000
0000
0000
1100
0000
,  // measure 465
0000
0000
0000
0000
1000
0000
0001
0000
0010
0000
0001
1000
0001
0000
0100
0000
,  // measure 466
0010
0000
0100
0001
0100
0000
0001
0000
1001
0000
0010
0000
0100
0010
0100
0000
,  // measure 467
0001
0010
0100
1000
0002
0000
0000
0000
0000
0000
0000
0000
0000
0000
0000
0000
,  // measure 468
0000
0000
0203
0000
0000
0010
0000
0010
,  // measure 469
0000
0320
0000
0000
,  // measure 470
1030
0100
1000
0002
0000
0000
0000
0000
0000
0000
0000
0000
,  // measure 471
0013
0001
0100
0010
2000
0000
0000
0000
0000
0000
0000
0000
0000
0000
0000
0000
,  // measure 472
0000
0000
3020
0000
0000
0100
0000
0100
,  // measure 473
0000
0230
0000
0000
,  // measure 474
0000
0000
0000
0000
0310
0000
1000
0000
0010
0000
0100
0000
0010
0000
1000
0010
,  // measure 475
1000
0001
1000
0100
0010
0001
0010
0100
,  // measure 476
1000
0001
1000
0100
0010
0001
0010
0100
,  // measure 477
1000
0000
0001
0000
1000
0000
0100
0000
0010
0000
0001
0010
0100
1000
0100
0010
,  // measure 478
0001
0000
1000
0000
0001
0000
0010
0000
0100
0000
1000
0100
0010
0001
0010
0100
,  // measure 479
1000
0001
1000
0010
0100
0001
1000
0100
,  // measure 480
0010
0001
1000
0010
0100
0001
1000
0100
,  // measure 481
0010
0000
0001
0000
1000
0000
0010
0000
0100
0000
0001
0010
0100
1000
0010
0100
,  // measure 482
0001
0000
1000
0000
0001
0000
0100
0000
0010
0000
1000
0100
0010
0001
0100
0010
,  // measure 483
1000
0000
0001
0000
1000
0100
0010
0001
1000
0100
0010
0001
1000
0100
0010
0001
,  // measure 484
1000
0100
0010
0010
0001
0010
0100
1000
0001
0010
0100
1000
0001
0010
0100
1000
,  // measure 485
0001
0010
0100
0100
1000
0010
0100
0001
1000
0010
0100
0001
1000
0010
0100
0001
,  // measure 486
1000
0010
0100
0100
0001
0100
0010
1000
0001
0100
0010
1000
0001
0100
0010
1000
,  // measure 487
0001
0100
0010
0010
1000
0100
1000
0010
1000
0001
1000
0010
1000
0100
1000
0010
,  // measure 488
1000
0001
1000
1000
0001
0010
0001
0100
0001
1000
0001
0100
0001
0010
0001
0100
,  // measure 489
0001
1000
0001
0001
0100
0010
0100
0001
0100
0010
0100
1000
0100
0010
0100
0001
,  // measure 490
0100
0010
0100
0100
0010
1000
0010
0100
0010
0001
0010
0100
0010
1000
0010
0100
,  // measure 491
0010
0001
0010
0010
1000
0100
0010
0001
1000
0010
0100
0001
1000
0100
0010
0001
,  // measure 492
1000
0010
0100
0100
0001
0010
0100
1000
0001
0100
0010
1000
0001
0010
0100
1000
,  // measure 493
0001
0100
0010
0010
0011
0000
0001
0000
0100
0000
0010
0000
1010
0000
0010
0000
,  // measure 494
1000
0000
0001
0000
1001
0000
0000
1010
0000
0000
0101
0000
0000
0000
0010
0100
,  // measure 495
1000
0100
0010
0001
1000
0100
1000
0100
0000
1100
0000
0100
0010
0001
0010
0001
,  // measure 496
0000
0011
0000
0001
0100
0010
1000
0010
0000
1010
0000
1000
0100
0010
0001
0010
,  // measure 497
0000
0011
0000
0001
1000
0100
1000
0010
0000
1010
0000
1000
0010
0100
0001
0010
,  // measure 498
0000
0011
0000
0001
0010
1000
0010
0011
0000
0011
0000
0001
0100
1000
0100
0101
,  // measure 499
0000
0101
0000
0001
1000
0001
1000
0001
0000
1001
0000
0000
0010
0100
0010
0100
,  // measure 500
0000
0110
0000
0000
0001
1000
0001
1000
0000
2002
0000
0000
0000
0000
0000
0000
,  // measure 501
0000
0000
0000
0000
0000
0000
0000
0000
0000
0000
0000
0000
0000
0000
0000
0000
0000
0000
0000
0000
0000
0000
0000
0000
3003
0000
0000
0000
0000
0000
0000
0000
0000
2000
0000
0000
0000
0000
0000
0000
0000
0000
0000
0000
0000
0000
0000
0000
0000
0000
0000
0000
0000
0000
0000
0000
0000
0000
0000
0000
0000
0000
3002
0000
,  // measure 502
0000
0000
0000
0000
0000
0000
0000
0000
0000
0000
0000
0000
0000
0000
0000
0000
0000
0203
0000
0000
0000
0000
0000
0000
0000
0000
0000
0000
0000
0000
0000
0000
,  // measure 503
0000
0000
0000
0000
0000
0320
0000
0000
0000
0000
0000
0000
0000
0000
0000
0000
0000
0000
0000
0000
0000
0000
1000
0000
0000
0000
0000
0000
0000
0000
0000
0000
0000
0000
0000
0000
1000
0000
0000
0000
0000
0000
0000
0000
0000
0000
0000
0000
0000
0000
0000
0000
0000
0000
0000
0000
0000
0000
0000
0000
0000
0000
0000
0000
,  // measure 504
0000
0000
0000
0000
0000
0000
0000
1000
0000
0000
0000
0000
0000
0000
1000
0000
0030
0000
0000
0000
0000
0000
0000
0000
0000
0000
0000
0000
0000
0000
0000
0000
,  // measure 505
0000
0000
0000
0000
0000
0000
0000
0000
0000
0000
0020
0000
0000
0000
0000
0000
0000
0000
0000
0000
0000
0000
0000
0000
0000
0000
0000
0000
0000
0000
0000
0000
0000
0000
0000
0000
0000
0000
0000
0000
0000
0000
0000
0000
0000
0230
0000
0000
0000
0000
0000
0000
0000
0000
0000
0000
0000
0000
0000
0000
0000
0000
0000
0000
,  // measure 506
0000
0000
0000
0000
0000
0000
0000
0000
0000
0302
0000
0000
0000
0000
0000
0000
0000
0000
0000
0000
0000
0000
0000
0000
0000
0000
2003
0000
0000
0000
0000
0000
,  // measure 507
0000
0000
0000
0000
0000
0000
0000
0000
0000
0000
0000
0000
0000
0000
0000
0000
0000
0000
0000
0010
0000
0000
0000
0000
0000
0000
0000
0000
0000
0000
0000
0000
0010
0000
0000
0000
0000
0000
0000
0000
0000
0000
0000
0000
0000
0000
0000
0000
0000
0000
0000
0000
0000
0000
0000
0000
0000
0000
0000
0000
0000
0000
0000
0000
,  // measure 508
0000
0000
0000
0010
0000
0000
0000
0000
0000
0000
0000
0000
0000
0000
0000
0000
3010
0000
0000
0000
0000
0000
0000
0000
0000
0000
0000
0000
0000
0000
0000
0000
0000
0000
0000
0000
0000
0000
0000
0000
0000
0000
0000
0000
0000
0000
0000
0000
0000
0000
0000
0000
0000
0000
0000
0000
0000
0000
0000
0000
0000
0000
0000
0000
,  // measure 509
0000
0000
0000
0000
,  // measure 510
0000
0000
0000
0000
,  // measure 511
0000
0000
0000
0000
0000
0000
1000
0100
,  // measure 512
0001
0000
0001
0100
1000
0000
1000
0010
,  // measure 513
0001
0000
0001
0010
1000
0000
1000
0100
,  // measure 514
0010
0000
0001
0000
0100
0000
0010
0000
1000
0001
1000
0000
0001
0000
0010
0000
,  // measure 515
0100
0000
1000
0000
0010
0100
0010
0000
0100
0000
0010
0000
1000
0000
0010
1000
,  // measure 516
0010
0000
0100
0000
0001
0000
0010
0000
0001
0100
0001
0000
0010
0000
0001
0000
,  // measure 517
0100
0000
0010
0000
1000
0000
0100
0000
1000
0000
0010
1000
0001
1000
0010
1000
,  // measure 518
0001
0000
0010
0000
0100
0000
1000
0000
0001
1000
0001
0000
1000
0000
0100
0010
,  // measure 519
0100
0010
0100
0000
0010
0000
0001
0000
0100
0000
0010
0000
1000
0010
1000
0000
,  // measure 520
001M
0000
0100
0000
0001
0000
0010
0000
0001
0010
0001
0000
0100
0000
0010
0000
,  // measure 521
100M
0100
1000
0100
1000
0000
0100
0000
M010
0001
0010
0000
0001
0000
0100
0000
,  // measure 522
M001
0000
0010
0000
0001
0000
0100
0000
001M
1000
0010
0000
0100
0000
0010
0000
,  // measure 523
M100
0001
0010
0000
0100
0000
1000
0000
0001
0000
1000
0001
1000
0000
0010
0000
,  // measure 524
010M
0000
1000
0000
0100
0000
0010
0000
0M01
1000
0001
0000
0010
0000
0001
0000
,  // measure 525
M100
0000
0010
1000
0010
0000
0100
0000
M001
0000
0010
0000
0100
1000
0100
0000
,  // measure 526
100M
0000
0010
0000
0100
0010
0100
0000
M001
0000
1000
0000
0002
0000
0000
0000
,  // measure 527
10M3
0000
0100
0000
0010
0000
0100
0000
0010
0000
0001
0000
1000
0001
1000
0001
,  // measure 528
1000
0010
1000
0010
1000
0000
0100
0000
1000
0000
0010
0100
0010
0000
0100
0000
,  // measure 529
0001
0000
0010
0000
0001
0000
0100
0000
0010
0100
0010
0000
1000
0000
0100
1000
,  // measure 530
0100
1000
0100
0000
1000
0000
0010
0000
0100
0001
0100
0001
0100
0000
0001
0000
,  // measure 531
0010
0001
0100
0010
1000
0100
1000
0001
,  // measure 532
2000
0100
0100
0001
,  // measure 533
3002
0100
0203
0010
,  // measure 534
0320
1000
2030
0001
,  // measure 535
3002
0010
0010
1000
,  // measure 536
2003
0100
0100
0010
,  // measure 537
3020
0100
0230
0010
,  // measure 538
0320
1000
2030
0001
,  // measure 539
3002
1000
1000
1000
,  // measure 540
1003
0000
0000
0000
1001
0000
0000
0000
1000
0100
1000
0000
0100
0000
0000
0100
,  // measure 541
1000
0000
0100
0000
1000
0000
0010
0100
0010
0000
0100
0001
0100
0001
0100
0000
,  // measure 542
0001
0000
0010
0000
0100
0000
1000
0000
0001
1000
0000
1000
0002
0000
0000
0000
,  // measure 543
0003
0000
0000
0000
,  // measure 544
0000
0000
0000
0000
,  // measure 545
0000
0000
0000
0000
,  // measure 546
0000
0000
0000
0000
,  // measure 547
0000
0000
0000
0000
,  // measure 548
0000
0000
0000
0000
,  // measure 549
1000
0001
1000
0000
1001
0000
0000
0000
0001
1000
0001
0000
1001
0000
0000
0000
,  // measure 550
M22M
0330
2MM2
3003
,  // measure 551
M22M
0330
1MM1
22MM
,  // measure 552
3300
MM22
0033
22MM
,  // measure 553
3300
MM11
2MM2
3003
,  // measure 554
M22M
0330
2MM2
3003
,  // measure 555
M11M
22MM
3300
MM22
,  // measure 556
0033
22MM
3300
MM11
,  // measure 557
1000
0100
0010
0002
M1M0
0000
0000
0000
,  // measure 558
1MM0
0000
0000
0000
MM13
0000
0001
0010
,  // measure 559
0100
2000
0M1M
0000
0000
0000
0MM1
0000
,  // measure 560
0000
0000
31MM
0000
1MM1
0000
0001
0010
,  // measure 561
0001
0000
0100
0010
0100
0000
0010
1000
,  // measure 562
0010
0000
1M1M
0000
1000
0010
0100
0000
,  // measure 563
0001
0010
0100
0000
1000
0100
0010
0000
,  // measure 564
MM11
0000
0001
0100
01M1
0000
1000
0010
,  // measure 565
1M10
0000
0010
0100
M11M
0000
1MM1
0000
,  // measure 566
1000
0100
011M
0000
0010
0001
01M1
0000
,  // measure 567
0100
0010
1M10
0000
1000
0010
0200
0000
,  // measure 568
M01M
0000
10MM
0000
,  // measure 569
M3M1
0000
0010
0000
0001
0010
0100
0000
,  // measure 570
1000
0100
0010
0000
0001
0100
0010
0000
,  // measure 571
1000
0001
0020
0000
MM01
0000
0000
0000
,  // measure 572
M10M
0000
1M3M
0010
,  // measure 573
0001
0010
0001
0000
1000
0100
1000
0000
,  // measure 574
0010
0100
0010
0000
21MM
0000
01MM
0000
,  // measure 575
0M1M
0M1M
0MM1
0MM1
,  // measure 576
31MM
MM12
MM10
M1M0
,  // measure 577
M1M0
1MM0
1MM0
MM13
,  // measure 578
0001
0010
0100
0010
0001
1000
0100
1000
,  // measure 579
0010
0100
0010
0001
0010
0100
0001
0010
,  // measure 580
0100
0010
0100
1000
0010
1000
0100
0001
,  // measure 581
0100
1000
0001
1000
0001
0010
1000
0010
,  // measure 582
0001
0100
0010
1000
0100
1000
0001
0100
,  // measure 583
0010
1000
0010
0100
0010
1000
0100
1000
,  // measure 584
0010
0100
0001
0010
0001
0100
0010
1000
,  // measure 585
1002
0000
0000
1000
0000
0000
0000
0000
,  // measure 586
1003
0000
0000
0000
0000
0000
0100
0000
0000
0000
0000
0000
1000
0100
1000
0100
0000
0000
1000
0000
0000
0000
0000
0000
,  // measure 587
0001
0000
0000
0000
0000
0000
0100
0000
0000
0000
0000
0000
0001
0100
0001
0100
0000
0000
0001
1000
0001
1000
0000
0000
,  // measure 588
0001
1000
0001
1000
0000
0000
0010
0100
0010
0100
0000
0000
0010
0100
0010
0100
0000
0000
0001
1000
0001
1000
0000
0000
,  // measure 589
2001
0000
0000
0000
0000
0000
0000
0000
3001
0000
0000
0000
0000
0000
0000
0010
0000
0000
0001
0000
0000
0010
0000
0000
0000
0000
0000
0000
0000
0000
0000
0000
,  // measure 590
0000
1001
0000
0000
0000
0000
0000
1000
0000
0000
0001
0000
0000
1000
0000
0000
0000
0000
0000
0000
0000
0000
0000
0000
0000
0110
0000
0000
0000
0000
0000
0000
,  // measure 591
0100
0000
0000
0010
0000
0000
0100
0000
0000
0000
0000
0000
0000
1010
0000
0000
0000
0000
0000
0000
1000
0000
0000
0100
0000
0000
0010
0000
0000
0000
0000
0000
,  // measure 592
1001
0220
0000
0000
,  // measure 593
0330
0000
1001
0000
0000
1001
0000
0000
2002
0000
0000
0000
0000
0000
0000
0000
,  // measure 594
0000
0000
0000
0000
,  // measure 595
0000
3003
0000
0000
,  // measure 596
0000
0000
0000
0000
,  // measure 597
0000
0000
0000
0000
,  // measure 598
0000
0000
0000
0000
,  // measure 599
0000
0000
0000
0000
,  // measure 600
0000
0000
0000
0000
,  // measure 601
0000
0000
0000
0000
,  // measure 602
0000
0000
0000
0000
,  // measure 603
0000
0000
0000
0000
,  // measure 604
0000
0000
0000
0000
,  // measure 605
0000
0000
0000
0000
,  // measure 606
0000
0000
0000
0000
,  // measure 607
0000
0000
0000
0000
,  // measure 608
0000
0000
0000
0000
,  // measure 609
0000
0000
0000
0000
,  // measure 610
0000
0000
0000
0000
,  // measure 611
0000
0000
0000
0000
,  // measure 612
0000
0000
0000
0000
,  // measure 613
0000
0000
0000
0000
,  // measure 614
0000
0000
0000
0000
,  // measure 615
0000
0000
0000
0000
,  // measure 616
0000
0000
0000
0000
,  // measure 617
0000
0000
0000
0000
,  // measure 618
0000
0000
0000
0000
,  // measure 619
0000
0000
0000
0000
,  // measure 620
0000
0000
0000
0000
,  // measure 621
0000
0000
0000
0000
,  // measure 622
0000
0000
0000
0000
,  // measure 623
0000
0000
0000
0000
,  // measure 624
0000
0000
0000
0000
,  // measure 625
0000
0000
0000
0000
,  // measure 626
0000
0000
0000
0000
,  // measure 627
0000
0000
0000
0000
,  // measure 628
0000
0000
0000
0000
,  // measure 629
0000
0000
0000
0000
,  // measure 630
0000
0000
0000
0000
,  // measure 631
0000
0000
0000
0000
,  // measure 632
0000
0000
0000
0000
,  // measure 633
0000
0000
0000
0000
,  // measure 634
0000
0000
0000
0000
,  // measure 635
0000
0000
0000
0000
,  // measure 636
0000
0000
0000
0000
,  // measure 637
0000
0000
0000
0000
,  // measure 638
0000
0000
0000
0000
,  // measure 639
0000
0000
0000
0000
,  // measure 640
0000
0000
0000
0000
,  // measure 641
0000
0000
0000
0000
,  // measure 642
0000
0000
0000
0000
,  // measure 643
0000
0000
0000
0000
,  // measure 644
0000
0000
0000
0000
,  // measure 645
0000
0000
0000
0000
,  // measure 646
0000
0000
0000
0000
,  // measure 647
0000
0000
0000
0000
,  // measure 648
0000
0000
0000
0000
,  // measure 649
0000
0000
0000
0000
,  // measure 650
0000
0000
0000
0000
,  // measure 651
0000
0000
0000
0000
,  // measure 652
0000
0000
0000
0000
,  // measure 653
0000
0000
0000
0000
,  // measure 654
0000
MMMM
M000
MMMM
,  // measure 655
M000
MMMM
0000
M00M
,  // measure 656
MM0M
MMMM
M0MM
M00M
,  // measure 657
0000
MMM0
M00M
M00M
,  // measure 658
M00M
MMM0
0000
0000
;
