#TITLE:Crimson Valkyrja;
#SUBTITLE:[Arcana Heart 3];
#ARTIST:Motoharu Yoshihira;
#TITLETRANSLIT:;
#SUBTITLETRANSLIT:;
#ARTISTTRANSLIT:;
#GENRE:;
#CREDIT:;
#MENUCOLOR:;
#METERTYPE:DDR;
#BANNER:ah3crimson.png;
#BACKGROUND:ah3crimson-bg.png;
#LYRICSPATH:;
#CDTITLE:!hiryuu.png;
#MUSIC:ah3crimson.ogg;
#OFFSET:0.000;
#SAMPLESTART:0.000;
#SAMPLELENGTH:13.345;
#SELECTABLE:YES;
#LISTSORT:;
#BPMS:0.000=144.010,59.750=72.005,60.000=144.010,91.500=72.005,93.750=144.010;
#STOPS:25.667=0.278
,26.000=0.139
,26.334=0.139
,26.667=0.139
,27.000=0.139
,27.334=0.139
,27.667=0.278
,54.667=0.278
,55.000=0.139
,55.334=0.139
,55.667=0.139
,56.000=0.139
,56.334=0.139
,56.667=0.278
,58.750=0.104
,60.000=0.208
,61.000=0.104
,61.500=0.104
,62.000=0.104
,62.500=0.104
,64.750=0.104
,65.250=0.104
,65.750=0.104
,67.250=0.104
,67.750=0.104
,68.250=0.104
,68.750=0.104
,69.250=0.104
,86.750=0.104
,87.000=0.104
,87.250=0.208
,87.500=0.104
,88.000=0.104
,88.500=0.104
,89.000=0.104
,94.500=0.104
,94.750=0.104
,95.000=0.104
,95.250=0.104
,95.500=0.104
,95.750=0.208
,203.500=0.312
,203.750=0.312
,204.000=0.312
,204.250=0.312
;
#BGCHANGES:;
#ATTACKS:;

//---------------dance-single - SMANIAC----------------
#NOTES:
     dance-single:
     SMANIAC:
     Challenge:
     11:
     0.902,1.000,0.223,0.629,0.980:
0000
0000
0000
0000
,
0000
0000
0000
0000
,
0000
0000
0000
0000
,
0000
0000
0000
0000
,
0010
0001
0100
2000
0000
3100
0001
0020
,
0000
1030
0010
0002
0000
0013
0001
1000
,
0010
0000
0000
0000
0000
0000
0100
0000
0000
0000
0000
0000
0001
0000
0000
0000
0000
0000
2000
0000
0000
0000
0000
0000
0100
0000
0000
0000
0010
0000
0000
0000
0001
0000
0000
0000
0100
0000
0000
0000
0010
0000
0000
0000
3001
1000
0000
0000
,
0001
0000
1000
0010
0001
0020
0000
1030
,
0100
0002
0000
0103
0010
0002
0000
1003
,
0010
0001
0010
1000
0100
0002
0000
0103
,
1000
1100
0000
1010
0000
0022
0000
0033
,
0110
0000
1000
0100
0001
0200
0000
1300
,
0010
0002
0000
0013
0100
0002
0000
0013
,
1000
0000
0000
0010
0000
0000
0001
0000
0000
0100
0000
0000
1000
0000
0000
0200
0000
0000
1000
0000
0010
0000
0001
0000
,
0010
0000
0000
0000
0000
0000
0000
0000
0000
0000
0000
0000
0000
0000
0000
0000
1000
0000
0000
0000
0000
0000
0000
0000
0000
0000
0000
0000
0000
0000
0000
0000
0310
0000
0000
0000
0100
0000
0000
0000
0000
0000
0000
0000
0000
0000
0000
0000
0010
0000
0000
0000
0000
0000
0000
0000
0000
0000
0000
0000
0000
0000
0000
0000
0000
0000
0000
0000
0000
0000
0000
0000
0000
0000
0000
0000
0000
0000
0000
0000
0000
0000
0000
0000
0000
0000
0000
0000
0000
0000
0000
0000
0000
0000
0000
0000
1000
0000
0000
0000
0000
0000
0000
0000
0000
0000
0000
0000
0100
0000
0000
0000
0000
0000
0000
0000
0000
0000
0000
0000
0010
0000
0000
0000
0000
0000
0000
0000
0000
0000
0000
0000
0002
0000
0000
0003
0000
0000
0000
0000
0000
0000
0000
0000
0010
0000
0000
0000
0000
0000
0000
0000
0000
0000
0000
0000
0001
0000
0000
0000
0000
0000
0000
0000
0000
0000
0000
0000
1000
0000
0000
0000
0000
0000
0000
0000
0000
0000
0000
0000
0200
0000
0000
0000
0000
0000
0000
0000
0000
0000
0000
0000
,
0320
0030
0000
0000
0100
0000
0000
0000
0010
0000
0000
0000
0001
0000
0000
0000
2000
3000
0000
0000
0010
0000
0000
0000
2000
3000
0000
0000
0100
0000
0000
0000
2000
3000
0000
0000
0001
0000
0000
0000
2000
3000
0000
0000
0001
0000
0000
0000
0010
0000
0000
0000
0100
0000
0000
0000
1000
0000
0000
0000
0100
0000
0000
0000
,
0010
0000
0000
0000
0001
0000
0000
0000
0100
0000
0000
0000
0020
0030
0000
0000
0100
0000
0000
0000
0002
0003
0000
0000
0100
0000
0000
0000
0020
0030
0000
0000
0100
0000
0000
0000
0001
0000
0000
0000
0010
0000
0000
0000
0100
0000
0000
0000
1000
0000
0000
0000
0200
0300
0000
0000
0001
0000
0000
0000
0020
0030
0000
0000
,
0100
0000
0000
0000
2000
3000
0000
0000
0001
0000
0000
0000
0020
0030
0000
0000
0100
0000
0000
0000
2000
3000
0000
0000
0000
0000
0000
0000
0000
0000
0000
0000
0001
0000
0000
0000
0010
0000
0000
0000
0100
0000
0000
0000
0010
0000
0000
0000
0001
0000
0000
0000
0000
0000
0000
0000
1000
0000
0000
0000
0100
0000
0000
0000
,
0010
0100
1000
0000
0001
1000
0000
0000
0010
0001
0100
0001
0010
0000
0100
1000
,
0010
1000
0100
0000
1000
0001
0010
0100
1000
0100
0010
0001
1000
0000
0001
0010
,
0100
1000
0001
0000
1000
0001
0000
0000
1000
0100
0010
0001
0010
0000
0001
0010
,
0100
0000
0000
0000
1000
0000
0000
0000
0100
0000
0000
0000
0000
0000
0000
0000
0010
0000
0000
0000
0001
0000
0000
0000
0010
0000
0000
0000
0100
0000
0000
0000
1000
0000
0000
0000
0100
0000
0000
0000
0010
0000
0000
0000
0002
0003
0000
0000
0020
0030
0000
0000
0200
0300
0000
0000
2000
3000
0000
0000
0100
0000
0000
0000
,
2000
0000
0000
3000
0000
0000
0000
0000
0000
0000
0000
0000
0010
0000
0000
0000
0000
0000
0000
0000
0000
0000
0000
0000
2000
0000
0000
3000
0000
0000
0000
0000
0000
0000
0000
0000
0001
0000
0000
0000
0000
0000
0000
0000
0000
0000
0000
0000
2000
0000
0000
3000
0000
0000
0000
0000
0000
0000
0000
0000
0001
0000
0000
0000
0000
0000
0000
0000
0000
0000
0000
0000
0010
0000
0000
0000
0000
0000
0000
0000
0000
0000
0000
0000
0001
0000
0000
0000
0000
0000
0000
0000
0000
0000
0000
0000
0100
0000
0000
0000
0000
0000
0000
0000
0000
0000
0000
0000
0010
0000
0000
0000
0000
0000
0000
0000
0000
0000
0000
0000
1000
0000
0000
0000
0000
0000
0000
0000
0000
0000
0000
0000
0100
0000
0000
0000
0000
0000
0000
0000
0000
0000
0000
0000
1000
0000
0000
0000
0000
0000
0000
0000
0000
0000
0000
0000
0010
0000
0000
0000
0000
0000
0000
0000
0000
0000
0000
0000
0100
0000
0000
0000
0000
0000
0000
0000
0000
0000
0000
0000
0000
0000
0000
0000
0000
0000
0000
0000
0002
0000
0000
0000
,
0003
0000
0000
0000
0020
0000
0000
0000
0030
0000
0000
0000
0002
0000
0000
0000
0003
0000
0000
0000
0200
0000
0000
0000
0300
0000
0000
0000
0002
0000
0000
0000
0003
0000
0000
0000
2000
0000
0000
0000
3000
0000
0000
0000
0002
0000
0000
0000
0003
0000
0000
0000
0200
0000
0000
0000
0300
0000
0000
0000
0002
0000
0000
0000
0003
0000
0000
0000
2000
0000
0000
0000
3000
0000
0000
0000
0002
0000
0000
0000
0003
0000
0000
0000
0010
0000
0000
0000
0000
0000
0000
0000
0000
0000
0000
0000
0001
0000
0000
0000
0000
0000
0000
0000
0000
0000
0000
0000
0100
0000
0000
0000
0000
0000
0000
0000
0000
0000
0000
0000
0002
0000
0000
0003
0000
0000
0000
0000
0000
0000
0000
0000
2000
0000
0000
3000
0000
0000
0000
0000
0000
0000
0000
0000
0020
0000
0000
0030
0000
0000
0000
0000
0000
0000
0000
0000
2000
0000
0000
3000
0000
0000
0000
0000
0000
0000
0000
0000
0200
0000
0000
0300
0000
0000
0000
0000
0000
0000
0000
0000
2000
0000
0000
3000
0000
0000
0000
0000
0000
0000
0000
0000
,
0001
0010
0001
0100
0001
0000
1000
0100
1000
0010
1000
0000
0001
1000
0001
0000
,
1000
0100
0010
0100
1000
0000
0001
0010
0100
0010
0001
0000
1000
0001
1000
0000
,
0001
0100
0010
1000
0100
0000
1000
0010
0100
0001
0010
0000
0100
0010
0100
0000
,
0010
0001
1000
0100
0000
0100
1000
0001
0010
0100
0000
0100
0010
0001
1000
0000
,
0001
0010
0001
0100
0001
0000
1000
0100
1000
0010
1000
0000
0001
1000
0001
0000
,
1000
0001
0100
0001
0010
0000
0001
1000
0010
1000
0100
0000
1000
0001
1000
0000
,
0010
0001
0100
0010
1000
0000
0100
1000
0010
0100
0001
0000
0100
0010
0100
0000
,
0001
1000
0100
1000
0001
0000
1000
0001
0010
0001
1000
0000
0010
0100
0010
0000
,
1000
0100
0010
0001
1000
0000
0001
0010
0100
1000
0010
0100
0001
0000
0011
0000
,
0010
0001
0100
0010
1000
0000
0100
1000
0010
0100
0001
0010
0001
0000
1001
0000
,
1000
0010
0100
0001
0010
0000
0100
1000
0010
0100
0001
1000
0100
0000
1100
0000
,
1000
0100
0010
0001
1000
0000
0001
0010
0100
0000
0010
0100
1000
0000
1001
0000
,
0001
0000
0010
0001
0010
0000
0001
1000
0001
0000
1000
0100
1000
0000
1001
0000
,
1000
0000
0010
1000
0010
0000
0100
0001
0100
0000
0010
0100
0010
0000
0110
0000
,
1000
0000
0100
0010
0001
0000
0010
0001
0100
0000
0010
1000
0100
0000
0110
0000
,
0001
0000
0010
0001
0100
0000
0010
1000
0100
0000
1000
0001
1000
0000
1001
0000
,
0001
0010
0100
1000
0100
0000
0010
0001
0100
0010
1000
0000
0110
0000
1001
0000
,
0010
0001
0100
0010
1000
0000
0010
0100
0001
1000
0100
0000
0110
0000
1001
0000
,
1000
0100
0010
0001
0010
0000
0001
0100
0010
1000
0100
0000
1100
0000
0011
0000
,
0010
0001
0010
0001
0010
0000
0100
1000
0100
1000
0100
0000
1010
0000
0101
0000
,
0001
0000
1000
0100
0010
0000
0100
0010
0001
0000
0010
0001
0100
0000
0001
0100
,
0010
0000
0100
0010
1000
0000
0010
1000
0100
0000
1000
0100
0010
0001
0010
0100
,
1000
0000
0001
0010
0100
0000
0010
0100
1000
0000
0001
0000
0100
0000
2000
0000
,
0000
3100
0001
0020
0000
0130
0110
0000
,
1001
0000
1000
0001
0100
0000
0001
0100
0010
0000
0100
0010
1000
0000
0010
1000
,
0100
0000
1000
0100
0010
0000
0100
0010
0001
0000
0010
0001
0100
0010
1000
0100
,
1000
0000
0000
0000
0000
0000
0000
0000
0100
0000
0000
0000
0000
0000
0000
0000
0001
0000
0000
0000
0000
0000
0000
0000
0200
0000
0000
0000
0000
0000
0000
0000
0000
0000
0000
0000
0000
0000
0000
0000
1300
0000
0000
0000
0000
0000
0000
0000
0010
0000
0000
0000
0000
0000
0000
0000
0002
0003
0000
0000
0020
0030
0000
0000
,
2000
3000
0000
0000
0200
0300
0000
0000
0002
0000
0000
0000
0000
0000
0000
0000
0200
0000
0000
0000
0000
0000
0000
0000
0000
0000
0000
0000
0000
0000
0000
0000
0303
0000
0000
0000
0000
0000
0000
0000
0000
0000
0000
0000
0000
0000
0000
0000
0000
0000
0000
0000
0000
0000
0000
0000
0000
0000
0000
0000
0000
0000
0000
0000
;
