#TITLE:Black Ice;
#SUBTITLE:;
#ARTIST:Wiest;
#TITLETRANSLIT:;
#SUBTITLETRANSLIT:;
#ARTISTTRANSLIT:;
#GENRE:;
#CREDIT:;
#MENUCOLOR:;
#METERTYPE:DDR;
#BANNER:blackice.png;
#BACKGROUND:blackice-bg.png;
#LYRICSPATH:;
#CDTITLE:!hiryuu.png;
#MUSIC:blackice.ogg;
#OFFSET:0.000;
#SAMPLESTART:52.984;
#SAMPLELENGTH:13.236;
#SELECTABLE:YES;
#LISTSORT:;
#BPMS:0.000=290.000,256.000=145.000,288.000=290.000,416.000=145.000,448.000=290.000;
#STOPS:;
#BGCHANGES:;
#ATTACKS:;

//---------------dance-single - SMANIAC----------------
#NOTES:
     dance-single:
     SMANIAC:
     Challenge:
     11:
     0.994,1.000,0.550,1.000,0.067:
0000
0000
0000
0000
,
0000
0000
0000
0000
,
0000
0000
0000
0000
,
0000
0000
0000
0000
,
0000
0000
0000
0000
,
0000
0000
0000
0000
,
0000
0000
0000
0000
,
0000
0000
0000
0000
,
1000
0000
0010
0000
0001
0000
0001
0010
,
0000
0010
1000
0000
0100
0010
0100
0010
,
0001
0000
0100
0000
1000
0000
1000
0100
,
0000
0100
0001
0000
0010
0100
0010
0100
,
1000
0000
0100
0000
0001
0000
0001
0100
,
0000
0100
1000
0000
0010
0100
0010
0100
,
0001
0000
0010
0000
1000
0000
1000
0010
,
0000
0010
0002
0000
2000
0000
3003
0000
,
1000
0000
0100
0000
0001
0000
0100
1000
,
0000
0100
0001
0000
0100
1000
0010
0100
,
0001
0000
0100
0000
1000
0000
0100
0001
,
0000
0100
1000
0000
0100
0001
0010
0100
,
1000
0000
0010
0000
0001
0000
0010
1000
,
0000
0010
0001
0000
0010
1000
0100
0010
,
0001
0000
0010
0000
1000
0000
0010
0001
,
0000
0010
2000
0000
0020
0000
3030
0000
,
0010
0000
0001
0000
0100
0000
0010
0100
,
0000
0100
0010
0000
1000
0100
0010
0001
,
0100
0000
0010
0000
1000
0000
0100
0010
,
0000
0010
0100
0000
0010
0001
1000
0100
,
0010
0000
0001
0000
1000
0000
0010
0100
,
0000
0100
0010
0000
1000
0010
0100
0001
,
0010
0000
0100
0000
1000
0000
0100
0010
,
0000
0010
0200
0000
0020
0000
0330
0000
,
0001
0000
0010
0000
0011
0000
0001
0010
,
0000
0010
0100
0000
0110
0000
1000
0000
,
0010
0000
1000
0000
1010
0000
0010
1000
,
0000
1000
0100
0000
0110
0000
0001
0000
,
0010
0000
0100
0000
0110
0000
0100
1000
,
0000
1000
0010
0000
0110
0000
0100
0000
,
0001
0000
0010
0000
1010
0000
0010
0001
,
0000
0001
0100
0000
0220
0000
0330
0000
,
0010
0000
1000
0000
1100
0000
0100
0010
,
0000
0010
0001
0000
0101
0000
0010
0000
,
1000
0000
0100
0000
0011
0000
0010
0001
,
0000
0001
0100
0000
1010
0000
1000
0000
,
0100
0000
0010
0000
0011
0000
0001
0100
,
0000
0100
0010
0000
1010
0000
0100
0000
,
0010
0000
0001
0000
1001
0000
1000
0001
,
0000
0001
1000
0000
2002
0000
3003
0000
,
1000
0000
0001
0000
1000
0000
0001
0010
,
0000
0001
1000
0000
0100
1000
0100
1000
,
0010
0000
0100
0000
0010
0000
0100
0001
,
0000
0100
0010
0000
1000
0010
1000
0010
,
1000
0000
0100
0000
0010
0000
0001
1000
,
0000
0001
0100
0000
0001
0010
0001
0010
,
0001
0000
0100
0000
0010
0000
1000
0100
,
0000
0010
0001
0000
2002
0000
3003
0000
,
0001
0000
0100
0000
0010
0000
1000
0100
,
0000
0010
0001
0000
1000
0100
0010
0100
,
1000
0000
0010
0000
0100
0000
0001
0010
,
0000
0100
1000
0000
0001
0010
0100
0010
,
0001
0000
0010
0000
0100
0000
1000
0010
,
0000
0100
0001
0000
0010
0001
0010
0100
,
0010
0000
0001
0000
0100
0000
0010
1000
,
0000
0001
1000
0000
2002
0000
3003
0000
,
0200
2300
3200
0320
0000
M100
013M
M100
,
0200
2300
3200
0320
0030
0002
0203
2300
,
3200
2300
3200
0320
0000
M100
013M
M100
,
0200
2300
3200
0302
0003
0002
0023
0030
,
0200
2300
3200
032M
M000
010M
1030
0100
,
0200
2300
3200
0320
0030
0002
0203
2300
,
3200
2300
3200
032M
M000
010M
1030
0100
,
0002
0000
2003
0000
3020
0000
2030
0000
3200
0000
13M0
0100
100M
0100
10M0
0100
,
1000
0100
0010
0001
MM11
0000
0001
0010
,
0100
0010
0001
0100
0010
1000
0100
1000
,
0010
0100
0001
0010
MM11
0000
0010
0100
,
1000
0010
0100
0010
1000
0100
0010
0001
,
1000
0010
0100
0010
1M1M
0000
1000
0010
,
0100
0001
0010
0001
0100
0010
1000
0100
,
1000
0010
1000
0100
22MM
3300
MM22
0000
,
0033
0000
M2M2
0303
2020
0M0M
3030
0000
,
1000
0010
0100
0001
MM11
0000
0010
0100
,
1000
0010
0100
0001
0010
0001
0100
0010
,
1000
0100
0010
0001
MM11
0000
0010
0001
,
0100
0010
1000
0100
1000
0010
0100
0001
,
1000
0100
1000
0010
M11M
0000
0010
1000
,
0100
1000
0001
0010
0001
0100
0010
1000
,
0002
0003
1MM1
0000
0020
0030
1M1M
0000
,
0200
0300
11MM
0000
1000
0010
1000
0100
,
1000
0010
1M20
M002
,
MM33
0000
0001
0010
1000
0100
0010
0001
,
0010
0001
M201
200M
,
33MM
0000
1000
0100
0001
0010
0100
1000
,
0100
0010
0M21
200M
,
3M3M
0000
1000
0010
0001
0100
0010
1000
,
0100
1000
12M0
M002
,
M3M3
M201
200M
33MM
,
1000
0010
M21M
00M2
,
M3M3
0000
0001
0010
1000
0010
0001
1000
,
0001
0100
M12M
200M
,
3M3M
0000
1000
0100
0001
0100
1000
0001
,
1000
0001
2M1M
00M2
,
3MM3
0000
0001
0010
0100
1000
0100
0010
,
0M02
1003
002M
1030
,
02M0
0000
1300
0000
0001
0100
0010
1000
,
0002
0000
0M00
0023
M000
0000
0230
0000
000M
0000
23M0
0000
3200
0000
23MM
0000
,
3002
0000
0M00
0023
M000
0000
023M
0000
0000
0000
M00M
0000
0300
0000
MMMM
0000
,
0002
0000
0M00
0023
M000
0000
0230
0000
000M
0000
23M0
0000
32M0
0000
230M
0000
,
32M0
0000
000M
0320
0000
0000
M032
0000
0M00
0000
M000
0000
0003
0000
MMMM
0000
,
0002
0000
0M00
0023
0000
0000
M230
0000
0000
0000
23M0
0000
320M
0000
1300
0000
,
1M1M
0000
0000
0010
0M00
0010
M001
0000
MM11
0000
0000
0010
1M00
0000
1MM1
0000
,
0002
0000
0M00
0023
M000
0000
0230
0000
000M
0000
23M0
0000
320M
0000
230M
0000
,
32M0
0000
000M
0320
M000
0000
0M32
0000
0000
0000
1M03
0001
1MM0
0001
00M0
0001
,
MM22
0033
0000
M22M
0330
0000
2M2M
0000
,
3M3M
1000
0010
0001
,
M1M1
0000
11MM
0000
M1M1
0000
0001
0100
,
0000
10M0
0100
0000
M001
0100
0000
1000
,
22M0
330M
0000
022M
M330
0000
220M
00M0
,
330M
00M0
1000
0000
0100
0000
0001
0000
,
MM11
0000
1M1M
0000
MM11
0000
0001
0M10
,
0000
100M
0010
0000
0M01
0010
0000
1000
,
2020
3030
0000
0220
M33M
0000
0022
0000
,
0033
0001
0100
1000
,
11MM
0000
M1M1
0000
11MM
0000
0100
00M1
,
M000
0100
10M0
0000
0100
0001
0000
0100
,
22MM
3300
0000
M22M
0330
0000
M2M2
0000
,
M3M3
0001
0010
1000
,
1M1M
0000
MM11
0000
1M1M
0000
M010
0001
,
0M00
0010
200M
0000
020M
00M0
000M
00M0
,
330M
0000
0000
0000
;

//---------------dance-single - MANIAC----------------
#NOTES:
     dance-single:
     MANIAC:
     Hard:
     9:
     0.682,0.747,0.575,0.375,0.029:
0000
0000
0000
0000
,
0000
0000
0000
0000
,
0000
0000
0000
0000
,
0000
0000
0000
0000
,
0000
0000
0000
0000
,
0000
0000
0000
0000
,
0000
0000
0000
0000
,
0000
0000
0000
0000
,
1000
0000
0100
0000
0001
0000
0000
0100
,
0000
0001
0100
1000
,
0010
0000
0001
0000
0010
0000
0000
1000
,
0000
0100
0001
0100
,
1000
0000
0010
0000
0001
0000
0000
0010
,
0000
1000
0100
0001
,
0100
1000
1010
0000
,
0100
0001
0101
0000
,
0001
0000
0100
0000
0010
0000
0100
0010
,
0000
0100
0010
0000
1000
0000
0100
0000
,
0010
0000
0001
0000
0010
0000
0100
0010
,
0000
0100
0010
0000
0100
0000
1000
0000
,
0010
0000
0100
0000
0001
0000
1000
0001
,
0000
1000
0001
0000
0100
0000
0010
0000
,
1000
0100
0110
0000
,
0010
0001
0101
0000
,
0100
0000
0010
0000
1000
0000
0100
0010
,
0000
0100
0010
0000
0001
0000
0010
0000
,
0100
0000
1000
0000
0010
0000
0100
0010
,
0000
0100
0010
0000
0100
0000
0001
0000
,
0100
0000
0010
0000
1000
0000
0001
1000
,
0000
0001
1000
0000
0001
0000
0010
0000
,
0001
0100
0110
0000
,
0010
1000
1100
0000
,
1000
0100
0010
0001
,
0010
0001
0100
0010
,
1000
0010
0100
0001
,
1000
0100
1000
0001
,
0010
0001
1000
0010
,
1000
0001
0010
0001
,
1000
0100
0110
0000
,
0010
0001
0101
0000
,
0001
0010
0100
1000
,
0010
0100
0110
0010
,
1000
0100
0010
0100
,
1000
0001
0011
0001
,
0100
0010
1000
0001
,
0010
0100
1100
1000
,
0010
0100
0101
0000
,
0010
1000
1100
0000
,
1000
0000
0100
0000
0010
0000
0001
0010
,
0000
0100
1000
0000
1001
0000
1000
0000
,
0010
0000
0100
0000
0001
0000
1000
0001
,
0000
0001
1000
0000
1100
0000
1000
0000
,
0100
0000
0010
0000
0100
0000
1000
0100
,
0000
0010
0001
0000
1001
0000
0001
0000
,
1000
0010
1010
0000
,
0100
0001
0101
0000
,
0100
0000
0010
0000
1000
0000
0100
0010
,
0000
0001
1000
0000
1100
0000
1000
0000
,
0001
0000
0100
0000
0010
0000
0100
0010
,
0000
1000
0100
0000
1100
0000
0001
0000
,
0010
0000
0001
0000
0100
0000
0010
1000
,
0000
0010
0100
0000
0101
0000
0010
0000
,
0001
0010
0110
0000
,
0100
1000
2200
3300
,
1000
0100
1000
0020
0000
0000
0000
0030
,
1000
0100
0010
0002
0000
1003
0100
1000
,
0010
1000
0100
0020
0000
0000
0000
0030
,
0001
0010
0001
0200
0000
0310
0020
0000
,
1030
0100
1000
0020
0000
0000
0000
0030
,
1000
0010
0100
0002
0000
0103
0010
1000
,
0001
1000
0010
2000
0000
0000
0000
3000
,
0200
2300
3020
0230
,
0310
1000
0010
0220
,
0030
0010
0010
0310
,
1000
0100
0010
0011
,
0000
0101
0100
0010
,
1000
0100
1000
2020
,
0030
0010
0010
3010
,
0100
0001
0010
0220
,
0330
0100
2200
3300
,
1000
0100
1000
2020
,
3000
1000
1000
1030
,
0100
0010
0001
0101
,
0000
0110
0010
1000
,
0100
1000
0010
0220
,
0300
0100
0100
0130
,
0020
1030
0002
0103
,
0020
0000
1030
0000
0010
1000
0010
1000
,
0010
0100
0001
0011
,
0000
0001
0010
0100
,
1000
0010
0100
0110
,
0000
0010
1000
0100
,
0010
0001
0100
0110
,
0000
0010
1000
0100
,
1000
0010
0100
0220
,
0330
0001
2002
3003
,
1000
0100
0010
0011
,
0000
0001
0010
0001
,
1000
0100
1000
1010
,
0000
1000
0001
0010
,
0001
1000
0100
0011
,
0000
0010
0001
0100
,
0020
0130
0200
0310
,
2000
0000
3001
0000
0001
1000
0001
1000
,
0001
0000
0000
0001
0000
0000
0002
0000
0000
0000
1003
0000
0100
0000
1000
0000
,
0100
0000
0000
0100
0000
0000
0200
0000
0000
0000
0000
0000
0000
0000
0000
0000
,
1300
0000
0000
1000
0000
0000
2000
0000
0000
0000
3010
0000
0100
0000
0010
0000
,
0100
0000
0000
0100
0000
0000
0200
0000
0000
0000
0000
0000
0000
0000
0000
0000
,
0310
0000
0000
0010
0000
0000
0020
0000
0000
0000
1030
0000
0100
0000
1000
0000
,
1100
0100
1100
1000
,
0100
0000
0000
0100
0000
0000
0200
0000
0000
0000
0310
0000
0001
0000
0010
0000
,
0001
0000
0000
0001
0000
0000
0002
0000
0000
0000
0000
0000
0003
0000
0000
0000
,
1001
0000
0000
0101
0000
0000
1001
0000
,
0000
1000
0100
1000
,
1100
0000
0000
1010
0000
0000
1100
0000
,
0000
1000
0100
0010
,
0011
0000
0000
0101
0000
0000
0011
0000
,
0000
0001
0100
0010
,
0110
0000
0000
1001
0000
0000
0110
0000
,
0000
0010
1000
0100
,
0110
0000
0000
0011
0000
0000
0110
0000
,
0000
0100
1000
0010
,
0110
0000
0000
1010
0000
0000
0110
0000
,
0000
0010
0100
0001
,
0011
0000
0000
0110
0000
0000
1100
0000
,
0000
1000
0100
1000
,
1100
0000
0000
0110
0000
0000
0011
0000
,
0000
1001
0000
0000
0220
0000
0000
0000
,
0330
0000
0000
0000
;

//---------------dance-single - TRICKY----------------
#NOTES:
     dance-single:
     TRICKY:
     Medium:
     6:
     0.388,0.533,0.275,0.092,0.000:
0000
0000
0000
0000
,
0000
0000
0000
0000
,
0000
0000
0000
0000
,
0000
0000
0000
0000
,
0000
0000
0000
0000
,
0000
0000
0000
0000
,
0000
0000
0000
0000
,
0000
0000
0000
0000
,
1000
0000
0100
0000
,
1000
0000
1100
0000
,
0001
0000
0100
0000
,
0001
0000
0101
0000
,
0001
0000
0010
0000
,
0100
0000
1100
0000
,
1000
0100
1000
0000
,
0001
0010
0001
0000
,
1000
0000
1000
0000
,
1000
0000
1001
0000
,
0001
0000
0001
0000
,
0001
0000
0101
0000
,
0100
0000
0010
0000
,
0100
0000
0110
0000
,
0010
1000
0010
0000
,
0100
0001
0100
0000
,
0001
0000
0010
0000
,
0100
0000
1100
0000
,
1000
0000
0010
0000
,
0100
0000
0101
0000
,
0001
0000
0010
0000
,
0001
0000
1001
0000
,
1000
0100
0010
0000
,
0100
0010
0001
0000
,
1000
0000
1000
0000
,
1000
0000
1000
0000
,
0001
0000
0001
0000
,
0001
0000
0001
0000
,
0100
0000
0100
0000
,
0100
0000
0100
0000
,
0010
0000
0010
0000
,
0010
0000
0010
0000
,
1000
0000
0100
0000
,
1000
0000
0100
0000
,
0010
0000
0001
0000
,
0010
0000
0001
0000
,
1000
0000
0100
0000
,
0010
0000
0001
0000
,
0100
0000
0010
0000
,
1000
0000
0001
0000
,
1000
0000
0100
0000
,
1000
0000
1100
0000
,
0001
0000
0010
0000
,
0001
0000
0011
0000
,
0001
0000
0010
0000
,
0100
0000
1100
0000
,
1000
0100
0010
0000
,
0001
0010
0100
0000
,
1000
0000
0100
0000
,
0010
0000
0110
0000
,
0010
0000
0100
0000
,
1000
0000
1100
0000
,
1000
0000
0010
0000
,
0100
0000
0110
0000
,
0010
1000
0010
0000
,
0100
0001
0200
0000
,
0301
0000
0001
0000
,
0010
0000
0010
0000
,
0100
0000
0100
0000
,
1000
0000
1000
0000
,
0010
0000
0100
0000
,
0001
0000
1000
0000
,
0100
0000
0010
0000
,
0001
0001
1000
1000
,
0001
0000
0001
0000
,
0010
0001
0010
0000
,
0001
0000
0100
0000
,
0010
0000
1000
0000
,
0100
0000
0100
0000
,
1000
0100
1000
0000
,
0100
0000
1000
0000
,
0001
0000
0010
0000
,
0001
0000
0100
0000
,
0010
0100
0010
0000
,
1000
0000
0100
0000
,
1000
0000
0001
0000
,
0010
0000
0010
0000
,
0001
0010
0001
0000
,
0010
0000
0010
0000
,
0100
0000
0100
0000
,
1000
0100
1000
0200
,
0000
0000
0310
0000
,
0001
0010
0001
0020
,
0000
0031
0010
0001
,
0010
0001
0100
0020
,
0000
0000
0130
0000
,
0010
0100
0010
2000
,
0000
0000
3100
0000
,
1000
0100
1000
0200
,
0000
0000
0310
0000
,
0001
0010
0001
0020
,
0000
0031
0010
0001
,
0010
0001
0100
0020
,
0000
0000
0130
0000
,
0010
1000
0010
1000
,
0001
0100
0001
0100
,
0001
0001
0100
0100
,
0010
0010
1000
1000
,
0100
0100
0010
0010
,
0001
0001
1000
1000
,
0100
1000
0100
1000
,
1100
0000
0011
0000
,
1000
0100
0010
0001
,
0200
0000
0000
0000
,
0310
0000
0100
0000
,
0010
0000
0100
0000
,
0110
0000
0110
0000
,
1001
0000
1001
0000
,
1000
0000
0100
0000
,
0010
0000
0001
0000
,
0011
0000
0011
0000
,
1100
0000
1100
0000
,
1000
0000
0010
0000
,
1000
0000
0001
0000
,
1100
0000
1010
0000
,
1100
0000
1001
0000
,
0001
0000
0100
0000
,
0001
0000
1000
0000
,
0011
0000
1001
0000
,
0011
0000
0220
0000
,
0330
0000
0000
0000
;

//---------------dance-single - BASIC----------------
#NOTES:
     dance-single:
     BASIC:
     Easy:
     3:
     0.189,0.373,0.008,0.233,0.000:
0000
0000
0000
0000
,
0000
0000
0000
0000
,
0000
0000
0000
0000
,
0000
0000
0000
0000
,
0000
0000
0000
0000
,
0000
0000
0000
0000
,
0000
0000
0000
0000
,
0000
0000
0000
0000
,
1000
0000
0000
0000
,
0001
0000
0000
0000
,
0100
0000
0000
0000
,
0010
0000
0000
0000
,
1000
0000
0000
0000
,
0100
0000
0000
0000
,
0010
0000
0010
0000
,
0001
0000
0001
0000
,
1000
0000
0000
0000
,
0100
0000
0000
0000
,
1000
0000
0000
0000
,
0010
0000
0000
0000
,
1000
0000
0000
0000
,
0001
0000
0000
0000
,
1000
0000
0100
0000
,
1000
0000
0001
0000
,
0100
0000
0000
0000
,
0010
0000
0000
0000
,
0100
0000
0000
0000
,
0001
0000
0000
0000
,
0100
0000
0000
0000
,
0010
0000
0000
0000
,
0100
0000
0010
0000
,
0100
0000
0001
0000
,
0002
0000
0000
0000
,
0000
0000
0000
0000
,
0203
0000
0000
0000
,
0000
0000
0000
0000
,
0320
0000
0000
0000
,
0000
0000
0000
0000
,
2030
0000
0000
0000
,
0000
0000
0000
0000
,
3200
0000
0000
0000
,
0000
0000
0000
0000
,
0320
0000
0000
0000
,
0000
0000
0000
0000
,
0032
0000
0000
0000
,
0000
0000
0000
0000
,
2000
0000
0000
0000
,
0000
0000
0000
3003
,
1000
0000
0000
0000
,
0001
0000
0000
0000
,
0100
0000
0000
0000
,
0010
0000
0000
0000
,
1000
0000
0000
0000
,
0100
0000
0000
0000
,
0010
0000
0001
0000
,
0010
0000
0001
0000
,
0100
0000
0000
0000
,
0010
0000
0000
0000
,
1000
0000
0000
0000
,
0100
0000
0000
0000
,
1000
0000
0000
0000
,
0001
0000
0000
0000
,
0100
0000
0100
0000
,
0010
0000
0010
0000
,
1000
0000
1000
0000
,
1000
0000
1000
0000
,
0001
0000
0001
0000
,
0001
0000
0001
0000
,
0100
0000
0010
0000
,
1000
0000
0001
0000
,
0010
0000
0001
0000
,
0010
0000
0100
0000
,
2000
0000
0000
0000
,
3000
0000
0000
0000
,
0002
0000
0000
0000
,
0003
0000
0000
0000
,
0200
0000
0000
0000
,
0300
0000
0000
0000
,
0020
0000
0000
0000
,
0030
0000
0000
0000
,
2000
0000
0000
0000
,
3100
0000
0000
0000
,
0200
0000
0000
0000
,
0310
0000
0000
0000
,
0020
0000
0000
0000
,
0031
0000
0000
0000
,
0001
0000
0001
0000
,
0001
0000
0001
0000
,
0002
0000
0000
0000
,
0003
0000
0000
0000
,
0020
0000
0000
0000
,
0030
0000
0000
0000
,
0200
0000
0000
0000
,
0300
0000
0000
0000
,
2000
0000
0000
0000
,
3000
0000
0000
0000
,
0200
0000
0000
0000
,
0310
0000
0000
0000
,
0002
0000
0000
0000
,
1003
0000
0000
0000
,
0200
0000
0000
0000
,
1300
0000
0000
0000
,
1000
0000
1000
0000
,
1000
0000
1000
0000
,
2000
0000
0000
0000
,
0000
0000
0000
0000
,
3002
0000
0000
0000
,
0000
0000
0000
0000
,
0203
0000
0000
0000
,
0000
0000
0000
0000
,
0320
0000
0000
0000
,
0000
0000
0000
0000
,
0130
0000
0000
0000
,
0100
0000
0000
0000
,
0010
0000
0010
0000
,
0010
0000
0010
0000
,
1000
0000
0000
0000
,
1000
0000
0000
0000
,
0001
0000
0001
0000
,
0001
0000
0001
0000
,
0010
0000
0000
0000
,
0100
0000
0000
0000
,
1000
0000
0001
0000
,
1000
0000
0001
0000
,
0100
0000
0000
0000
,
0010
0000
0000
0000
,
1000
0000
0100
0000
,
0010
0000
0220
0000
,
0330
0000
0000
0000
;

//---------------dance-single - SIMPLE----------------
#NOTES:
     dance-single:
     SIMPLE:
     Beginner:
     1:
     0.011,0.106,0.008,0.000,0.000: // measure 1
0000
0000
0000
0000
,  // measure 2
0000
0000
0000
0000
,  // measure 3
0000
0000
0000
0000
,  // measure 4
0000
0000
0000
0000
,  // measure 5
0000
0000
0000
0000
,  // measure 6
0000
0000
0000
0000
,  // measure 7
0000
0000
0000
0000
,  // measure 8
0000
0000
0000
0000
,  // measure 9
1000
0000
0000
0000
,  // measure 10
0000
0000
0000
0000
,  // measure 11
0000
0000
0000
0000
,  // measure 12
0000
0000
0000
0000
,  // measure 13
0000
0000
0000
0000
,  // measure 14
0000
0000
0000
0000
,  // measure 15
0000
0000
0000
0000
,  // measure 16
0000
0000
0000
0000
,  // measure 17
0001
0000
0000
0000
,  // measure 18
0000
0000
0000
0000
,  // measure 19
0000
0000
0000
0000
,  // measure 20
0000
0000
0000
0000
,  // measure 21
0000
0000
0000
0000
,  // measure 22
0000
0000
0000
0000
,  // measure 23
0000
0000
0000
0000
,  // measure 24
0000
0000
0000
0000
,  // measure 25
0100
0000
0000
0000
,  // measure 26
0000
0000
0000
0000
,  // measure 27
0000
0000
0000
0000
,  // measure 28
0000
0000
0000
0000
,  // measure 29
0000
0000
0000
0000
,  // measure 30
0000
0000
0000
0000
,  // measure 31
0000
0000
0000
0000
,  // measure 32
0000
0000
0000
0000
,  // measure 33
0000
0000
0000
0000
,  // measure 34
0000
0000
0000
0000
,  // measure 35
0000
0000
0000
0000
,  // measure 36
0000
0000
0000
0000
,  // measure 37
0000
0000
0000
0000
,  // measure 38
0000
0000
0000
0000
,  // measure 39
0000
0000
0000
0000
,  // measure 40
0000
0000
0000
0000
,  // measure 41
0000
0000
0000
0000
,  // measure 42
0000
0000
0000
0000
,  // measure 43
0000
0000
0000
0000
,  // measure 44
0000
0000
0000
0000
,  // measure 45
0000
0000
0000
0000
,  // measure 46
0000
0000
0000
0000
,  // measure 47
0000
0000
0000
0000
,  // measure 48
0000
0000
0000
0000
,  // measure 49
0001
0000
0000
0000
,  // measure 50
0000
0000
0000
0000
,  // measure 51
0000
0000
0000
0000
,  // measure 52
0000
0000
0000
0000
,  // measure 53
0000
0000
0000
0000
,  // measure 54
0000
0000
0000
0000
,  // measure 55
0000
0000
0000
0000
,  // measure 56
0000
0000
0000
0000
,  // measure 57
1000
0000
0000
0000
,  // measure 58
0000
0000
0000
0000
,  // measure 59
0000
0000
0000
0000
,  // measure 60
0000
0000
0000
0000
,  // measure 61
0000
0000
0000
0000
,  // measure 62
0000
0000
0000
0000
,  // measure 63
0000
0000
0000
0000
,  // measure 64
0000
0000
0000
0000
,  // measure 65
0000
0000
0000
0000
,  // measure 66
0000
0000
0000
0000
,  // measure 67
0000
0000
0000
0000
,  // measure 68
0000
0000
0000
0000
,  // measure 69
0000
0000
0000
0000
,  // measure 70
0000
0000
0000
0000
,  // measure 71
0000
0000
0000
0000
,  // measure 72
0000
0000
0000
0000
,  // measure 73
0100
0000
0000
0000
,  // measure 74
0000
0000
0000
0000
,  // measure 75
0000
0000
0000
0000
,  // measure 76
0000
0000
0000
0000
,  // measure 77
0000
0000
0000
0000
,  // measure 78
0000
0000
0000
0000
,  // measure 79
0000
0000
0000
0000
,  // measure 80
0000
0000
0000
0000
,  // measure 81
0000
0000
0000
0000
,  // measure 82
0000
0000
0000
0000
,  // measure 83
0000
0000
0000
0000
,  // measure 84
0000
0000
0000
0000
,  // measure 85
0000
0000
0000
0000
,  // measure 86
0000
0000
0000
0000
,  // measure 87
0000
0000
0000
0000
,  // measure 88
0000
0000
0000
0000
,  // measure 89
0000
0000
0000
0000
,  // measure 90
0000
0000
0000
0000
,  // measure 91
0000
0000
0000
0000
,  // measure 92
0000
0000
0000
0000
,  // measure 93
0000
0000
0000
0000
,  // measure 94
0000
0000
0000
0000
,  // measure 95
0000
0000
0000
0000
,  // measure 96
0000
0000
0000
0000
,  // measure 97
0000
0000
0000
0000
,  // measure 98
0000
0000
0000
0000
,  // measure 99
0000
0000
0000
0000
,  // measure 100
0000
0000
0000
0000
,  // measure 101
0000
0000
0000
0000
,  // measure 102
0000
0000
0000
0000
,  // measure 103
0000
0000
0000
0000
,  // measure 104
0000
0000
0000
0000
,  // measure 105
1000
0000
0000
0000
,  // measure 106
0000
0000
0000
0000
,  // measure 107
0000
0000
0000
0000
,  // measure 108
0000
0000
0000
0000
,  // measure 109
0000
0000
0000
0000
,  // measure 110
0000
0000
0000
0000
,  // measure 111
0000
0000
0000
0000
,  // measure 112
0000
0000
0000
0000
,  // measure 113
0000
0000
0000
0000
,  // measure 114
0000
0000
0000
0000
,  // measure 115
0000
0000
0000
0000
,  // measure 116
0000
0000
0000
0000
,  // measure 117
0000
0000
0000
0000
,  // measure 118
0000
0000
0000
0000
,  // measure 119
0000
0000
0000
0000
,  // measure 120
0000
0000
0000
0000
,  // measure 121
0000
0000
0000
0000
,  // measure 122
0000
0000
0000
0000
,  // measure 123
0000
0000
0000
0000
,  // measure 124
0000
0000
0000
0000
,  // measure 125
0000
0000
0000
0000
,  // measure 126
0000
0000
0000
0000
,  // measure 127
0000
0000
0000
0000
,  // measure 128
0000
0000
1001
0000
;
