#TITLE:Awakening the Chaos;
#SUBTITLE:[BlazBlue];
#ARTIST:Daisuke Ishiwatari;
#TITLETRANSLIT:;
#SUBTITLETRANSLIT:;
#ARTISTTRANSLIT:;
#GENRE:;
#CREDIT:;
#MENUCOLOR:;
#METERTYPE:DDR;
#BANNER:atc.png;
#BACKGROUND:atc-bg.png;
#LYRICSPATH:;
#CDTITLE:!hiryuu.png;
#MUSIC:atc.ogg;
#OFFSET:0.000;
#SAMPLESTART:55.477;
#SAMPLELENGTH:26.134;
#SELECTABLE:YES;
#LISTSORT:;
#BPMS:0.000=294.180,144.000=147.090,176.000=294.180;
#STOPS:;
#BGCHANGES:;
#ATTACKS:;

//---------------dance-single - ----------------
#NOTES:
     dance-single:
     MANIAC:
     Hard:
     11:
     1.000,1.000,0.775,0.637,0.154:
1001
0000
0001
0010
0100
0010
0001
0100
,
0010
1000
0100
1000
0010
0100
0110
0000
,
0110
0000
0010
0100
1000
0100
0020
0000
,
1030
0000
0200
0000
0310
0000
0002
0003
,
1001
0000
1000
0100
0010
0100
1000
0010
,
0100
0001
0010
0100
0010
0001
1001
0000
,
1000
0100
0010
0001
1000
0100
0010
0001
,
1000
0100
0010
0001
0100
0010
1000
0001
,
1001
0000
0001
0010
0100
1000
0020
0000
,
1030
0100
0010
0001
0200
0000
0310
0000
,
0110
0000
0110
0000
0010
1000
0100
0000
,
0010
0001
0100
0010
1000
0000
0001
1000
,
1001
0000
0001
0100
0010
1000
0100
0000
,
1000
0010
0100
0001
0010
0000
0001
1000
,
0001
0010
0100
1000
0001
0010
0100
1000
,
0001
0010
0100
1000
0100
0010
0001
1000
,
1001
0000
0001
0010
0100
1000
1100
0000
,
0000
0110
0000
0000
0011
0000
0001
0000
,
0110
0000
0010
0001
0100
0010
0220
0000
,
0330
1001
0220
0330
,
1001
0000
1000
0100
0010
0001
0011
0000
,
0000
0110
0000
0000
1100
0000
1000
0000
,
0001
0010
0100
1000
0100
0010
0001
0000
,
1000
0100
0010
0100
1000
0000
0010
0000
,
0110
0000
0010
1000
0100
0000
0011
0000
,
0000
0110
0000
0000
1100
0000
1000
0000
,
1001
0000
0001
0010
0100
1000
1001
0000
,
1000
0010
0100
0001
1001
0000
0001
0000
,
1001
0000
1000
0100
0010
0001
0101
0000
,
0000
0110
0000
0000
1010
0000
1000
0000
,
1000
0100
0010
0001
0010
0100
1000
0000
,
0001
0010
0100
0010
0001
0000
1000
0000
,
2001
0001
0001
0001
,
0000
0010
0010
3010
,
0120
0000
0100
0000
0130
0000
1000
0100
,
0010
0000
0010
0001
0100
0010
1000
0000
,
0001
0000
0010
0001
0010
0000
0001
0000
0010
0001
0010
0001
0010
0000
0100
0000
,
1000
0000
0100
1000
0100
0000
1000
0000
0100
1000
0100
1000
0100
0000
1000
0000
,
0010
0000
0100
0010
0100
0000
0010
0000
0100
0010
0100
0010
0100
0000
0010
0000
,
0100
0000
0001
0100
0001
0000
0100
0000
0001
0010
0100
0010
0001
0000
0100
0001
,
1000
0000
0001
1000
0001
0000
1000
0000
0001
1000
0001
1000
0001
0000
1000
0000
,
0010
0000
1000
0010
1000
0000
1010
0000
1000
0000
1001
0000
1000
0010
1000
0000
,
0001
0000
0100
0001
0100
0000
0001
0000
0100
0001
0100
0001
0100
0000
0001
0000
,
1000
0000
0001
1000
0010
1000
0001
0100
0001
0010
0001
1000
0010
0100
0010
1000
,
1001
0000
0001
0010
0100
0000
0110
0000
,
0100
0000
0100
0010
0001
0000
0101
0000
,
0001
0000
0001
0100
0010
0000
1010
0000
,
1000
0000
1000
0010
0100
0000
0110
0000
,
0010
0000
1000
0100
0010
0000
0110
0000
,
0100
0000
0010
0001
1000
0000
1001
0000
,
1000
0100
1000
0100
1000
0100
1000
0100
,
0010
0001
0010
0001
0010
0001
0010
0001
,
1001
0000
1000
0100
0010
0000
0110
0000
,
0010
0000
0001
0100
0010
0000
0110
0000
,
0100
0000
0010
1000
0100
0000
1100
0000
,
1000
0000
0100
0010
0001
0000
0011
0000
,
0001
0010
0001
0000
1000
0100
1000
0000
,
0010
0100
0010
0000
1001
0000
0110
0000
,
2002
0000
0000
0000
0000
0000
0000
3003
,
0001
0010
0100
1000
0001
0000
1000
0100
,
0020
0031
0200
0301
,
2000
3001
0200
0301
,
0020
0000
0031
0010
0001
0000
1001
0000
,
0001
0000
1000
0010
1000
0000
1001
0000
,
0200
1300
0020
1030
,
0002
1003
0020
1030
,
0200
0000
1300
0100
1000
0000
1001
0000
,
1000
0000
0001
0100
0001
0000
1001
0000
,
0002
0013
0002
0103
,
0002
1003
0002
0103
,
0002
0000
1003
0100
1000
0000
1001
0000
,
2000
3100
2000
3010
,
2000
3001
2000
3010
,
2000
3100
2000
3001
,
1001
0000
1000
0001
1000
0000
0010
0000
,
0100
0010
0100
0010
1000
0001
1000
0001
,
2000
3100
0020
0031
,
0200
0310
2000
3001
,
0020
0000
0130
0010
0100
0000
0110
0000
,
0100
0000
1000
0001
1000
0000
1001
0000
,
0002
0013
0200
1300
,
0020
0130
0002
1003
,
0002
0000
1003
0100
1000
0000
1100
0000
,
1000
0000
0001
0010
0001
0000
0011
0000
,
0002
0013
0020
0130
,
0200
1300
2000
3001
,
1001
0000
1000
0001
1000
0000
0001
0000
,
2000
3100
0200
0310
,
0020
0000
0031
0000
0002
0000
0013
0001
,
0010
0000
0001
0010
0100
1000
0100
0010
,
0220
0000
0000
0000
0000
0000
0000
0000
0000
0000
0000
0000
0330
0000
0001
2000
,
0002
0000
0000
3003
,
1001
0000
0001
0010
0001
0010
1001
0000
,
0000
1001
0000
0000
0011
0000
0001
0000
,
0011
0000
0001
0010
0001
0100
0001
0000
,
1000
0100
1000
0010
1000
0000
0001
0000
,
1001
0000
1000
0100
1000
0100
1001
0000
,
0000
1001
0000
0000
0101
0000
0001
0000
,
0202
0000
0303
0000
0001
0010
0100
0000
,
1000
0010
0100
0010
1000
0100
0010
0002
,
2000
0000
0000
0000
,
0000
0000
0000
0000
,
0000
0000
0000
0000
,
0000
0000
0000
0000
,
3003
0000
0000
0000
;

//---------------dance-single - ----------------
#NOTES:
     dance-single:
     TRICKY:
     Medium:
     8:
     0.545,0.829,0.531,0.988,0.000:
0000
0000
0000
0000
,
0000
0000
0000
0000
,
0000
0000
0000
0000
,
0000
0000
0000
0000
,
0000
0000
0000
0000
,
0000
0000
0000
0000
,
0000
0000
0000
0000
,
0000
0000
0000
0000
,
1001
0001
0010
0100
,
1000
0010
0100
0000
,
1001
1001
0001
0010
,
0001
1000
0100
0000
,
1001
1000
0010
0100
,
0010
1000
0100
0000
,
2200
0000
0000
0000
,
0000
0000
0000
3300
,
1100
0100
0010
0011
,
0000
0011
0000
0000
0011
0000
0000
0000
,
0101
0100
0010
1010
,
1000
0100
0110
0000
,
1001
1000
0100
0110
,
0000
0110
0000
0000
0110
0000
0000
0000
,
0012
0000
0100
0000
,
1000
0000
0100
0003
,
0101
0100
0010
1010
,
0000
1010
0000
0000
1010
0000
0000
0000
,
1100
0100
0010
0011
,
0001
0100
0110
0000
,
1010
0010
0100
0101
,
0000
0101
0000
0000
0101
0000
0000
0000
,
1002
0000
0100
0000
,
0010
0000
0100
0003
,
2002
0000
0000
0000
,
0000
0000
0000
3000
,
0200
0000
0303
0001
,
0010
0100
0010
0001
,
1001
0000
1000
0002
0000
0013
0100
0010
,
0100
1000
2000
0000
0000
3001
0010
0200
,
0000
1300
0010
0100
0001
0010
0100
1000
,
2000
0000
0000
0000
0000
0000
3001
1000
,
1001
0000
0001
1000
0000
0100
0010
0100
,
0010
0001
0002
0000
0000
1003
0100
1000
,
1000
0100
0010
0001
1000
0100
0010
0100
,
1100
0000
0000
0000
0110
0000
0100
0010
,
0002
0000
0000
2003
,
0000
0000
3020
0230
,
0000
0000
0000
0302
,
0000
0000
0023
0000
,
0000
0032
0000
0000
,
0000
0000
0000
0000
2000
0000
0000
3000
,
0020
0000
0000
0000
0000
0000
0000
0030
,
0200
0000
0000
0300
1003
0000
0100
0000
,
0020
0000
0000
0032
,
0000
0000
2003
3200
,
0000
0000
0000
0320
,
0000
0000
0032
0000
,
2003
0000
0000
0002
0000
0000
0000
0000
,
0000
0000
0000
3003
,
0220
0000
0000
0330
,
0001
1000
0001
1000
,
0002
0000
0000
0000
2000
0000
0000
3000
,
0020
0000
0000
0030
0200
0000
0000
0300
,
0020
0000
0000
0030
2000
0000
0000
0000
,
0000
0000
0000
0000
0000
0000
0000
0003
,
0200
0000
0000
0300
0002
0000
0000
0003
,
0020
0000
0000
0030
0200
0000
0000
0300
,
0002
0000
0000
0003
0020
0000
0000
0000
,
0000
0000
0000
0000
0000
0000
0000
3000
,
0002
0000
0000
0003
0200
0000
0000
0300
,
2000
0000
0000
3000
0002
0000
0000
0003
,
0200
0000
0000
0000
0000
0000
0000
0030
,
2000
0000
0000
3000
0020
0000
0000
0030
,
0002
0000
0000
0003
2000
0000
0000
3000
,
0020
0000
0000
0030
0002
0000
0000
0303
,
2002
0000
0000
3003
,
0220
0000
0000
0330
,
0002
0000
0000
0000
2000
0000
0000
3000
,
0020
0000
0000
0030
0200
0000
0000
0300
,
0020
0000
0000
0030
2000
0000
0000
0000
,
0000
0000
0000
0000
0000
0000
0000
0003
,
0200
0000
0000
0300
0002
0000
0000
0003
,
0020
0000
0000
0030
0200
0000
0000
0300
,
0002
0000
0000
0003
0020
0000
0000
0000
,
0000
0000
0000
0000
0000
0000
0000
3000
,
0002
0000
0000
0003
0200
0000
0000
0300
,
2000
0000
0000
3000
0002
0000
0000
0003
,
0200
0000
0000
0000
0000
0000
0000
0030
,
2000
0000
0000
3000
0020
0000
0000
0030
,
0002
0000
0000
0003
2000
0000
0000
3000
,
0020
0000
0000
0030
0002
0000
0000
0303
,
2002
0000
0000
3003
,
0220
0000
0000
0330
,
1001
1000
0100
1100
,
0000
1100
0000
0000
0110
0000
0000
0000
,
0022
0000
0000
0000
0000
0000
0000
0030
,
2000
0000
0000
3003
,
1001
0001
0010
0011
,
0000
0011
0000
0000
0101
0000
0000
0000
,
2020
0000
0000
0000
0000
0000
0000
3030
,
1000
0100
0010
0001
,
2002
0000
0000
0000
,
0000
0000
0000
0000
,
0000
0000
0000
0000
,
0000
0000
0000
0000
,
3003
0000
0000
0000
;

//---------------dance-single - ----------------
#NOTES:
     dance-single:
     BASIC:
     Easy:
     5:
     0.297,0.497,0.159,0.234,0.000: // measure 1
0000
0000
0000
0000
,  // measure 2
0000
0000
0000
0000
,  // measure 3
0000
0000
0000
0000
,  // measure 4
0000
0000
0000
0000
,  // measure 5
0000
0000
0000
0000
,  // measure 6
0000
0000
0000
0000
,  // measure 7
0000
0000
0000
0000
,  // measure 8
0000
0000
0000
0000
,  // measure 9
1001
0000
0000
0000
,  // measure 10
0000
0000
0000
0000
,  // measure 11
0001
1000
0000
0000
,  // measure 12
0000
0000
0000
0000
,  // measure 13
1001
0000
0000
0000
,  // measure 14
0000
0000
0000
0000
,  // measure 15
0220
0000
0000
0000
,  // measure 16
0330
0000
0000
0000
,  // measure 17
1000
0000
1000
0000
,  // measure 18
0001
1000
0001
0000
,  // measure 19
0001
0000
0001
0000
,  // measure 20
0100
0000
0010
0000
,  // measure 21
1000
0000
1000
0000
,  // measure 22
0001
1000
0001
0000
,  // measure 23
1000
0000
0010
0000
,  // measure 24
0100
0000
0001
0000
,  // measure 25
1000
0000
1000
0000
,  // measure 26
0001
1000
0001
0000
,  // measure 27
1000
0000
0010
0000
,  // measure 28
0100
0000
0001
0000
,  // measure 29
0100
0000
0100
0000
,  // measure 30
0010
0100
0010
0000
,  // measure 31
0100
0000
0010
0000
,  // measure 32
1000
0000
0001
0000
,  // measure 33
1001
0000
0000
0000
,  // measure 34
0000
0000
0000
0000
,  // measure 35
0110
0000
0000
0000
,  // measure 36
0000
0000
0000
0000
,  // measure 37
1000
0100
1000
0100
,  // measure 38
0010
0001
0010
0001
,  // measure 39
1000
0001
1000
0001
,  // measure 40
1001
0000
0110
0000
,  // measure 41
1000
0100
0010
0001
,  // measure 42
0100
0010
1000
0001
,  // measure 43
1000
0100
1000
0001
,  // measure 44
0020
0000
0032
0000
,  // measure 45
1003
0000
1000
0000
,  // measure 46
0001
0000
0001
0000
,  // measure 47
0100
0000
0100
0000
,  // measure 48
0010
0000
0010
0000
,  // measure 49
1000
0000
0100
0000
,  // measure 50
1000
0000
0001
0000
,  // measure 51
0020
0000
0000
0000
,  // measure 52
0032
0000
0000
0000
,  // measure 53
1003
0000
0010
0000
,  // measure 54
1000
0000
0010
0000
,  // measure 55
0100
0000
0001
0000
,  // measure 56
0100
0000
0001
0000
,  // measure 57
1000
0000
0100
0000
,  // measure 58
0010
0000
0001
0000
,  // measure 59
2002
0000
0000
0000
,  // measure 60
0000
0000
0000
3003
,  // measure 61
1000
0000
0010
0000
,  // measure 62
0100
0000
1000
0000
,  // measure 63
0100
0000
0020
0000
,  // measure 64
0000
0000
0030
0000
,  // measure 65
0100
0000
0001
0000
,  // measure 66
0010
0000
0100
0000
,  // measure 67
0010
0000
0002
0000
,  // measure 68
0000
0000
0003
0000
,  // measure 69
0001
0000
0010
0000
,  // measure 70
0100
0000
1000
0000
,  // measure 71
0001
0000
0000
0000
,  // measure 72
1000
0000
0100
0000
,  // measure 73
0010
0000
0100
0000
,  // measure 74
0010
0000
0001
0000
,  // measure 75
1001
0000
0000
0000
,  // measure 76
0110
0000
0000
0000
,  // measure 77
1000
0000
0010
0000
,  // measure 78
0100
0000
1000
0000
,  // measure 79
0100
0000
0020
0000
,  // measure 80
0000
0000
0030
0000
,  // measure 81
0100
0000
0001
0000
,  // measure 82
0010
0000
0100
0000
,  // measure 83
0010
0000
0002
0000
,  // measure 84
0000
0000
0003
0000
,  // measure 85
0001
0000
0010
0000
,  // measure 86
0100
0000
1000
0000
,  // measure 87
0001
0000
0000
0000
,  // measure 88
1000
0000
0100
0000
,  // measure 89
0010
0000
0001
0000
,  // measure 90
1000
0000
0001
0000
,  // measure 91
2002
0000
0000
3003
,  // measure 92
0220
0000
0000
0330
,  // measure 93
1000
0000
0000
0001
,  // measure 94
0000
0001
0000
0000
1000
0000
0000
0000
,  // measure 95
2002
0000
0000
0000
,  // measure 96
3003
0000
0000
0000
,  // measure 97
0010
0000
0000
0100
,  // measure 98
0000
0100
0000
0000
0010
0000
0000
0000
,  // measure 99
0220
0000
0000
0000
,  // measure 100
0330
0000
0000
0000
,  // measure 101
2002
0000
0000
0000
,  // measure 102
0000
0000
0000
0000
,  // measure 103
0000
0000
0000
0000
,  // measure 104
0000
0000
0000
0000
,  // measure 105
3003
0000
0000
0000
;
