#TITLE:300;
#SUBTITLE:-UNLEASHED-;
#ARTIST:Detach;
#TITLETRANSLIT:;
#SUBTITLETRANSLIT:;
#ARTISTTRANSLIT:;
#GENRE:;
#CREDIT:;
#MENUCOLOR:;
#METERTYPE:DDR;
#BANNER:300u.png;
#BACKGROUND:300u-bg.png;
#LYRICSPATH:;
#CDTITLE:!hiryuu.png;
#MUSIC:300u.ogg;
#OFFSET:0.000;
#SAMPLESTART:6.280;
#SAMPLELENGTH:16.451;
#SELECTABLE:YES;
#LISTSORT:;
#BPMS:0.000=150.000,12.000=155.000,13.000=160.000,14.000=165.000,15.000=170.000,16.000=175.000,48.000=87.500,56.000=175.000,120.000=185.000,128.000=195.000,136.000=205.000,144.000=215.000,152.000=175.000,153.000=170.000,154.000=165.000,155.000=160.000,156.000=155.000,192.000=160.000,196.000=165.000,200.000=170.000,204.000=175.000,224.000=185.000,228.000=195.000,232.000=200.000,236.000=205.000,240.000=220.000,244.000=230.000,248.000=240.000,252.000=250.000,288.000=260.000,292.000=270.000,296.000=280.000,300.000=290.000,304.000=300.000;
#STOPS:;
#BGCHANGES:;
#ATTACKS:;

//---------------dance-single - ----------------
#NOTES:
     dance-single:
     :
     Challenge:
     15:
     1.000,1.000,1.000,0.307,1.000:
0000
0000
0000
0000
,
0000
0000
0000
0000
,
0000
0000
0000
0000
,
110M
0000
0000
0110
M000
0000
0011
0000
0M00
1001
0000
0000
0210
0000
0310
0000
,
100M
0000
0000
0100
0000
0000
0010
0000
0000
0001
0000
0000
M010
0000
0000
0100
0000
0000
0010
0000
000M
0100
0000
0000
1000
0000
0000
0100
00M0
0000
1000
0000
0000
0001
0000
0000
1000
0000
0000
0001
0M00
0000
0020
0000
0000
0000
0000
0000
,
0000
0000
0000
0000
M000
0000
0031
0000
0000
0100
0000
0000
0010
0000
0000
1000
000M
0000
0010
0000
0000
0100
0000
0000
M020
0000
0000
0000
0000
0000
0000
0000
0M00
0000
0000
0000
000M
0000
0000
0000
0000
0000
1030
0000
000M
0010
0000
0000
,
1000
0000
0000
0100
0000
0000
100M
0000
0000
0100
0000
0000
0010
0000
0000
M001
0000
0000
0010
0000
0000
0001
0000
0000
1M00
0000
0001
00M0
1000
0000
0001
0000
1000
0M00
0001
0000
10M0
0000
0001
0000
1000
0000
0M01
0000
0000
1000
0000
0000
,
00M2
0000
0M00
0000
10M3
0001
0100
0001
1000
0010
1M00
0001
10M0
0001
1M00
00M1
,
1000
0001
0M10
0001
M010
0100
0010
010M
1000
0100
1000
0010
0100
0001
2000
0MM0
,
0000
0000
3001
0010
0100
1000
001M
0100
0020
000M
M000
0M00
0000
M000
0130
0001
,
0100
0000
0000
00M1
0000
0000
1000
0000
0000
0M10
0000
0000
100M
0000
0000
0010
0000
0000
1M00
0000
0000
0001
0000
0000
0010
0000
0100
000M
0010
0000
M100
0000
0010
000M
0100
0000
M010
0000
0100
000M
0010
0000
0100
0000
0000
M010
0000
0000
,
0002
0M00
0000
M000
0013
0100
001M
0100
1000
0001
10M0
0001
0100
M010
0100
001M
,
1000
0010
1000
0010
0100
0001
01M0
0001
1000
0001
1000
0010
010M
0010
0200
0000
0000
0000
03M1
1000
0001
0100
0010
0001
2000
0000
0000
0000
00M0
0000
3100
1000
,
0002
0000
0023
M000
0230
000M
0000
0000
13M0
0000
0001
1M00
2000
00M0
3002
1M00
,
1003
00M0
0001
0M00
1001
0000
1000
01M0
0000
010M
1000
0000
11M0
0000
0000
010M
,
0010
M000
0100
0000
011M
0000
0010
M100
0000
010M
0010
0000
M110
0000
0000
1000
,
00M1
0000
0100
0000
M101
0000
00M1
0100
0000
M100
0001
0000
0101
0000
1010
0000
,
1M00
0001
10M0
0001
1M00
0001
1000
0001
0100
0010
010M
M010
0100
001M
0100
001M
,
1000
0000
0M10
0000
1010
000M
0010
1M00
0000
100M
0010
0000
0110
M000
0000
01M0
,
0001
0000
M010
0000
0M11
0000
0001
M010
0000
0010
0001
M000
01M1
0000
0000
0010
,
1000
0M00
0001
0000
10M1
0000
1000
0M01
0000
00M1
1000
0000
1010
0000
0101
0000
,
0010
M001
0010
0M01
0010
M001
0010
0001
1000
0100
10M0
0100
100M
0100
10M0
0100
,
1000
0001
0000
0001
0000
0001
0000
0001
,
0000
0001
0000
0001
0000
0001
0000
0001
,
1000
0001
0000
0001
0000
0001
0000
0001
,
0000
0001
0000
0001
0000
0001
1000
0001
,
1000
0000
0010
0000
1M1M
0000
0010
1000
0010
1000
0010
0000
1010
0000
0000
1000
,
0001
0000
0100
0000
M1M1
0000
0001
0100
0001
0100
0001
0000
0101
0000
0000
0001
,
1000
0000
0100
0000
M11M
0000
0010
0001
0100
0010
1000
0000
11MM
0000
0000
0100
,
1000
0000
0010
0000
0110
0000
0010
1000
0001
0010
0001
0000
1MM1
0000
0000
0001
,
1M01
0001
10M1
0001
M110
0100
011M
0100
,
10M1
1000
1M01
1000
011M
0100
M110
0100
,
11M0
1000
110M
0100
0M11
0001
M011
0010
,
011M
0100
M110
0010
1M01
1000
10M1
0001
,
10M0
010M
M010
0M01
10M0
0M10
010M
M001
,
1M00
01M0
001M
M001
10M0
0M10
010M
M001
,
1M00
01M0
001M
M001
M010
010M
10M0
010M
,
M010
0M01
M010
010M
1000
0010
M100
0001
,
2MM2
0000
0000
0000
0MM0
0000
3003
0000
M22M
0000
0330
0000
2MM2
3003
1001
0000
,
0M10
0001
0010
0001
M100
0010
0100
0010
100M
0100
1000
0100
10M0
0001
1000
0001
,
1MM1
0001
1MM1
1000
1MM1
0001
M1M1
0100
,
M1M1
0001
MM11
0010
M11M
0100
11MM
1000
,
1MM1
0001
0M10
1000
1M1M
0010
M011
0001
,
1M00
0010
0M01
0010
2M00
00M0
000M
0M00
,
3001
0010
0M01
2000
00M0
3001
1M00
0010
,
0100
M001
0010
0M02
M000
0000
0103
0010
,
100M
0100
10M0
0002
M000
01M3
0001
1000
,
0010
M100
0001
0M20
M000
0M00
0031
1000
,
0MM1
0000
1000
0000
1M01
0000
0001
0010
M100
0010
0001
0000
0011
0000
1100
0000
,
001M
0000
1M00
0000
1010
0000
0010
0100
M001
0010
0M01
0000
0011
0000
M110
0000
,
0100
0000
10M0
0000
1100
0000
100M
0010
1000
0010
010M
M000
0110
0000
101M
0000
,
1M00
0000
0001
0000
M011
0000
0010
0100
1000
010M
0010
0000
M110
0000
0011
0000
,
1000
0000
0000
0100
0000
0000
0010
0000
0000
0001
0000
0000
0010
0000
0000
0100
0000
0000
1000
0000
0000
010M
0000
0000
0010
0000
0100
M000
0010
0000
010M
0000
0010
0000
0100
0000
M010
0000
0100
000M
0010
0000
M100
0000
0010
0000
0100
0000
,
002M
0000
M000
0000
0M32
0000
0000
0000
2M03
0000
0000
00M0
3002
0000
0M00
0000
,
1003
0000
0M01
0000
M010
0000
010M
0000
1000
00M0
0001
0000
01M0
0000
100M
0000
,
0100
0000
M001
0000
0010
0M00
1000
000M
0010
0000
0M01
0000
10M0
0M00
0001
00M0
,
1000
0000
0000
0100
0000
0000
0010
0000
0000
M001
0000
0000
0010
0000
0000
0100
0000
0000
100M
0000
0000
0010
0000
0000
0100
0000
0010
M00M
0100
0000
001M
0000
0100
M000
0010
0000
0100
0000
0010
000M
0100
0000
M010
0000
0100
0000
0010
0000
,
010M
0000
M000
000M
0020
M000
0230
0000
0302
0000
20M3
0000
3M01
10M0
0001
1M00
,
00M1
1M00
00M0
1001
0M00
1000
00M0
1M01
0000
0000
010M
0110
M000
0010
000M
M110
,
000M
0000
0010
0M00
1001
00M0
0M01
M000
00M1
0000
1M01
00M0
1M00
00M0
1001
0M00
,
00M1
0000
0000
0000
M010
0000
0000
0000
010M
0000
0000
0000
10M0
0000
0M00
0000
10M1
0000
0M00
0000
0001
0000
0000
0000
10M0
0000
0001
0000
1M00
0001
1000
0001
,
10M0
0M00
0000
00M1
0100
M000
0000
001M
1000
0M00
0000
001M
0100
M010
0000
1M00
,
00M1
0000
0M10
0000
M001
0M00
M011
0000
0M01
0000
10M0
0000
110M
00M0
100M
00M0
,
0100
000M
1000
0M0M
0010
0000
010M
M000
0010
010M
0010
0000
1M00
0001
10M0
0M00
,
0001
00M0
1000
0M00
00M1
0000
1000
000M
0010
0000
M100
0000
001M
0000
0100
0000
,
M001
0000
0M10
0000
M001
0000
0010
0000
0100
0000
100M
00M0
0100
0000
1000
0000
,
0001
0M00
0010
0000
1000
0000
1M01
00M0
0001
0M00
00M1
0000
M001
0000
01M0
0000
,
100M
0000
0010
0M00
0001
0000
10M1
0000
0001
0M00
0010
0000
1000
0000
0MM1
1000
,
0001
0000
0M00
0000
0010
0000
M001
0000
0010
0000
0000
0000
0100
0000
100M
0000
0100
0000
00M0
0000
1000
0000
0001
0000
1M00
0000
00M0
0000
0M01
1000
0001
1000
,
00M1
1000
0M00
0001
00M0
0000
1M01
0000
10M0
0000
110M
00M0
1100
0000
0001
0M00
,
M011
0000
0001
00M0
1100
0000
0011
0000
0M01
M000
0011
MM00
0010
0000
0110
000M
,
1000
01M0
1000
0100
001M
0100
M010
0100
0010
0001
0010
0M01
1000
0001
10M0
0001
,
1M00
0000
00M1
0M00
M011
0M00
0010
M000
011M
0000
010M
00M0
1100
00M0
1000
0M01
,
10M0
0000
0M00
0000
10M1
0000
0M01
0000
1000
0000
001M
0000
1M00
0010
000M
1000
,
0000
001M
0000
0100
M000
0001
0000
0M10
0000
M000
00M1
0000
0000
M100
000M
0010
,
0000
0000
1M00
0000
00M1
0000
1M01
0000
1001
0000
0010
0000
0110
0000
1001
00M0
,
1000
0000
0000
0000
0000
0000
0000
0000
0000
0000
0000
0000
0000
0000
0000
0000
0000
0000
0000
0000
0000
0000
0000
0000
0100
0000
0000
0000
0000
0000
0000
0000
0000
0000
0000
0000
0000
0000
0000
0000
0000
0000
0000
0000
0000
0000
0000
0000
0010
0000
0000
0000
0000
0000
0000
0000
0000
0000
0000
0000
M000
0000
0000
0000
0000
0000
0000
0000
0000
0000
0000
0000
0001
0000
0000
0000
0000
0000
0000
0000
0000
0000
0000
0000
0M00
0000
0000
0000
0000
0000
0000
0000
0000
0000
0000
0000
1001
0000
0000
0000
0000
0000
0000
0000
0000
0000
0000
0000
00M0
0000
0000
0000
0000
0000
0000
0000
0000
0000
0000
0000
0001
0000
0000
0000
0000
0000
0000
0000
0000
0000
0000
0000
0M00
0000
0000
0000
0000
0000
0000
0000
0000
0000
0000
0000
1000
0000
0000
0000
0000
0000
0000
0000
0001
0000
0000
0000
00M0
0000
0000
0000
1000
0000
0000
0000
0000
0000
0000
0000
0M01
0000
0000
0000
0000
0000
1000
0000
0000
0000
0000
0000
00M1
0000
0000
0000
0000
0000
1000
0000
0000
0000
0000
0000
,
0M01
0000
00M0
0001
1M00
0000
000M
0010
0100
M000
0000
0001
0010
0M01
0000
1000
,
0010
000M
0100
M000
0010
000M
M110
0000
001M
0000
1000
0M00
10M1
0000
0M01
0000
,
M010
0000
0M11
M000
0001
0000
1M01
0000
00M1
1000
0M01
0000
0M10
0001
M010
0000
,
0001
0000
01M0
0000
M001
0M00
0010
M000
0100
0000
00M1
0000
M100
0000
0010
0M00
,
0001
00M0
1000
000M
01M0
0000
100M
0000
0M10
0000
1000
0000
10M1
0000
1M01
00M0
,
0001
00M0
0101
M000
0001
00M0
1M00
0000
010M
00M0
010M
M000
01M0
000M
1000
0M00
,
0010
000M
0100
M000
0001
0M00
0010
M000
010M
00M0
010M
00M0
010M
0000
10M0
0100
,
100M
0000
0000
0000
0000
0000
0010
0000
0000
M100
0000
0000
001M
0000
0000
0000
0000
0000
0100
0000
0000
M001
0000
0000
01M0
0000
0000
0000
0000
0000
0001
0000
0000
1M00
0000
0000
00M1
0000
0000
0M00
0000
0000
1000
0000
0001
00M0
1000
0000
,
0001
1M00
00M0
0001
0M00
M010
0001
0M00
10M0
0000
0M11
0000
M011
0000
0M01
0000
,
10M1
0M00
00M1
M000
0101
00M0
M101
0000
1M10
000M
1010
0000
M110
000M
0110
0000
,
1M00
00M1
1M00
00M1
1M00
00M1
1M00
00M1
1M00
00M1
1M00
00M1
1M00
00M1
1M00
00M2
,
2MM0
0MM0
0MM0
0MM0
0MM0
0MM0
0MM0
0MM0
0MM0
0MM0
0MM0
0MM0
0MM0
0MM0
0MM0
0MM0
,
3MM3
MMMM
MMMM
MMMM
MMMM
0000
0000
0000
0000
0000
0000
0000
0000
0000
0000
0000
;

//---------------dance-single - ----------------
#NOTES:
     dance-single:
     :
     Hard:
     11:
     0.807,1.000,0.527,0.378,0.347:
0000
0000
0000
0000
,
0000
0000
0000
0000
,
0000
0000
0000
0000
,
0011
0000
0000
1100
0000
0000
1010
0000
0000
0101
0000
0000
1001
0000
0000
0000
,
1000
0000
0100
0000
0010
0000
0001
0000
0010
0000
0000
0001
0000
0000
0022
0000
,
0030
1003
0100
1000
0200
0000
0000
1300
,
0100
0010
0100
1000
0002
0000
2000
3003
,
0011
0000
0000
0110
0000
0000
1100
0000
0000
0110
0000
0000
0011
0000
0000
0000
,
1000
0000
0100
0000
0010
0000
0001
0000
0100
0000
0000
0010
0000
0000
0220
0000
,
0030
0310
1000
0100
0020
0000
0000
0031
,
0010
0100
1000
0001
2000
0000
0002
3003
,
1001
0000
0001
0100
1000
0100
0001
0000
,
1000
0000
0000
0100
0000
0000
1000
0000
0001
0000
0000
0010
0000
0000
0002
0000
0000
0000
1003
0000
0100
0000
0010
0000
0002
0000
0000
0000
0000
0000
1003
0000
,
0100
1000
0100
0010
0001
0000
1000
0000
0001
0000
0010
0100
1000
0010
0100
0000
,
0001
0010
0011
0001
0100
0001
0101
0000
,
0010
1000
1010
1000
0001
1000
1001
0000
,
0100
0010
0110
0100
0001
0100
0101
0000
,
0001
1000
0001
1000
1001
1000
1001
0001
,
1000
0100
1100
1000
0010
1000
1010
0000
,
0010
0100
0110
0010
1000
0010
1010
0000
,
1000
0001
1001
0001
0100
0001
0101
0000
,
0100
0010
0100
0010
0110
0100
0110
0010
,
0000
0010
0000
0010
0000
0010
0000
0010
,
0000
0010
0000
0010
0000
0010
0000
0010
,
1000
0010
0000
0010
0000
0010
0000
0010
,
0000
0010
0000
0010
0000
0010
1000
0100
,
0010
0001
1001
1000
0100
0010
0011
0000
,
0001
0010
0110
0100
1000
0010
0110
0000
,
0010
1000
1100
0100
0010
0001
0011
0000
,
0001
0010
0100
1000
0010
0100
0001
1000
,
0001
1000
0001
1000
0001
1000
0001
1000
,
0001
1000
0001
1000
0001
1000
0001
1000
,
0001
1000
0001
1000
0001
1000
0001
1000
,
0001
1000
0001
1000
0001
1000
0001
1000
,
0001
0010
0100
1000
0001
0010
0100
1000
,
0001
0010
0100
1000
0001
0010
0100
1000
,
0001
0010
0100
1000
0100
0010
0001
1000
,
0100
0010
0001
0010
0100
1000
0001
1000
,
2MM2
3003
100M
M001
,
1000
0100
M001
0100
1000
0010
0M01
0010
,
1000
0100
100M
0100
0010
0001
M010
0001
,
1000
0010
100M
0010
0100
0001
M100
0001
,
1MM1
MMMM
1100
0011
,
MMMM
0000
1000
0100
0001
0000
M11M
0000
,
0100
1000
010M
1000
0010
1000
0M10
1000
,
0010
0100
001M
0100
0001
0100
M001
0100
,
M1M1
MMMM
0110
1001
,
MMMM
0000
0001
1000
2MM2
0000
0000
3003
,
1000
0100
110M
1000
0001
1000
1MM1
0000
,
0001
0100
M101
0001
1000
0010
1M1M
0000
,
1000
0100
M010
0001
M010
0100
1000
0000
,
0001
0010
010M
1000
010M
0010
0001
1000
,
0001
0010
0001
0100
M002
0000
0M00
0000
,
10M3
0000
010M
1000
0010
0100
M001
0100
,
00M2
1M03
20M0
3M01
,
M020
013M
M200
031M
,
0001
0010
0001
0100
0020
0000
2030
0000
,
3001
0000
0010
0001
1000
0100
1000
0001
,
10M0
0000
0100
0000
100M
0000
0100
0000
10M0
0000
0000
0100
0000
0000
0010
0000
,
M001
0000
0010
0000
0M01
0000
M000
0000
0000
0000
10M0
0000
0001
0M00
1000
0000
,
0001
0010
0100
1000
10M1
0000
2M02
3003
,
1000
0000
0000
0001
M100
0000
0000
01M0
1000
0000
000M
1000
0000
0100
0000
0010
,
M000
0000
0100
000M
0010
M000
0000
0000
0010
000M
1000
0000
0M00
0000
1000
0000
,
0010
0000
000M
0000
1M00
0000
0000
0000
M22M
0330
0000
0000
2MM2
3003
0000
0000
,
10M0
010M
M010
0M01
,
10M0
0000
0000
0000
010M
0000
0000
0000
M010
0000
0000
0000
0M01
0000
1000
00M0
,
0001
0000
0M10
0000
0001
0000
2000
0000
000M
0000
3010
0000
0100
000M
0020
0000
,
M000
0000
0130
0000
0001
M000
0200
00M0
0000
0000
0301
M000
0010
0000
0002
0000
,
1M00
0000
0003
0000
1001
00M0
0000
0000
0001
0M00
0000
00M0
1001
0000
0M00
0001
,
0000
1000
0000
0100
000M
0000
0010
M000
0000
0000
0001
0000
0100
00M0
0000
M001
,
0000
0000
0000
0100
000M
0000
0010
0000
1M00
0000
0010
0000
1000
0000
0010
0000
,
2M2M
0M0M
0M0M
0M0M
0M0M
0M0M
0M0M
0M0M
0M0M
0M0M
0M0M
0M0M
0M0M
0M0M
0M3M
0M0M
,
3010
0000
1000
0100
001M
0100
1000
0001
,
1MM1
0000
0001
0010
M100
0010
0001
0100
,
M000
0001
0000
0010
0000
0100
000M
1000
0000
0010
0000
0000
M100
0000
0010
0000
,
0100
000M
0000
0000
0010
M000
0000
0M00
0000
0000
10M0
000M
0000
0000
0M01
0000
,
1000
0010
0100
0001
10M0
0000
2MM2
3003
,
0M01
0000
0000
0001
10M0
0000
0000
1000
0M01
0000
0000
0001
1000
00M0
0000
0000
,
100M
0100
0010
0001
1000
0100
1000
0001
,
0010
0100
1000
0001
0010
0001
1000
0100
,
001M
M100
00M1
1M00
,
001M
0000
M100
0000
00M1
0000
1M00
0001
,
1000
00M0
0100
0000
1000
0000
0002
0000
0000
M000
0103
0000
0010
0000
2000
000M
,
0000
0000
3010
0000
0100
0000
0002
M000
0000
0000
0103
0000
0010
0000
2000
0000
,
0M01
0000
30M0
0000
1001
0M00
0000
0000
10M0
0000
0000
0000
1MM1
0000
0000
0001
,
0000
0010
0000
M100
0000
000M
0010
0000
0000
M000
0001
0000
0100
0000
0000
00M0
,
0001
0000
0000
0000
1M00
0000
0001
0000
0010
0000
0100
0000
1000
0000
0001
0M00
,
1000
0000
00M1
0000
1M00
0000
00M1
0000
1M00
00M0
0M01
00M0
1MM0
0MM0
0MM1
0MM0
,
2MM2
0000
0000
0000
,
3003
M00M
0000
0000
0000
0000
0000
0000
;

//---------------dance-single - ----------------
#NOTES:
     dance-single:
     :
     Medium:
     8:
     0.458,0.581,0.114,0.237,0.009:
0000
0000
0000
0000
,
0000
0000
0000
0000
,
0000
0000
0000
0000
,
1000
0000
0000
1000
0000
0000
1000
0000
0000
1000
0000
0000
1000
0000
0000
0000
,
0001
0010
0100
2000
,
3000
0100
0000
0020
0000
0000
0030
0001
,
1000
0100
2000
3020
,
0130
0001
1000
1001
,
1000
0100
0010
0002
,
0000
0103
0000
0020
0000
0000
0030
0100
,
0010
1000
0200
0320
,
0031
0000
1000
0100
0010
0001
1001
0000
,
1000
0000
0100
0000
0010
0001
0010
0000
,
0001
0000
0010
0000
0100
1000
0100
0000
,
1000
0000
1100
0000
1000
0010
1000
0000
,
0001
0000
0101
0000
0100
0001
0100
0000
,
0001
0000
1001
0000
1000
0001
1000
0000
,
0001
0010
0100
1000
0100
0010
0001
1000
,
0001
0000
0101
0000
0100
0001
1000
0000
,
0010
0000
1010
0000
1000
0001
0100
0000
,
0010
0000
0110
0000
0100
0001
1000
0000
,
0001
0100
0010
1000
0010
0100
0001
1000
,
0000
1000
0000
1000
0000
1000
0000
1000
,
0000
1000
0000
1000
0000
1000
0000
1000
,
0000
0001
0000
0001
0000
0001
0000
0001
,
0000
0001
0000
0001
0000
0001
0000
0001
,
0000
0100
0000
0100
0000
0010
0000
0010
,
0000
0100
0000
0100
0000
0010
0000
0010
,
0000
1000
0000
1000
0000
0001
0000
0001
,
0000
1000
0000
1000
0000
0001
0000
0001
,
0000
1000
0000
0100
0000
0010
0000
0001
,
0000
1000
0000
0100
0000
0010
0000
0001
,
0000
1000
0000
0100
0000
0010
0000
0001
,
0000
1000
0000
0100
0000
0010
0000
0001
,
2000
0000
3200
0000
,
0320
0000
0032
0000
,
2003
0000
3020
0000
,
0230
0000
0302
0000
,
1003
0000
0001
1000
,
0000
0000
0010
0100
0002
0000
0000
0000
,
0013
0010
0100
0100
,
1000
1000
0010
0010
,
0100
0000
0010
1000
,
0000
0000
1000
0100
0020
0000
0000
0000
,
0031
0010
0001
0000
1000
0100
1000
0000
,
0010
0100
0010
0000
0100
0010
0100
0000
,
0001
0000
1000
0100
,
0000
0000
1000
0010
0200
0000
0000
0000
,
0310
0000
0100
0000
0010
M10M
0010
0000
,
1000
0000
0001
0000
1000
0MM1
1000
0000
,
0001
0000
0010
0000
0100
10MM
0100
0000
,
1000
0000
0100
0000
0010
MM01
0010
0000
,
0001
0000
0010
0000
,
0001
0000
1000
0000
,
M2MM
0000
0000
0000
,
0300
MMMM
0000
0000
,
100M
0100
0010
0001
,
1M00
0010
0100
0010
,
100M
0100
1000
0010
,
M100
0001
0010
0001
,
10M0
100M
01M0
010M
,
10M0
010M
M010
0M01
,
M010
0000
0M10
0000
0001
M000
0001
0000
,
0M10
0000
0001
M000
0M10
0000
0001
0000
,
10M0
0000
1000
0000
0M01
00M0
0001
0000
,
1M00
0000
1000
00M0
0001
M000
0M01
0000
,
00M0
0000
0000
21MM
0000
0000
0000
31MM
,
0000
0000
0000
MM12
0000
0000
0000
MM13
,
0000
0000
0000
M21M
0000
0000
0000
M31M
,
0000
0000
0000
2MM1
0000
0000
0000
3MM1
,
0000
10M0
010M
0010
,
MM02
0M00
00M0
M000
0M00
00M0
0MM0
M000
,
10M3
010M
10M0
010M
,
M010
0M01
M010
0M01
,
10M0
010M
10M0
001M
,
M100
00M1
0M10
00M1
,
1M00
00M0
1000
0M00
0001
00M0
0001
M000
,
0100
00M0
0100
000M
0010
M000
0M10
0000
,
100M
01M0
001M
M001
,
01M0
M010
100M
00M1
,
M100
00M0
010M
0000
M010
0000
001M
0000
,
0100
M000
0100
0000
001M
M000
0010
0000
,
100M
01M0
M010
0M01
,
M100
001M
1M00
00M1
,
10M0
010M
10M0
0M01
,
M010
0M01
M100
001M
,
10M0
010M
M010
0M01
,
2MM2
0MM0
0MM0
0MM0
,
3MM3
MMMM
0000
0000
;

//---------------dance-single - ----------------
#NOTES:
     dance-single:
     :
     Easy:
     5:
     0.255,0.348,0.184,0.053,0.000: // measure 1
0000
0000
0000
0000
,  // measure 2
0000
0000
0000
0000
,  // measure 3
0000
0000
0000
0000
,  // measure 4
0000
0000
0000
0000
,  // measure 5
1000
0000
1000
0000
,  // measure 6
0001
0000
0001
0000
,  // measure 7
0100
0000
0100
0000
,  // measure 8
0010
0010
0010
0000
,  // measure 9
1000
0000
0100
0000
,  // measure 10
0010
0000
0001
0000
,  // measure 11
0100
0000
0010
0000
,  // measure 12
0100
0100
0100
0000
,  // measure 13
0001
0000
0010
0000
,  // measure 14
0100
0000
1000
0000
,  // measure 15
0001
0000
0001
0000
,  // measure 16
0100
0000
0100
0000
,  // measure 17
0010
0000
0010
0000
,  // measure 18
1000
1000
0100
0100
,  // measure 19
0010
0000
0001
0000
,  // measure 20
0100
0000
0010
0000
,  // measure 21
1000
0000
0100
0000
,  // measure 22
0010
0010
0001
0001
,  // measure 23
1001
0000
0000
0000
,  // measure 24
0000
0000
0000
0000
,  // measure 25
1001
0000
0000
0000
,  // measure 26
0000
0000
0000
0000
,  // measure 27
1001
0000
0000
0000
,  // measure 28
0110
0000
0000
0000
,  // measure 29
1001
0000
0000
0000
,  // measure 30
0110
0000
0000
0000
,  // measure 31
1000
0000
0001
0000
,  // measure 32
1000
0000
0001
0000
,  // measure 33
1000
0000
0001
0000
,  // measure 34
1000
0000
0001
0000
,  // measure 35
1000
0000
0001
0000
,  // measure 36
1000
0000
0001
0000
,  // measure 37
1000
0000
0001
0000
,  // measure 38
1000
0000
0001
0000
,  // measure 39
1001
0000
0000
0000
,  // measure 40
1000
0000
1000
0000
,  // measure 41
0001
1000
0001
1000
,  // measure 42
0001
1000
0001
1000
,  // measure 43
0010
0100
0010
0100
,  // measure 44
0010
0100
0010
0100
,  // measure 45
0001
0001
0010
0010
,  // measure 46
0100
0100
1000
1000
,  // measure 47
0010
0010
0100
0100
,  // measure 48
0001
0001
1000
1000
,  // measure 49
0001
0000
1000
0000
,  // measure 50
0001
0000
1000
0000
,  // measure 51
0001
0000
1000
0000
,  // measure 52
0001
0000
1000
0000
,  // measure 53
0001
0010
0002
0000
,  // measure 54
1003
0010
0100
0010
,  // measure 55
0200
0000
0000
0000
,  // measure 56
0300
0000
0000
0000
,  // measure 57
0001
0000
0010
0000
,  // measure 58
0001
0000
0010
0000
,  // measure 59
0001
0001
0001
0000
,  // measure 60
1000
0000
0100
0000
,  // measure 61
1000
0000
1100
0000
,  // measure 62
0100
0000
1100
0000
,  // measure 63
1000
0000
1001
0000
,  // measure 64
0001
0000
0101
0000
,  // measure 65
0100
0000
0100
0000
,  // measure 66
0010
0000
0010
0000
,  // measure 67
1010
0000
1000
0000
,  // measure 68
1010
0000
0010
0000
,  // measure 69
0110
0000
0110
0000
,  // measure 70
1001
0000
1001
0000
,  // measure 71
2000
0000
0000
0000
,  // measure 72
0002
0000
0000
3003
,  // measure 73
1000
0000
0100
0000
,  // measure 74
0010
0000
0001
0000
,  // measure 75
1000
0000
0010
0000
,  // measure 76
1000
0000
0010
0000
,  // measure 77
1000
0000
1000
0000
,  // measure 78
0001
0000
0001
0000
,  // measure 79
0100
0000
0100
0000
,  // measure 80
0010
0000
0010
0000
,  // measure 81
1000
0000
0100
0000
,  // measure 82
0010
0000
0001
0000
,  // measure 83
1000
0000
1100
0000
,  // measure 84
0100
0000
1100
0000
,  // measure 85
1000
0000
1001
0000
,  // measure 86
0001
0000
0101
0000
,  // measure 87
0200
0000
0000
0000
,  // measure 88
0020
0000
0000
0330
,  // measure 89
0MM0
0000
0000
0000
;
