#TITLE:The Feeling;
#SUBTITLE:;
#ARTIST:DJ Fresh feat. RaVaughn;
#TITLETRANSLIT:;
#SUBTITLETRANSLIT:;
#ARTISTTRANSLIT:;
#CREDIT:;
#BANNER:The Feeling.png;
#BACKGROUND:;
#LYRICSPATH:;
#CDTITLE:;
#MUSIC:The Feeling.ogg;
#OFFSET:0.171;
#SAMPLESTART:35.430;
#SAMPLELENGTH:13.120;
#SELECTABLE:YES;
#BPMS:0.000=175.000,268.500=87.500,299.000=175.000,492.000=350.000,493.000=175.000,500.000=350.000,501.000=175.000,508.000=350.000,509.000=175.000,556.000=87.500;
#STOPS:268.500=2.571
,492.250=0.171
,500.250=0.171
,508.250=0.171
;
#BGCHANGES:;

//---------------dance-single - HF 4/3/9/5/24-3/3-2-2-11----------------
#NOTES:
     dance-single:
     HF 4/3/9/5/24-3/3-2-2-11:
     Challenge:
     13:
     1.000,1.000,0.321,0.350,1.000: // measure 1
0000
0000
0000
0000
0000
0000
0000
0000
1010
0000
0000
0110
0000
0000
0101
0000
,  // measure 2
1001
0000
0000
2010
0000
0000
0020
0000
0000
0000
0000
0000
0000
0000
0000
0000
,  // measure 3
0000
0000
3030
0000
1001
0000
0000
2002
,  // measure 4
0000
0000
0000
0000
0000
3003
0000
0000
0000
0000
0000
0000
0000
0000
0000
0000
,  // measure 5
1010
0000
0000
0110
0000
0000
0101
0000
1000
0000
0000
0010
0000
0000
0100
0000
,  // measure 6
0010
0000
0000
2001
0000
0000
0002
0000
0000
0000
0000
0000
0000
0000
0000
0000
,  // measure 7
0000
3003
0000
0000
1010
0000
0000
0202
,  // measure 8
0000
0303
0000
0000
,  // measure 9
0011
0000
0000
1001
0000
0000
1010
0000
2001
0000
0000
0000
0000
0000
0020
0000
,  // measure 10
0000
0000
0000
3030
0000
0000
0000
0000
0010
0000
0000
0000
1000
0000
0100
0000
,  // measure 11
0011
0000
0000
0101
0000
0000
0110
0000
2001
0000
0000
0000
0000
0000
0002
0000
,  // measure 12
0000
3003
1000
0000
0100
0000
0010
0001
,  // measure 13
1000
0000
0000
0011
0000
0000
1001
0000
1010
0000
1000
0100
1000
0100
1000
0100
,  // measure 14
0010
0001
1000
0100
0010
0001
1000
0100
0010
0001
1000
0100
0010
0001
1000
0100
,  // measure 15
0010
0100
0010
0001
0010
0001
0100
0001
1000
0100
1000
0100
1000
0010
0100
0001
,  // measure 16
1000
0010
0100
0001
1000
0010
0100
0001
1000
0010
0100
0001
1000
0010
0100
0001
,  // measure 17
1000
0010
0100
0001
1000
0010
0100
0001
2000
0000
3000
0000
0000
0000
2002
0000
,  // measure 18
0000
3003
1000
0000
0010
0100
0010
0000
,  // measure 19
1000
0000
0001
0000
0100
0000
0010
0000
1000
0100
1000
0100
1000
0100
0010
0001
,  // measure 20
1000
0001
0010
0001
1000
0010
1000
0010
1000
0100
1000
0100
1000
0100
0010
0001
,  // measure 21
0100
0001
0010
0001
0010
0000
0000
0000
0021
0000
0000
0000
0000
0000
0002
0000
,  // measure 22
0000
0000
0033
0000
0000
0000
1001
0001
,  // measure 23
0010
0011
0010
0100
1100
1000
0010
0110
,  // measure 24
0100
0010
1001
1000
1010
1000
0100
0011
,  // measure 25
0000
0000
0000
0000
0120
0000
0000
0200
,  // measure 26
0000
0000
0330
0000
0000
0000
1000
0100
,  // measure 27
1000
0100
0010
0001
0100
0010
1000
0100
0010
0100
0010
0100
0010
0100
0010
0001
,  // measure 28
0010
0001
0010
0001
0100
0001
0100
0001
0100
0010
0100
0010
0100
0010
1000
0100
,  // measure 29
1000
0010
1000
0100
1000
0010
1000
0100
2000
0000
0000
0000
0000
0000
0020
0000
,  // measure 30
0000
0000
0000
0000
3030
0000
0000
0000
0000
0000
0000
0000
0010
1000
0001
1000
,  // measure 31
0010
1000
0001
0100
0001
0100
0001
0100
0001
1000
0001
0100
0001
1000
0100
1000
,  // measure 32
0100
1000
0100
1000
0010
1000
0100
1000
0010
1000
0010
1000
0010
1000
0001
0100
,  // measure 33
0001
1000
0001
0010
0001
1000
0001
0100
0001
0000
1000
0001
1000
0000
0100
0000
,  // measure 34
0010
0000
0100
1000
0010
0000
0100
0000
0010
0000
1000
0001
1000
0000
0100
0000
,  // measure 35
0110
0000
0000
0000
0011
0000
0001
0000
1000
0000
0010
0100
0010
0000
1000
0000
,  // measure 36
0100
0000
0010
0001
0010
0000
0100
0000
1000
0000
0010
0100
0010
0000
1000
0000
,  // measure 37
1100
0000
0000
0000
0011
0000
0010
0000
0001
0000
0100
0010
0100
0000
0010
0000
,  // measure 38
1000
0000
0100
0010
0001
0000
1000
0000
0010
0000
1000
0001
0100
0000
0010
0000
,  // measure 39
1010
0000
0000
0000
1100
0000
0100
0000
0010
0000
0001
0100
0010
0000
1000
0000
,  // measure 40
0100
0000
0010
0100
1000
0000
0001
0000
0100
0001
0100
0001
0100
0010
1000
0100
,  // measure 41
1000
0010
0100
0001
0100
0010
1000
0100
1000
0010
1000
0010
0100
0010
0100
0001
,  // measure 42
1000
0100
1000
0100
0010
0001
0100
0010
1000
0010
1000
0100
0010
0100
0010
0001
,  // measure 43
0100
0010
0100
0010
0100
0010
1000
0100
1000
0010
1000
0001
0100
0001
0100
0010
,  // measure 44
1000
0100
1000
0010
0100
0010
0100
0001
1000
0100
1000
0010
1000
0010
0100
0001
,  // measure 45
0010
0001
0010
0001
0010
0001
1000
0010
0100
0001
0100
0010
1000
0100
1000
0010
,  // measure 46
1000
0010
1000
0100
0010
0001
1000
0010
1000
0100
1000
0001
0100
0001
1000
0010
,  // measure 47
0100
0010
0100
0010
0100
0010
0100
0010
1000
0100
1000
0001
0100
0001
1000
0010
,  // measure 48
1000
0100
1000
0001
0100
0010
0100
0010
0100
0010
1000
0010
1000
0010
1000
0010
,  // measure 49
1000
0010
1000
0010
1000
0000
0020
0000
1M00
0000
1M00
0000
1M00
0000
1M00
0000
,  // measure 50
1M30
0000
1010
0000
1000
0010
0100
0001
,  // measure 51
0010
0100
1000
0001
0100
0010
1000
0001
0100
0010
0100
0010
0100
0010
0100
0001
,  // measure 52
0100
0001
0100
0001
1000
0100
1000
0100
1000
0001
1000
0001
1000
0001
1000
0010
,  // measure 53
1000
0010
1000
0010
1000
0000
0100
0000
0020
0000
0M01
0000
0M01
0000
0M01
0000
,  // measure 54
0M32
0000
2000
0000
3003
0000
1010
1000
,  // measure 55
0010
M110
0100
00M1
0011
M010
0100
11MM
,  // measure 56
1000
0000
0010
0000
M110
0000
0010
0000
0100
0001
0100
0001
0100
0001
0100
0010
,  // measure 57
0100
0010
0100
0010
0100
0000
0010
0000
2000
0000
010M
0000
010M
0000
010M
0000
,  // measure 58
310M
0000
2000
0M10
0M20
0000
3030
0000
,  // measure 59
1000
0000
0010
0000
0100
0000
0001
0000
1000
0100
1000
0100
1000
0100
1000
0001
,  // measure 60
1000
0001
1000
0001
0100
0001
0100
0001
0010
0001
0010
0001
0010
0001
1000
0100
,  // measure 61
1000
0100
1000
0100
1000
0000
0001
0000
0200
0000
001M
0000
001M
0000
001M
0000
,  // measure 62
032M
0000
0000
0000
0200
0000
0000
0000
0330
0000
0000
0000
0010
1000
0010
1000
,  // measure 63
0010
1000
0001
0100
0001
0100
0001
0100
0010
0100
0010
0100
0010
0100
0001
0010
,  // measure 64
0001
0010
0001
0010
0100
1000
0100
1000
0001
0100
0001
0100
0001
0100
0001
0010
,  // measure 65
0001
0010
0001
0010
0100
0010
0100
0010
0001
0100
0001
0100
0001
0100
0010
1000
,  // measure 66
0010
1000
0010
1000
0100
0010
0100
0010
0001
0100
0001
0100
0001
0100
0010
1000
,  // measure 67
0010
1000
0010
1000
0010
0100
0010
0100
0002
0000
0000
0000
0000
0000
2000
0000
,  // measure 68
0000
0000
0000
0000
0MM0
3003
0000
0000
M001
0000
0100
0000
0010
0000
0000
0000
M10M
0000
0000
0000
0010
0000
0000
0000
10MM
0000
0100
0000
0000
0000
0000
0000
,  // measure 69
MM11
0000
0000
0000
0M0M
00M0
M000
0000
00M0
0000
0M0M
0000
M000
0000
00M0
0000
,  // measure 70
0M00
0000
0000
0000
1000
0001
M100
0000
001M
0100
0000
0000
0M2M
0000
0000
0000
,  // measure 71
M200
0000
033M
0000
00M0
0M00
M00M
00M0
,  // measure 72
M000
0M00
00M0
0000
0001
1000
0010
0000
M10M
0000
001M
0000
1000
0100
0000
M000
,  // measure 73
0012
0000
MM03
00M0
0001
1000
0020
0M00
000M
M000
0230
0302
2003
0200
000M
33M0
,  // measure 74
0000
0000
0M00
1000
0001
0010
0100
0000
001M
0000
0100
000M
2000
00M0
0000
0M00
,  // measure 75
0002
00M0
0000
0M00
0000
00M0
3M03
0000
0002
M200
00M0
0000
M3M3
0000
0000
0000
,  // measure 76
0002
0000
0000
2003
0000
0000
3002
0000
0203
0000
0000
0320
0000
0000
0200
0000
,  // measure 77
0000
0000
0000
0330
,  // measure 78
2001
0000
0000
0200
0000
0000
3300
0000
,  // measure 79
0000
0000
0000
0000
0000
0000
0000
0000
1010
0000
0000
0110
0000
0000
0101
0000
,  // measure 80
0001
0000
0000
0010
0000
0000
0100
0000
1000
0000
0000
0101
0000
0000
2002
0000
,  // measure 81
0000
0000
0000
3003
,  // measure 82
1002
0000
0000
0200
0000
0000
0303
0000
,  // measure 83
0000
0000
0000
0000
0000
0000
0000
0000
0101
0000
0000
0110
0000
0000
1010
0000
,  // measure 84
1000
0100
1000
0100
1000
0100
0010
0001
0010
0100
0010
0001
0010
0100
0010
0001
,  // measure 85
0010
0100
0010
0001
0010
0100
0010
0001
1000
0010
1000
0001
0100
0001
0100
0010
,  // measure 86
1000
0100
1000
0100
1000
0100
1000
0001
1000
0010
1000
0001
1000
0100
1000
0001
,  // measure 87
1000
0010
1000
0001
1000
0100
1000
0001
0100
0010
0100
0001
0010
0001
0010
0100
,  // measure 88
1000
0001
1000
0001
1000
0001
0100
0010
1000
0010
0100
0010
1000
0010
0100
0010
,  // measure 89
1000
0010
0100
0010
1000
0010
0100
0010
1000
0001
1000
0010
0100
0010
1000
0100
,  // measure 90
0010
0001
0010
0001
0010
0001
0100
0010
1000
0001
0100
0010
1000
0001
0100
0010
,  // measure 91
1000
0001
0100
0010
1000
0001
0100
0010
1000
0100
0010
0100
1000
0001
0100
0010
,  // measure 92
0100
0001
0100
0001
0100
0001
0100
0010
0100
0010
0100
0010
0100
0010
0100
0010
,  // measure 93
0100
0001
0100
0001
0100
0001
0100
0001
0100
0001
1000
0100
0010
0100
1000
0100
,  // measure 94
0010
0001
0100
0001
0010
0001
0100
0010
0100
0010
0100
0010
1000
0100
1000
0100
,  // measure 95
1000
0010
1000
0010
1000
0010
0100
0010
1000
0010
0100
0010
1000
0010
0100
0010
,  // measure 96
1000
0100
1000
0100
1000
0100
0010
0001
0010
0100
0010
0001
0010
0100
0010
0001
,  // measure 97
0010
0100
0010
0001
0100
0001
0100
0001
0100
0001
1000
0100
1000
0100
1000
0100
,  // measure 98
0010
0001
0010
0001
0010
0001
1000
0010
1000
0010
1000
0010
0100
0010
1000
0010
,  // measure 99
0100
0001
0100
0001
0100
0001
1000
0010
1000
0001
1000
0010
1000
0001
1000
0010
,  // measure 100
1000
0100
1000
0100
1000
0100
0010
0001
0010
0100
1000
0100
0010
0001
0010
0100
,  // measure 101
1000
0100
0010
0001
0010
0100
1000
0100
0010
0001
0100
0010
1000
0100
0010
0001
,  // measure 102
0100
0010
0100
0010
0100
0010
0100
0001
0100
0001
0100
0001
1000
0100
0010
0001
,  // measure 103
0100
0010
0100
0010
0100
0010
0100
0001
0100
0010
0100
0001
0100
0010
0100
0001
,  // measure 104
1000
0100
1000
0100
1000
0100
0010
0001
1000
0001
0010
0001
1000
0001
0010
0001
,  // measure 105
1000
0001
0010
0001
1000
0100
1000
0100
1000
0100
0010
0001
0010
0001
0010
0001
,  // measure 106
0100
0001
0100
0001
0100
0001
1000
0010
1000
0010
1000
0010
1000
0100
0010
0001
,  // measure 107
0010
0100
0010
0100
0010
0100
1000
0001
1000
0001
1000
0001
1000
0000
0100
0000
,  // measure 108
0020
0100
0100
0100
0200
0330
0110
0000
,  // measure 109
0010
0001
0010
0001
0010
0001
0010
0001
0010
0100
1000
0010
0100
0001
0100
0001
,  // measure 110
1000
0100
1000
0100
1000
0100
1000
0010
1000
0010
1000
0010
0100
0001
0100
0001
,  // measure 111
1000
0100
1000
0100
1000
0100
0010
0001
0010
0001
0010
0001
0010
0000
0100
0000
,  // measure 112
2000
0M10
0M10
0M10
3M20
0000
0200
0000
,  // measure 113
0330
0000
1010
0100
0001
0101
0010
0100
,  // measure 114
1100
1000
0001
1001
0010
0100
0011
0100
,  // measure 115
1100
1000
0010
0220
0000
0330
0010
0100
,  // measure 116
0002
10M0
10M0
10M0
2003
0000
0M01
0M01
,  // measure 117
0M02
0000
3003
0000
0001
1000
0001
0100
,  // measure 118
0001
0100
0001
0100
0001
0100
0010
1000
0010
0100
0001
1000
0100
0010
0100
0010
,  // measure 119
0100
1000
0100
1000
0100
1000
0010
1000
0010
1000
0010
1000
0010
0000
1000
0000
,  // measure 120
0020
1M00
1M00
1M00
2M30
0000
0020
0000
,  // measure 121
3030
0000
0000
0000
0010
1000
0010
1000
0010
1000
0001
1000
0100
1000
0001
1000
,  // measure 122
0010
1000
0010
1000
0001
0100
0001
1000
0001
0100
0010
1000
0010
1000
0010
1000
,  // measure 123
0010
0100
0010
0100
0001
0100
0001
0100
0001
0100
0010
1000
0010
1000
0010
1000
,  // measure 124
0001
0000
0000
0000
0001
1000
0010
1000
0001
1000
0010
0100
0010
0100
0010
0100
,  // measure 125
0001
0100
0001
0100
0001
0100
0010
0100
0010
0100
0010
1000
0001
1000
0010
0100
,  // measure 126
0010
0000
0000
0000
0010
1000
0001
1000
0010
1000
0001
0100
0010
1000
0010
1000
,  // measure 127
0100
0010
0001
1000
0100
0010
0001
0100
0001
0100
0010
1000
0100
1000
0100
1000
,  // measure 128
0100
0000
0000
0000
1000
0100
1000
0100
1000
0010
0100
0001
0010
0100
1000
0001
,  // measure 129
0100
0010
0100
0010
1000
0010
1000
0010
1000
0010
1000
0001
1000
0100
1000
0001
,  // measure 130
0100
0010
0100
0001
0100
0010
1000
0100
1000
0100
1000
0100
0010
0001
0010
0100
,  // measure 131
1000
0010
1000
0010
1000
0010
1000
0010
0100
0010
1000
0010
0100
0010
1000
0010
,  // measure 132
0100
0001
0100
0001
0100
0001
0010
0100
1000
0100
0010
0001
0010
0100
1000
0100
,  // measure 133
0010
0001
0010
0100
1000
0100
0010
0001
0100
0010
0100
0001
0010
0001
0100
0010
,  // measure 134
1000
0010
1000
0010
1000
0010
0100
0001
0010
0100
1000
0010
0100
0001
0010
0100
,  // measure 135
1000
0010
1000
0010
1000
0010
0100
0010
0100
0001
0100
0010
0100
0001
0100
0010
,  // measure 136
0100
0001
0100
0001
0100
0001
0010
0001
0010
0100
1000
0001
0010
0100
1000
0001
,  // measure 137
0010
0100
1000
0001
0010
0100
0010
0100
0010
0100
1000
0010
1000
0010
1000
0010
,  // measure 138
0100
0001
0100
0001
0100
0001
0100
0010
1000
0001
0100
0010
1000
0001
1000
0001
,  // measure 139
0010
0100
1000
0100
0010
0100
1000
0000
0000
0000
0001
0000
1000
0000
0000
0000
,  // measure 140
0002
0000
0000
2000
0000
0000
0000
3003
0000
0000
0000
0000
0000
0000
0000
0000
;
