#TITLE:Tears;
#SUBTITLE:;
#ARTIST:Watami;
#TITLETRANSLIT:;
#SUBTITLETRANSLIT:;
#ARTISTTRANSLIT:;
#CREDIT:;
#BANNER:Tears.png;
#BACKGROUND:Tears-bg.png;
#LYRICSPATH:;
#CDTITLE:;
#MUSIC:Tears.ogg;
#OFFSET:2.014;
#SAMPLESTART:-1.440;
#SAMPLELENGTH:11.960;
#SELECTABLE:YES;
#BPMS:0.000=90.000,37.000=180.000,293.000=90.000;
#STOPS:34.500=0.333
,35.000=0.323
,35.500=0.333
,36.000=0.333
;
#BGCHANGES:;

//---------------dance-single - HF 16----------------
#NOTES:
     dance-single:
     HF 16:
     Challenge:
     13:
     0.825,1.000,0.224,0.090,0.948: // measure 1
0000
0000
0000
0000
,  // measure 2
1000
0000
0000
0100
0000
0000
0010
0000
0000
0000
0000
0000
0001
0000
0001
0000
,  // measure 3
0000
0000
0100
0100
0000
0000
0010
0000
,  // measure 4
1000
0000
0000
0001
0000
0000
0100
0000
0000
0000
0000
0000
0010
0000
0010
0000
,  // measure 5
0000
0000
1000
1000
0000
0000
1010
0000
,  // measure 6
0010
0000
0000
1000
0000
0000
0100
0000
0000
0000
0000
0000
0011
0000
0000
0000
,  // measure 7
0000
0001
0000
1000
,  // measure 8
0010
0000
0000
1000
0000
0000
0100
0000
0000
0000
0000
0000
0101
0000
0000
0000
,  // measure 9
0000
0001
0000
0000
,  // measure 10
0000
1000
1001
0000
1000
0100
0010
0001
1000
0100
0010
0001
0100
0010
1000
0001
,  // measure 11
0100
0010
1000
0100
1000
0100
0010
0001
0010
0001
0100
0001
0100
0010
1000
0010
,  // measure 12
1000
0000
0000
0100
0000
0000
1000
0000
0010
0000
1000
0000
0010
0000
0000
1000
0000
0000
0010
0000
0000
1000
0000
0000
0100
0000
0000
0010
0000
0000
0001
0000
0010
0000
0001
0000
1000
0000
0000
0001
0000
0000
0100
0000
0000
0010
0000
0000
,  // measure 13
1000
0010
0100
0001
0010
0100
1000
0100
0010
0001
1000
0100
0010
0001
0010
0001
,  // measure 14
0010
0100
1000
0001
1000
0001
0100
0010
0100
0001
0010
0100
1000
0001
1000
0010
,  // measure 15
0100
0001
0010
0100
0010
0001
0100
0010
1000
0100
0010
0001
0100
0001
0010
0100
,  // measure 16
1000
0000
0000
0010
0000
0000
0100
0000
0010
0000
1000
0000
0100
0000
0000
1000
0000
0000
0100
0000
0000
0010
0000
0000
0001
0000
0000
1000
0000
0000
0100
0000
0010
0000
0001
0000
0000
0000
0010
0000
0100
0000
1000
0000
0000
0001
0000
0000
,  // measure 17
1000
0010
0100
0010
1000
0100
0010
0001
0100
0010
0100
0001
0010
0100
1000
0001
,  // measure 18
0010
0100
1000
0010
1000
0100
0010
0001
0010
0001
0100
0001
0100
0010
0100
0010
,  // measure 19
1000
0010
1000
0010
1000
0100
0010
0001
0010
0100
1000
0010
0100
0001
1000
0100
,  // measure 20
0010
0000
0000
0001
0000
0000
0010
0000
0001
0000
0100
0000
0010
0000
0000
1000
0000
0000
0001
0000
0000
0100
0000
0000
0001
0000
0000
0100
0000
0000
0001
0000
0100
0000
0010
0000
1000
0000
0000
0010
0000
0000
0100
0000
0000
0010
0000
0000
,  // measure 21
1000
0100
0010
0001
0010
0001
0100
0010
1000
0100
1000
0010
0100
0001
0010
0100
,  // measure 22
1000
0100
1000
0010
1000
0100
0010
0001
1000
0010
1000
0100
0010
0001
0100
0010
,  // measure 23
1000
0001
0100
0010
1000
0100
0010
0100
1000
0001
0010
0100
1000
0010
0100
0001
,  // measure 24
0010
0000
0000
0100
0000
0000
1000
0000
0100
0000
1000
0000
0100
0000
0000
0010
0000
0000
0001
0000
0000
0010
0000
0000
0100
0000
0000
1000
0000
0000
0100
0000
0010
0000
0001
0000
0000
0000
0010
0000
0100
0000
1000
0000
0000
0001
0000
0000
,  // measure 25
0100
0010
0100
0001
0010
0100
1000
0001
0100
0010
1000
0001
0010
0100
1000
0001
,  // measure 26
0100
0010
1000
0100
0010
0000
0000
0000
0010
0000
0000
0001
0000
0000
1000
0000
,  // measure 27
0001
0000
1000
0000
0010
0000
0000
0000
0100
0000
0000
0001
0000
0000
0010
0000
,  // measure 28
0100
0000
1000
0000
0010
0000
0000
0000
0010
0000
0000
0100
0000
0000
0001
0000
,  // measure 29
0010
0000
0100
0000
1000
0000
0000
0000
0001
0000
0000
0100
0000
0000
0010
0000
,  // measure 30
1000
0000
0001
0000
0001
0000
0000
0000
0100
0000
0000
0010
0000
0000
0100
0000
,  // measure 31
0010
0000
0100
0000
0001
0000
0000
0000
1000
0000
0000
0001
0000
0000
0010
0000
,  // measure 32
0001
0000
0010
0000
0001
0000
0000
0000
1000
0000
0000
0010
0000
0000
0100
0000
,  // measure 33
0010
0000
0100
0000
0001
0000
0000
0000
1000
0000
0000
0010
0000
0000
0100
0000
,  // measure 34
0010
0000
0100
0000
0001
0000
0000
0000
1000
0000
0000
0010
0000
0000
1000
0000
,  // measure 35
0010
0000
0100
0000
0001
0000
0000
0000
1000
0000
0000
0010
0000
0000
0010
0000
,  // measure 36
0100
0000
0001
0000
0100
0000
0000
0000
0001
0000
0000
1000
0000
0000
0010
0000
,  // measure 37
0100
0000
0010
0000
0100
0000
0000
0000
0001
0000
0000
1000
0000
0000
1000
0000
,  // measure 38
0010
0000
0100
0000
0001
0000
0000
0000
1000
0000
0000
0010
0000
0000
1000
0000
,  // measure 39
1000
0000
0010
0000
0100
0000
0000
0000
0001
0000
0000
1000
0000
0000
0010
0000
,  // measure 40
0100
0000
0001
0000
1000
0000
0000
0000
0001
0000
0000
0001
0000
0000
0100
0000
,  // measure 41
0010
0000
0100
0000
0100
0000
0000
0000
0001
0000
0000
0010
0000
0000
0100
0000
,  // measure 42
1000
0000
1000
0000
1000
0000
1000
0001
0100
0000
0100
0001
0010
0000
0100
1000
,  // measure 43
0010
0000
0010
0100
0001
0000
0001
0000
0010
0000
0100
1000
0100
0000
0010
0000
,  // measure 44
0001
0000
0100
0010
1000
0000
0001
0100
0010
0000
0100
0001
0010
0000
0100
0000
,  // measure 45
1000
0000
0010
0100
0001
0000
0010
0000
0100
0000
1000
0001
0100
0000
0010
0000
,  // measure 46
0110
0000
0100
0001
0010
0000
0100
0000
1000
0000
0010
0100
0001
0000
0100
0000
,  // measure 47
0010
0000
1000
0100
0010
0000
0001
0000
0010
0000
0001
0010
0001
0000
0100
0000
,  // measure 48
0010
0000
1000
0100
1000
0000
0001
0000
0100
0000
0010
0100
0010
0000
0100
0001
,  // measure 49
0010
0000
0010
0100
0010
0000
0100
0000
1000
0000
0010
0100
0010
0000
0100
0000
,  // measure 50
0001
0000
0010
0000
0011
0000
0001
0000
0010
0000
0100
1000
0000
0000
0101
0000
,  // measure 51
0100
0000
0001
0000
0010
0000
0100
0000
1000
0000
1000
0001
0000
0000
1001
0000
,  // measure 52
0001
0000
0100
0000
0010
0000
0100
0000
0001
0000
0100
0001
0000
0000
0101
0000
,  // measure 53
0001
0000
0010
0000
0100
0000
1000
0000
0100
0000
0010
0000
0001
0000
0010
0100
,  // measure 54
1000
0000
0010
0000
0100
0000
0100
0000
0010
0000
0010
0100
0010
0000
0100
0000
,  // measure 55
0001
0000
0010
0000
0100
0000
0010
0000
0010
0000
0100
1000
0000
0000
0011
0000
,  // measure 56
0010
0000
0001
0000
0100
0000
0010
0000
1000
0000
0001
1000
0000
0000
0010
0000
,  // measure 57
0100
0000
0001
0000
0011
0000
0000
0000
0011
0000
0000
0001
0010
0000
0011
0000
,  // measure 58
0000
0000
0000
0000
0001
0000
0010
0000
0100
1000
0010
0100
0010
0100
0001
0010
,  // measure 59
0200
0000
0000
0000
1300
0000
0000
0000
0010
0000
0100
0010
0000
0100
0001
0010
,  // measure 60
0100
0000
1000
0000
0002
0000
0010
0000
0013
0000
0010
0100
0000
1000
0010
0100
,  // measure 61
0002
0000
0000
0000
0013
0000
0100
1000
0010
0000
0010
0100
0000
0100
0001
1000
,  // measure 62
0020
0000
0000
0000
0130
0000
0001
0000
0010
0000
0000
0100
0000
1000
0010
0100
,  // measure 63
0001
0000
0000
0000
0001
0000
0100
0000
0010
0000
1000
0100
0000
0010
0001
0100
,  // measure 64
0010
0100
0000
0000
0001
0000
0010
0000
0100
1000
0000
0001
0100
0010
1000
0100
,  // measure 65
0020
0000
0001
0000
0031
0010
0100
1000
0001
0000
0100
0010
0100
0010
0100
0001
,  // measure 66
0010
0000
0110
0000
2100
0000
3001
0000
0001
0100
0000
0100
0001
0010
0001
0100
,  // measure 67
0010
0000
0000
0000
0110
0000
0000
0000
0100
0001
0000
0100
0001
0010
0100
1000
,  // measure 68
0002
0000
0000
0000
0203
0000
0301
0000
0011
0000
0010
0100
0010
0100
1000
0010
,  // measure 69
0100
0000
0001
0100
0001
0100
0001
0010
0100
0000
1000
0100
1000
0010
0100
0001
,  // measure 70
0020
0000
0000
0000
0130
0000
1000
0000
0001
0000
0010
0100
1000
0100
0010
0001
,  // measure 71
2000
0000
0000
0000
3001
0100
0001
0100
0002
0000
0000
0000
0013
0100
0010
0100
,  // measure 72
0020
0000
0000
0000
0130
0000
1000
0000
0010
0000
0000
0010
0100
0010
0100
0001
,  // measure 73
0010
0000
0000
0000
0100
1000
0100
1000
0100
0010
0100
0010
0100
1000
0010
1000
,  // measure 74
0010
0100
0010
0000
0110
0000
0000
0000
0100
0000
0000
0001
0000
0000
0100
0000
,  // measure 75
0000
0000
0110
0100
0000
0000
1001
1000
,  // measure 76
0000
0000
0000
0000
1001
0000
0000
0000
1000
0000
0000
0001
0000
0000
1000
0000
,  // measure 77
0000
0000
1001
0001
0000
0000
1001
1000
,  // measure 78
0000
0000
0000
0000
1010
0000
0000
0000
0010
0000
0000
0010
0000
0000
0010
0000
,  // measure 79
0000
1001
0000
0101
,  // measure 80
0000
0000
0000
0000
1010
0000
0000
0000
1000
0000
0000
0001
0000
0000
0010
0000
,  // measure 81
0000
0110
0000
1100
,  // measure 82
0000
1001
0000
0000
;
