#TITLE:STARGAZER;
#SUBTITLE:;
#ARTIST:Takahiro Eguchi;
#TITLETRANSLIT:;
#SUBTITLETRANSLIT:;
#ARTISTTRANSLIT:;
#CREDIT:;
#BANNER:;
#BACKGROUND:;
#LYRICSPATH:;
#CDTITLE:;
#MUSIC:Stargazer.ogg;
#OFFSET:0.311;
#SAMPLESTART:68.640;
#SAMPLELENGTH:14.920;
#SELECTABLE:YES;
#DISPLAYBPM:180.000;
#BPMS:0.000=180.000,262.000=90.000,280.000=180.000;
#STOPS:;
#BGCHANGES:;

//---------------dance-single - Highflyer----------------
#NOTES:
     dance-single:
     Highflyer:
     Challenge:
     12:
     0.880,1.000,0.196,0.697,1.000: // measure 1
0000
0000
0000
0000
1001
0001
0000
0000
,  // measure 2
0100
0000
0000
0000
0000
0000
0010
0000
0000
0000
0010
1000
0000
0000
0000
0000
,  // measure 3
0000
0000
0000
0000
0000
1000
0010
0000
,  // measure 4
0010
0000
0100
0000
0000
0000
0100
0010
0100
0000
0000
0000
0100
0000
0001
0000
,  // measure 5
0000
0000
0002
0000
2000
3003
1000
0100
1000
0000
0001
0000
0000
0000
0000
0000
,  // measure 6
0100
0000
0000
0000
0000
0000
0110
0000
0000
0000
0010
1000
0000
0000
0000
0010
,  // measure 7
1000
0001
1000
0000
0010
1000
0001
0010
,  // measure 8
0100
0000
1000
0000
0001
0000
0100
0000
0010
1000
0010
1000
0001
0010
0001
0010
,  // measure 9
0100
1000
0100
1000
0002
0000
0000
0000
2003
0000
0000
0000
0000
0000
0020
0000
,  // measure 10
0000
0000
3030
0000
0200
0000
0000
0002
,  // measure 11
0000
0000
0303
0000
0002
0000
0000
2000
,  // measure 12
0000
0000
3003
0000
0200
0000
0000
0020
,  // measure 13
0000
0000
0000
0000
0330
0000
0000
0000
0001
0000
0100
0010
0000
0010
2000
0000
,  // measure 14
0000
0000
0000
0000
3000
0000
0100
0010
0001
0000
0100
0010
0000
0100
0020
0000
,  // measure 15
0000
0000
0000
0000
0000
0000
0030
0100
0010
0000
0000
2000
0000
0000
0002
0000
,  // measure 16
0000
0000
3003
0000
0000
0000
0001
0100
0010
1000
0001
0010
0200
0000
2000
0000
,  // measure 17
0000
0000
3300
0000
1001
0000
0000
0000
1000
0000
0000
0200
0000
0000
0020
0000
,  // measure 18
0000
0000
0330
0000
0000
0000
0010
0001
1000
0000
0000
0020
0000
0000
0200
0000
,  // measure 19
0000
0000
0330
0000
0000
0000
0100
0001
0010
0000
0000
0100
0010
0000
0000
0010
,  // measure 20
0001
0000
0000
0000
0000
0000
0000
0000
0000
1000
0000
0000
0010
0000
0000
0000
0000
0000
0000
0000
0000
0000
0000
0000
1000
0000
0000
0000
0010
0000
0000
0000
0100
0000
0000
0000
0001
0000
0000
0000
0010
0000
0000
0000
0100
0000
0000
0000
,  // measure 21
1000
0000
0001
0100
0001
0000
1000
0100
1000
0000
0010
0000
0100
0000
0001
0000
,  // measure 22
0010
0100
0000
0000
1100
0000
0000
0000
1000
0000
0010
1000
0000
0000
0100
0000
,  // measure 23
0000
0100
0000
0000
0010
0000
0000
0000
0001
0010
0100
1000
0001
0000
1000
0010
,  // measure 24
0100
0001
0010
0000
0100
1000
0010
0100
0001
0000
0010
0100
1000
0001
0100
0000
,  // measure 25
0010
0100
0001
0010
0100
1000
0001
0000
0000
0000
0001
0000
0100
0000
0010
0000
,  // measure 26
1000
0001
0010
0000
0100
0000
0000
0000
0100
1000
0000
0010
0000
0000
0100
0000
,  // measure 27
0000
0010
0000
0000
1000
0000
0010
0000
0100
0001
0010
0100
0010
0000
0001
0100
,  // measure 28
0010
1000
0001
0000
0100
0010
1000
0001
0010
0000
0100
1000
0001
0010
0100
0000
,  // measure 29
1000
0010
0100
0001
1000
0010
0100
0001
2000
0000
0010
0000
0010
0000
0010
0000
,  // measure 30
0010
0000
0000
0000
0010
0000
0000
0000
0001
0000
0000
0100
0000
0000
0010
0000
,  // measure 31
0000
0100
0000
0000
3001
0000
0000
0000
1000
0010
0100
0001
0100
0000
0010
1000
,  // measure 32
0001
0100
0010
0000
0100
0001
0010
0100
1000
0000
0001
0010
0100
1000
0001
0000
,  // measure 33
1000
0010
0100
0001
0100
0010
1000
0100
0020
0000
0001
0000
0001
0000
0001
0000
,  // measure 34
0001
0000
0000
0000
0100
0000
0000
0000
0100
0000
0000
0001
0000
0000
0200
0000
,  // measure 35
0000
0000
0030
0000
2300
0000
0000
0000
3010
1000
0001
0100
0010
0000
0100
0001
,  // measure 36
0010
0100
1000
0000
0001
0100
0010
0100
0001
0010
0100
1000
0001
0100
0010
0100
,  // measure 37
0001
0010
0100
0010
0001
0100
0010
1000
0001
0000
0100
0010
0000
0010
2000
0000
,  // measure 38
0000
0000
0000
0000
3000
0000
0100
0010
0001
0100
0010
1000
0001
0000
0020
0000
,  // measure 39
0000
0000
0000
0000
0000
0000
0030
0000
0001
0100
0010
1000
0001
0000
2000
0000
,  // measure 40
0000
0000
0000
0000
0000
0000
3100
0010
0001
0100
0010
1000
0001
0100
0020
0000
,  // measure 41
0000
0000
0000
0000
0100
0000
0030
0000
0010
1000
0001
0100
0010
0000
0200
0000
,  // measure 42
0000
0000
0000
0000
0000
0000
0310
0100
0001
0010
0100
1000
0001
0000
0200
0000
,  // measure 43
0000
0000
0000
0000
0000
0000
0300
0000
0010
1000
0001
0010
0100
0000
2000
0000
,  // measure 44
0000
0000
0000
0000
0000
0000
0000
0000
0000
0000
0000
0000
3000
0000
0000
0000
0000
0000
1000
0000
0000
0001
0000
0000
1000
0000
0000
0000
0010
0000
0000
0000
0100
0000
0000
0000
0001
0000
0000
0000
0010
0000
0000
0000
0100
0000
0000
0000
,  // measure 45
1000
0000
0000
0000
0010
0000
0000
0000
0100
0000
0000
0000
0001
0000
0000
0000
0000
0000
0000
0000
0000
0000
0000
0000
0001
0000
0000
0100
0000
0000
0001
0000
0000
0100
0000
0000
0001
0000
0000
0000
0000
0000
1000
0000
0000
0000
0000
0000
,  // measure 46
1010
0000
0000
0000
0000
0000
0010
0100
0001
0010
0100
1000
0001
0000
0100
0000
,  // measure 47
0110
0000
0000
0000
0000
0000
0000
0000
0010
0100
0001
0010
0100
0000
1000
0000
,  // measure 48
1001
0000
0000
0000
0000
0000
1000
0010
0100
0001
0100
0010
1000
0000
0001
0000
,  // measure 49
1001
0000
0000
0000
0110
0000
0000
0000
0010
0100
0001
0010
0100
0000
1000
0000
,  // measure 50
1001
0000
0000
0000
0000
0000
1000
0010
0100
0001
0100
0010
1000
0000
0100
0000
,  // measure 51
1100
0000
0000
0000
0000
0000
0000
0000
1000
0100
0010
0100
1000
0001
0200
0000
,  // measure 52
0000
0000
0000
0000
0000
0000
0310
1000
0001
0010
0001
1000
0010
0100
0010
1000
,  // measure 53
0001
0010
0100
1000
0001
0000
0000
0000
2001
0000
0000
0000
0000
0000
0200
0000
,  // measure 54
0000
0000
3300
0000
1002
0000
0000
0200
,  // measure 55
0000
0000
0000
0000
0303
0000
0000
0000
0001
0100
0010
1000
0001
0000
0010
0100
,  // measure 56
1000
0001
0010
0000
0100
1000
0010
0100
0001
0000
0100
0010
1000
0010
0100
0000
,  // measure 57
0010
0100
0001
1000
0100
0010
0001
0010
0200
0000
0000
0000
0000
0000
2000
0000
,  // measure 58
0000
0000
3300
0000
1020
0000
0000
0200
,  // measure 59
0000
0000
0000
0000
0330
0000
0010
0100
0010
0000
0000
2000
0000
0000
0002
0000
,  // measure 60
0000
3003
0000
0000
0000
0000
0001
0010
0100
1000
0001
0000
0200
0000
0020
0000
,  // measure 61
0000
0000
0330
0000
1001
0000
0000
0000
1100
0000
0000
1010
0000
0000
2001
0000
,  // measure 62
0000
0000
0000
0000
3000
0000
0100
1000
0010
0000
0000
1100
0000
0000
2020
0000
,  // measure 63
0000
0000
3030
0000
0000
0000
0010
0100
0010
0000
0000
1000
0001
0000
0000
0001
,  // measure 64
0010
0000
0000
0000
0000
0000
0000
0000
0000
0100
0000
0000
1000
0000
0000
0000
0000
0000
0000
0000
0000
1000
0000
0000
0001
0000
0000
0000
0010
0000
0000
0000
0100
0000
0000
0000
1000
0000
0000
0000
0010
0000
0000
0000
0100
0000
0000
0000
,  // measure 65
0001
0010
0001
0100
0001
0010
0100
1000
0010
1000
0100
0010
,  // measure 66
0001
0010
0100
1000
0001
1000
1001
0000
0000
0000
0000
0000
,  // measure 67
0001
1000
0001
1000
0001
0000
0200
0000
0000
0000
0000
0000
0300
0000
0000
0010
0100
0001
0010
0100
1000
0000
0002
0000
0000
0000
0000
0000
0000
0000
0003
0000
,  // measure 68
1000
0010
0100
0001
0100
0000
0020
0000
0000
0000
0000
0000
0030
0000
0000
0100
0010
1000
0001
0010
0100
1000
0002
0000
0000
0000
0000
0000
0003
0000
0000
0000
,  // measure 69
1000
0100
0010
0001
0100
0000
0200
0000
0000
0000
0000
0000
0300
0000
0000
0010
0100
0001
0010
0100
1000
0001
0200
0000
0000
0000
0000
0000
0000
0000
0300
0000
,  // measure 70
0010
0000
0000
0000
0000
0000
1000
0000
0000
0000
0000
0000
0001
0000
0000
0000
0000
0000
0010
0000
0000
0000
0000
0000
0100
0000
0000
0000
0000
0000
1000
0000
0000
0000
0000
0000
0002
0000
0000
0000
0000
0000
0000
0000
0000
0000
0000
0000
0000
0000
0000
0000
0000
0000
0000
0000
0000
0000
0000
0000
0000
0000
0000
0000
0000
0000
0000
0000
0000
0000
0000
0000
0003
0000
0000
0000
0000
0000
0000
0000
0000
0000
0000
0000
0000
0000
0000
0000
0000
0000
0001
0000
0000
0000
0000
0000
0100
0000
0000
0000
0000
0000
0000
0000
0010
0000
0000
0000
0000
0000
0000
0000
1000
0000
0000
0000
0000
0000
0000
0000
0001
0000
0000
0000
0000
0000
0000
0000
0100
0000
0000
0000
0000
0000
0000
0000
0010
0000
0000
0000
0000
0000
0000
0000
2002
0000
0000
0000
0000
0000
0000
0000
0000
0000
0000
0000
0000
0000
0000
0000
0000
0000
0000
0000
0000
0000
0000
0000
0000
0000
0000
0000
0000
0000
3003
0000
0000
0000
0000
0000
0000
0000
0000
0000
0000
0000
0000
0000
0000
0000
0000
0000
,  // measure 71
1001
0000
0001
0100
0001
0000
0200
0000
0020
0000
0000
0000
0330
0000
0000
0010
,  // measure 72
0100
0001
0010
0100
1000
0000
0200
0000
0020
0000
0000
0000
0330
0000
0000
0000
,  // measure 73
0010
0001
1000
0010
0100
0000
0020
0000
0200
0000
0000
0000
0330
0000
0010
0100
,  // measure 74
0010
1000
0001
0010
0100
0000
2000
0000
0000
0000
0000
0000
3000
0000
0000
0000
,  // measure 75
0001
0100
0001
0100
0010
0000
0200
0000
0020
0000
0000
0000
0330
0000
0000
0010
,  // measure 76
1000
0100
0010
0001
0100
0000
0002
0000
2000
0000
0000
0000
3003
0000
0000
0000
,  // measure 77
0001
1000
0001
1000
0001
0000
2000
0000
0002
0000
0000
0000
3003
0000
1000
0100
,  // measure 78
0010
0001
1000
0010
0100
0000
0020
0000
0000
0000
0000
0000
1030
0000
0000
0000
,  // measure 79
0002
0003
0000
0000
1011
0000
2000
0000
0002
0000
0000
0000
3003
0000
0000
1000
,  // measure 80
0100
0010
0001
0100
0010
0000
2000
0000
0002
0000
0000
0000
3003
0000
0000
0000
,  // measure 81
1000
0010
0100
0001
0100
0000
0020
0000
2000
0000
0000
0000
3030
0000
0000
1000
,  // measure 82
0001
1000
0010
0100
0010
0000
2000
0000
0200
0000
0000
0000
3300
0000
0000
0000
,  // measure 83
1000
0100
0010
0001
1000
0000
0002
0000
0200
0000
0000
0000
0303
0000
0000
0001
,  // measure 84
0100
0010
1000
0100
0010
0000
0002
0000
0200
0000
0000
0000
0303
0000
0000
0000
,  // measure 85
0001
0100
0010
1000
0100
0000
0020
0000
0200
0000
0000
0000
0330
0000
0000
1000
,  // measure 86
0100
0010
0100
1000
0001
0000
0200
0000
0000
0000
0000
0000
0310
0000
0000
0000
,  // measure 87
2002
0000
0000
0000
,  // measure 88
0000
0000
0000
3003
;
