#TITLE:Princess Bubblegum;
#SUBTITLE:;
#ARTIST:S3RL feat. Yuki;
#TITLETRANSLIT:;
#SUBTITLETRANSLIT:;
#ARTISTTRANSLIT:;
#CREDIT:;
#BANNER:Princess Bubblegum.png;
#BACKGROUND:Princess Bubblegum-bg.png;
#LYRICSPATH:;
#CDTITLE:;
#MUSIC:Princess Bubblegum.ogg;
#OFFSET:-0.185;
#SAMPLESTART:23.210;
#SAMPLELENGTH:13.160;
#SELECTABLE:YES;
#BPMS:0.000=175.000;
#STOPS:66.750=0.343
,227.250=0.171
,227.750=0.171
,228.250=0.171
,228.750=0.171
;
#BGCHANGES:;

//---------------pump-single - Highflyer----------------
#NOTES:
     pump-single:
     Highflyer:
     Hard:
     13:
     0.811,1.000,0.130,0.744,0.594:
00000
00000
00000
00000
,
00000
00000
00000
00000
,
00000
00000
00000
00000
,
00000
00000
00000
00000
,
00000
00000
00000
00000
,
00001
10000
00000
00000
00010
00000
10000
00010
00000
00000
00010
00000
10010
00000
00010
00000
,
01000
00000
00001
00000
10000
00000
00100
01000
00000
00000
00010
00000
10010
00000
00000
00000
,
10000
00001
00000
00000
10000
00000
00010
01000
00000
00000
00010
00000
01010
00000
00000
00000
,
00001
00000
10000
00000
00010
01000
00001
10000
10001
00000
00000
00000
00000
00000
00000
00000
,
20000
00000
00000
00000
00000
00000
00000
00000
00000
00000
00000
00000
30001
01000
00010
00100
,
00002
00000
00000
00203
00000
00000
00320
00000
,
20030
00000
00000
00000
00000
00000
00000
00000
00000
00000
00000
00000
30010
01000
00100
01000
,
00002
00000
00000
00000
00000
00000
00000
00000
00000
00000
00000
00000
10003
00100
20000
00000
,
30020
00000
00000
00000
00000
00000
00000
00000
00000
00000
00000
00000
10030
00001
01000
00100
,
01000
00200
00000
00000
00000
00000
00000
00000
00000
00000
00000
00000
02300
00000
00000
00000
00000
00000
00000
00000
00000
00000
00000
00000
03020
00000
00000
00000
00000
00000
00000
00000
,
00230
00000
00000
00000
00000
00000
00000
00000
00000
00000
00000
00000
00310
01000
00100
10000
,
00002
00000
00000
00000
00000
00000
00000
00000
20003
00000
00000
30000
00001
00000
00000
00000
,
10000
00000
00100
00000
10000
00010
00200
00000
,
00301
00200
00000
00000
00301
01000
20000
00000
,
31000
00200
00000
00000
01300
00000
00010
00000
,
00100
00000
02000
00000
00000
03000
01000
00000
00100
00000
00010
00000
20000
00000
00000
00000
,
30200
20300
30002
00203
,
00301
00020
00000
00000
00031
01000
20000
00000
,
31000
00200
00000
00000
10300
00000
00020
00000
,
00130
01000
00000
01000
00100
00010
01000
00000
,
00100
01000
10000
01000
00001
00100
00001
00000
,
10001
10000
00001
10000
00100
10000
01000
00000
,
00110
00000
00100
00000
00010
00000
01000
00000
00100
00000
01000
00000
00001
00000
00000
00100
,
00000
00001
10000
00000
00001
00000
20002
30003
,
00000
00001
10000
00100
10000
01000
00100
00000
,
00000
00010
01000
00100
01000
10000
00100
00000
,
00000
00000
10000
00000
00100
00000
00001
00000
10000
00000
01000
00000
00100
00000
00000
00010
,
00000
01000
00100
00000
01000
00000
02002
00000
,
03003
0M00M
01001
00001
,
10000
00100
10000
00010
,
00100
00020
00000
00000
01030
00100
01000
00000
,
10000
02000
00000
00000
03001
00000
00100
00000
,
00010
00002
00000
01003
00001
00010
00200
00000
,
00320
02030
03200
02300
,
13000
02000
00000
00000
03001
00100
00020
00000
,
10030
00200
00000
00000
10300
00000
00100
00000
,
01000
00020
00000
00130
00001
00100
00010
00000
,
00000
01000
00100
01000
10000
01000
00001
00000
,
00101
00100
00001
10000
00010
10000
01000
00000
,
10010
00000
10000
00000
00010
00000
00100
00000
00001
00000
01000
00000
00100
00000
00000
01000
,
00000
10000
01000
00000
00001
00000
00202
00303
,
00000
00001
00010
00100
01000
10000
01000
00000
,
00000
00001
00100
00010
10000
01000
00100
00000
,
00000
00000
00010
00000
00100
00000
01000
00000
10000
00000
00010
00000
00100
00000
00000
00001
,
00000
01000
10000
00000
01000
00000
01002
00000
,
00000
00000
00000
00000
00000
00000
00000
00000
00103
00010
01000
00010
00200
00000
00000
00000
,
00000
02300
00000
00000
03002
00000
00023
00000
,
00000
00000
00000
00000
00130
00010
02000
00000
,
00000
00000
00000
00000
00000
00000
00000
00000
03100
10000
00001
00000
00200
00000
00000
00000
,
00000
00000
00000
00000
00000
00000
00000
00000
00310
01000
00100
01000
00200
00000
00000
00000
,
00000
20300
00000
00000
30002
00000
00203
00000
,
00000
00000
00000
00000
00000
00000
00000
00000
00310
10000
00001
00010
00200
00300
00200
00300
,
00200
00300
00200
00300
02010
00000
00000
00000
00000
00000
00000
00000
00000
00000
00000
00000
,
03010
10000
00001
00100
00020
00000
00000
00000
00000
00000
02030
00000
00000
00000
00000
00000
,
03200
20300
00000
00000
,
30001
00100
00010
10000
00020
00000
00000
00000
00000
00000
00000
00000
00000
00000
00000
00000
,
20030
00000
00000
00000
30000
00000
00100
10000
00100
10000
00010
01000
00020
00000
00000
00000
,
01030
00001
01000
00100
02000
00000
00000
00000
00000
00000
03200
00000
00000
00000
00000
00000
,
20300
00000
30020
00230
02300
03200
00000
00320
,
02030
03200
02000
00000
00000
00000
00000
00000
,
00000
00000
03300
00000
00010
00000
10000
00001
10000
00000
00010
00000
10000
00000
00001
00000
,
00100
00001
00100
00000
00010
00000
01000
00100
01000
00000
00100
00000
10000
00000
00001
00000
,
00010
00001
00010
00001
00010
00000
00001
10000
00001
00000
10000
00000
00010
00000
01000
00000
,
00001
10000
00010
01000
00001
00000
10000
00100
10000
00000
00010
00000
01000
00000
00100
00000
,
01000
00100
10000
00100
01000
00000
00100
01000
00100
00000
01000
00000
00001
00000
01000
00000
,
00010
10000
00001
00010
00001
00000
00001
01000
00001
00000
01000
00000
00020
00000
00000
00000
,
20030
30020
02030
03020
,
00000
00000
02030
03000
,
10101
00000
00000
00000
00001
10000
00100
10000
00010
00100
00010
01000
00100
01000
00001
00100
,
00001
10000
00010
10000
00100
10000
01000
10000
00010
00100
00010
00100
00001
00010
00001
00100
,
00001
00100
00010
01000
00010
01000
00100
10000
00001
00100
00010
00100
00010
01000
00010
01000
,
00100
01000
00001
00100
00001
00100
00010
00100
00010
01000
00100
01000
00001
00100
00001
10000
,
00100
10000
00010
00100
00010
01000
00010
01000
00100
01000
00010
00100
00010
00100
00001
00100
,
00001
10000
00100
10000
00010
00100
00010
01000
00100
01000
00010
00100
00001
00100
00001
10000
,
00100
10000
00010
10000
00001
01000
00010
00100
00010
10000
00001
10000
00100
01000
00010
00100
,
00001
10000
00010
10000
00100
01000
00010
00100
00001
00100
00001
00010
00001
00100
00010
01000
,
00010
01000
00100
01000
10000
01000
00100
01000
00010
00100
00001
00100
00010
01000
00010
01000
,
00100
01000
00001
10000
00010
00100
00010
01000
00001
01000
00010
10000
00010
10000
00100
10000
,
00010
00100
00010
01000
00100
01000
00001
00100
00001
10000
00010
10000
00100
01000
00010
00100
,
00001
00100
00001
00010
00001
01000
00100
01000
10000
01000
00100
01000
00010
00100
00010
00100
,
00001
00100
00010
01000
00010
01000
00010
01000
00100
01000
00001
00100
00001
10000
00010
10000
,
00100
10000
01000
00100
00010
01000
00010
01000
00001
00100
00001
00100
00010
01000
00100
01000
,
00001
10000
00100
10000
00010
00100
00010
01000
00001
01000
00001
00100
00010
10000
00100
10000
,
00010
00100
00001
01000
00020
00000
00000
00000
00000
00000
00000
00000
00000
00000
00000
00000
,
00030
20010
30020
20030
,
30200
00000
02300
00000
03001
00200
00000
00000
,
00301
10000
00200
00000
10300
02000
00000
00000
,
03100
00000
00000
00000
00010
00000
00000
00000
01000
00000
00200
00000
00000
00300
00100
00000
,
01000
00001
00200
00000
00302
00000
20003
00000
,
30200
00000
20300
00000
31000
00200
00000
00000
,
00310
01000
00200
00000
01300
00002
00000
00000
,
00103
00000
00001
00000
10000
00200
00000
10300
,
00010
00100
00010
00000
01000
00010
01000
00100
,
01000
00001
00100
00000
01001
00001
10000
00100
,
10000
01000
00100
00000
00110
00010
01000
00100
,
01000
00000
10000
00000
01000
00000
00000
00001
00000
00000
00100
00000
00001
00000
00000
00000
,
10000
00000
20002
30003
00000
00001
10000
00100
,
10000
01000
00100
00000
00000
00010
01000
00100
,
00010
00001
00100
00000
00000
10000
00100
00001
,
01000
00000
00010
00000
00100
00000
00000
01000
00000
00000
00001
00000
00010
00000
00000
00000
,
20000
00002
30003
00000
;

//---------------pump-single - Highflyer----------------
#NOTES:
     pump-single:
     Highflyer:
     Medium:
     9:
     0.694,0.828,0.300,0.744,0.208:
00000
00000
00000
00000
,
00000
00000
00000
00000
,
00000
00000
00000
00000
,
00000
00000
00000
00000
,
00000
00000
00000
00000
,
00001
10000
00000
00000
00010
00000
10000
00010
00000
00000
00010
00000
10010
00000
00010
00000
,
01000
00000
00001
00000
10000
00000
00100
01000
00000
00000
00010
00000
10010
00000
00000
00000
,
10000
00001
00000
00000
10000
00000
00010
01000
00000
00000
00010
00000
01010
00000
00000
00000
,
00001
00000
10000
00000
00010
01000
00001
10000
10001
00000
00000
00000
00000
00000
00000
00000
,
20000
00000
00000
00000
00000
00000
00000
00000
00000
00000
00000
00000
30001
01000
00010
00100
,
00002
00000
00000
00203
00000
00000
00320
00000
,
20030
00000
00000
00000
00000
00000
00000
00000
00000
00000
00000
00000
30010
01000
00100
01000
,
00002
00000
00000
00000
00000
00000
00000
00000
00000
00000
00000
00000
10003
00100
20000
00000
,
30020
00000
00000
00000
00000
00000
00000
00000
00000
00000
00000
00000
10030
00001
01000
00100
,
01000
00200
00000
00000
00000
00000
00000
00000
00000
00000
00000
00000
02300
00000
00000
00000
00000
00000
00000
00000
00000
00000
00000
00000
03020
00000
00000
00000
00000
00000
00000
00000
,
00230
00000
00000
00000
00000
00000
00000
00000
00000
00000
00000
00000
00310
01000
00100
10000
,
00002
00000
00000
00000
00000
00000
00000
00000
20003
00000
00000
30000
00001
00000
00000
00000
,
10000
00000
00100
00000
10000
00010
00200
00000
,
00301
00200
00000
00000
00301
01000
20000
00000
,
31000
00200
00000
00000
01300
00000
00010
00000
,
00100
00000
02000
00000
00000
03000
01000
00000
00100
00000
00010
00000
20000
00000
00000
00000
,
30200
20300
30002
00203
,
00301
00020
00000
00000
00031
01000
20000
00000
,
31000
00200
00000
00000
10300
00000
00020
00000
,
00130
01000
00000
01000
00100
00010
01000
00000
,
00100
01000
10000
01000
00001
00100
00001
00000
,
10001
10000
00001
10000
00100
10000
01000
00000
,
00110
00000
00100
00000
00010
00000
01000
00000
00100
00000
01000
00000
00001
00000
00000
00100
,
00000
00001
10000
00000
00001
00000
20002
30003
,
00000
00001
10000
00100
10000
01000
00100
00000
,
00000
00010
01000
00100
01000
10000
00100
00000
,
00000
00000
10000
00000
00100
00000
00001
00000
10000
00000
01000
00000
00100
00000
00000
00010
,
00000
01000
00100
00000
01000
00000
02002
00000
,
03003
0M00M
01001
00001
,
10000
00100
10000
00010
,
00100
00020
00000
00000
01030
00100
01000
00000
,
10000
02000
00000
00000
03001
00000
00100
00000
,
00010
00002
00000
01003
00001
00010
00200
00000
,
00320
02030
03200
02300
,
13000
02000
00000
00000
03001
00100
00020
00000
,
10030
00200
00000
00000
10300
00000
00100
00000
,
01000
00020
00000
00130
00001
00100
00010
00000
,
00000
01000
00100
01000
10000
01000
00001
00000
,
00101
00100
00001
10000
00010
10000
01000
00000
,
10010
00000
10000
00000
00010
00000
00100
00000
00001
00000
01000
00000
00100
00000
00000
01000
,
00000
10000
01000
00000
00001
00000
00202
00303
,
00000
00001
00010
00100
01000
10000
01000
00000
,
00000
00001
00100
00010
10000
01000
00100
00000
,
00000
00000
00010
00000
00100
00000
01000
00000
10000
00000
00010
00000
00100
00000
00000
00001
,
00000
01000
10000
00000
01000
00000
01002
00000
,
00000
00000
00000
00000
00000
00000
00000
00000
00103
00010
01000
00010
00200
00000
00000
00000
,
00000
02300
00000
00000
03002
00000
00023
00000
,
00000
00000
00000
00000
00130
00010
02000
00000
,
00000
00000
00000
00000
00000
00000
00000
00000
03100
10000
00001
00000
00200
00000
00000
00000
,
00000
00000
00000
00000
00000
00000
00000
00000
00310
01000
00100
01000
00200
00000
00000
00000
,
00000
20300
00000
00000
30002
00000
00203
00000
,
00000
00000
00000
00000
00000
00000
00000
00000
00310
10000
00001
00010
00200
00300
00200
00300
,
00200
00300
00200
00300
02010
00000
00000
00000
00000
00000
00000
00000
00000
00000
00000
00000
,
03010
10000
00001
00100
00020
00000
00000
00000
00000
00000
02030
00000
00000
00000
00000
00000
,
03200
20300
00000
00000
,
30001
00100
00010
10000
00020
00000
00000
00000
00000
00000
00000
00000
00000
00000
00000
00000
,
20030
00000
00000
00000
30000
00000
00100
10000
00100
10000
00010
01000
00020
00000
00000
00000
,
01030
00001
01000
00100
02000
00000
00000
00000
00000
00000
03200
00000
00000
00000
00000
00000
,
20300
00000
30020
00230
02300
03200
00000
00320
,
02030
03200
02000
00000
00000
00000
00000
00000
,
00000
00000
03300
00000
00010
00000
10000
00001
10000
00000
00010
00000
10000
00000
00001
00000
,
00100
00001
00100
00000
00010
00000
01000
00100
01000
00000
00100
00000
10000
00000
00001
00000
,
00010
00001
00010
00001
00010
00000
00001
10000
00001
00000
10000
00000
00010
00000
01000
00000
,
00001
10000
00010
01000
00001
00000
10000
00100
10000
00000
00010
00000
01000
00000
00100
00000
,
01000
00100
10000
00100
01000
00000
00100
01000
00100
00000
01000
00000
00001
00000
01000
00000
,
00010
10000
00001
00010
00001
00000
00001
01000
00001
00000
01000
00000
00020
00000
00000
00000
,
20030
30020
02030
03020
,
00000
00000
02030
03000
,
10101
00000
00100
10000
00010
00100
00010
01000
,
00100
00000
01000
00100
01000
00000
00000
00000
00101
00000
00000
00000
10100
00000
00000
00000
,
10001
00000
00100
10000
00010
00100
00010
01000
,
00100
00000
01000
00001
00100
00000
00000
00000
10001
00000
00000
00000
10100
00000
00000
00000
,
00110
00000
00010
01000
00100
01000
00010
00100
,
00001
00000
10000
00001
10000
00000
00000
00000
10100
00000
00000
00000
00110
00000
00000
00000
,
01100
00000
00010
00100
00001
00100
00010
01000
,
00100
00000
10000
00001
00100
00000
00000
00000
10001
00000
00000
00000
10100
00000
00000
00000
,
00110
00000
00010
01000
00100
01000
00001
00100
,
00001
00000
10000
00100
10000
00000
00000
00000
00110
00000
00000
00000
01100
00000
00000
00000
,
00110
00000
00010
00100
00001
01000
00010
10000
,
00100
00000
10000
00001
10000
00000
00000
00000
00101
00000
00000
00000
00110
00000
00000
00000
,
01100
00000
00001
00100
00001
10000
00010
00100
,
00010
00000
01000
00100
01000
00000
00000
00000
00101
00000
00000
00000
10100
00000
00000
00000
,
10010
01010
10001
10001
,
01010
00010
02000
00000
00000
00000
00000
00000
,
03000
20010
30020
20030
,
30200
00000
02300
00000
03001
00200
00000
00000
,
00301
10000
00200
00000
10300
02000
00000
00000
,
03100
00000
00000
00000
00010
00000
00000
00000
01000
00000
00200
00000
00000
00300
00100
00000
,
01000
00001
00200
00000
00302
00000
20003
00000
,
30200
00000
20300
00000
31000
00200
00000
00000
,
00310
01000
00200
00000
01300
00002
00000
00000
,
00103
00000
00001
00000
10000
00200
00000
10300
,
00010
00100
00010
00000
01000
00010
01000
00100
,
01000
00001
00100
00000
01001
00001
10000
00100
,
10000
01000
00100
00000
00110
00010
01000
00100
,
01000
00000
10000
00000
01000
00000
00000
00001
00000
00000
00100
00000
00001
00000
00000
00000
,
10000
00000
20002
30003
00000
00001
10000
00100
,
10000
01000
00100
00000
00000
00010
01000
00100
,
00010
00001
00100
00000
00000
10000
00100
00001
,
01000
00000
00010
00000
00100
00000
00000
01000
00000
00000
00001
00000
00010
00000
00000
00000
,
20000
00002
30003
00000
;

//---------------dance-single - HF 15/15----------------
#NOTES:
     dance-single:
     HF 15/15:
     Challenge:
     13:
     1.000,1.000,0.287,0.369,1.000: // measure 1
0000
0000
0000
0000
,  // measure 2
0000
0000
0000
0000
,  // measure 3
0000
0000
0000
0000
,  // measure 4
0000
0000
0000
0000
,  // measure 5
0000
0000
0000
0000
,  // measure 6
1000
0001
0000
0000
0100
0000
0010
0100
0000
0000
0010
0000
1001
0000
0001
0000
,  // measure 7
0010
0000
0100
0000
1000
0000
0001
0100
0000
0000
0001
0000
0110
0000
0000
0000
,  // measure 8
0001
0100
0000
0000
0010
0000
1000
0100
0000
0000
0010
0000
1001
0000
0000
0000
,  // measure 9
0001
0000
0010
0000
0100
1000
0001
0100
M01M
0000
0000
0000
0000
0000
0000
0000
,  // measure 10
0010
1000
0000
0000
0100
0000
0010
0001
0000
0000
1000
0000
0100
0010
0001
0100
,  // measure 11
0010
0000
0100
0000
0010
0000
1000
0100
0000
0000
0010
0000
0001
0100
0000
0000
,  // measure 12
0010
0100
0000
0000
0010
0000
0100
0010
0000
0000
0010
0000
1000
0001
0100
0010
,  // measure 13
1000
0000
0001
0000
0100
0000
0010
0100
0000
0000
0010
0000
1000
0100
0010
0000
,  // measure 14
0001
0000
0100
0000
0000
0000
0000
0000
0010
0000
0000
0000
0100
0000
0001
0000
0000
0000
0000
0000
1000
0000
0000
0000
0100
0000
0010
0000
0001
0000
0100
0001
,  // measure 15
1000
0000
0001
0000
0100
0000
0010
0100
0000
0000
0010
0000
1001
0000
0000
0000
,  // measure 16
1000
0100
0000
0000
0010
0000
0001
0100
0000
0000
0010
0000
1000
0100
0010
0100
,  // measure 17
1000
0000
0001
0000
0100
0000
0010
0100
0020
0000
0000
0030
1000
0001
0000
0000
,  // measure 18
0100
0000
0010
0100
0000
0000
0010
0000
0100
0000
0001
0000
0010
0000
0100
0000
,  // measure 19
1000
0000
0001
0100
0000
0000
0010
0000
1001
0000
0000
0000
0001
0010
0000
0000
,  // measure 20
0100
0000
1000
0001
0000
0000
1000
0000
1001
0000
0001
0000
0010
0000
0100
0000
,  // measure 21
1000
0000
0010
0100
0000
0000
0010
0000
1001
0000
0000
0000
1000
0100
0000
0000
,  // measure 22
0010
0000
0001
1000
0000
0000
0010
0000
1001
0000
0001
0000
0010
0000
0100
0000
,  // measure 23
1100
0000
1000
0010
0000
0000
0010
0000
1001
0000
0000
0000
0001
0010
0000
0000
,  // measure 24
0100
0000
1000
0001
0000
0000
0001
0000
0010
0000
0100
0000
MMMM
0000
0000
0000
,  // measure 25
0MM0
M00M
0000
1000
1000
1000
1000
0000
,  // measure 26
0101
0001
0010
0100
1000
0001
0100
0000
,  // measure 27
0110
0100
0001
0010
0100
1000
0001
0000
,  // measure 28
0101
0000
0100
0000
0010
0000
1000
0000
0100
0000
0010
0000
0100
0000
0000
1000
,  // measure 29
0000
0000
0001
0000
0200
0000
0000
0000
0310
0000
0000
0000
2002
3003
0000
0000
,  // measure 30
0000
0001
0010
0001
0100
0010
1010
0000
,  // measure 31
0101
0001
0010
0100
0010
0001
1001
0000
,  // measure 32
0001
0000
0010
0000
0001
0000
0100
0000
0010
0000
1000
0000
0100
0000
0000
0010
,  // measure 33
0000
0100
1000
0001
0200
0000
0020
0000
,  // measure 34
0330
0000
0000
0000
0000
0MM0
0000
0000
1001
0000
0000
0000
1000
0010
0100
0001
,  // measure 35
0010
0100
1000
0001
1000
0100
1000
0100
0010
0001
0010
0001
0100
0010
0100
0010
,  // measure 36
1000
0100
0010
0001
0010
0100
0010
0001
0010
0100
1000
0010
0100
0001
0100
0001
,  // measure 37
1000
0100
0010
0001
0010
0100
0010
0001
1000
0100
1000
0100
0010
0001
0010
0001
,  // measure 38
0100
0010
1000
0001
1000
0001
0010
0100
1000
0010
0100
0001
1000
0010
1000
0010
,  // measure 39
0100
0001
0100
0001
1000
0100
1000
0100
0010
0001
0010
0001
1000
0001
1000
0001
,  // measure 40
0010
0001
1000
0010
1000
0001
1000
0010
0100
0010
1000
0100
0010
0001
0010
0001
,  // measure 41
0100
0010
1000
0100
0010
0001
1000
0100
0010
0100
1000
0001
0010
0100
0010
0100
,  // measure 42
1000
0010
0100
0001
0100
0001
0010
0100
1000
0010
0100
0001
0010
0100
1000
0001
,  // measure 43
0010
0100
0010
0001
1000
0100
0010
0100
1000
0001
0100
0010
1000
0100
1000
0001
,  // measure 44
1000
0100
0010
0001
0100
0010
1000
0100
0010
0001
0100
0010
1000
0001
0010
0001
,  // measure 45
1000
0001
0010
0001
0010
0100
1000
0001
0100
0010
0100
0001
0010
0100
0010
0100
,  // measure 46
1000
0001
0100
0010
0100
0001
0100
0001
1000
0100
1000
0100
0010
0001
1000
0100
,  // measure 47
0010
0001
0100
0010
1000
0100
0010
0001
0100
0010
1000
0100
0010
0100
1000
0100
,  // measure 48
0010
0100
1000
0010
0100
0010
1000
0100
0010
0001
0010
0100
0010
0001
0010
0001
,  // measure 49
1000
0001
0100
0010
1000
0100
0010
0001
0010
0100
1000
0100
0020
0000
0000
0032
,  // measure 50
0000
2003
3020
0000
0230
0300
2001
0000
,  // measure 51
0000
0000
0000
0000
0000
0000
0000
0000
3001
0010
0100
1000
0200
0000
0000
0000
,  // measure 52
0000
2300
0000
0000
3002
0000
0203
0000
,  // measure 53
0000
0000
0000
0000
0000
0000
0000
0000
0310
1000
0100
0010
0002
0000
0000
0000
,  // measure 54
0000
0000
0000
0000
0000
0000
0000
0000
1003
0010
1000
0000
0200
0000
0000
0000
,  // measure 55
0000
0000
0000
0000
0000
0000
0000
0000
0000
0000
0000
0000
0000
0000
0000
0000
0310
0000
0001
0000
1000
0000
0100
1000
0002
0000
0000
0000
0000
0000
0000
0000
,  // measure 56
0000
0203
0000
0000
0320
0000
2030
0000
,  // measure 57
0000
0000
0000
0000
0000
0000
0000
0000
3001
0010
0100
1000
0002
0003
0002
0003
,  // measure 58
0002
0003
0002
0003
0002
0000
0000
0000
0000
0000
0000
0000
0000
0000
0000
0000
,  // measure 59
1003
0010
1000
0100
0020
0000
0000
0000
0000
0000
0230
0000
0000
0000
0000
0000
,  // measure 60
2300
3002
0000
0000
,  // measure 61
1003
0010
0100
0001
2000
0000
0000
0000
0000
0000
0000
0000
0000
0000
0000
0000
,  // measure 62
3002
0000
0000
0000
1003
0100
0010
0001
1000
0010
0100
0001
2000
0000
0000
0000
,  // measure 63
3100
0010
0001
0100
0020
0000
0000
0000
0000
0000
2030
0000
0000
0000
0000
0000
,  // measure 64
3200
0000
0320
0032
2003
3200
0300
2000
,  // measure 65
3020
0230
0302
0000
0000
0000
0000
0000
,  // measure 66
1003
0000
0000
0000
1001
0000
1000
0100
1000
0000
0010
0000
0100
0000
0001
0000
,  // measure 67
0010
0001
0100
0010
1000
0000
0100
0010
0001
0000
1000
0000
1000
0000
0010
0000
,  // measure 68
0100
0010
1000
0001
0100
0000
0010
1000
0001
0000
0010
0000
0001
0000
0100
0000
,  // measure 69
0010
0100
0010
1000
0010
0000
1000
0100
0010
0000
0001
0000
0100
0000
0010
0000
,  // measure 70
1000
0100
0010
0001
1000
0000
0001
0100
0001
0000
1000
0000
0100
0000
0010
0000
,  // measure 71
0001
0100
0010
0100
0001
0000
0010
0100
1000
0000
0001
0000
0100
0000
0010
0000
,  // measure 72
1000
0100
0010
0001
0100
0000
0200
0000
,  // measure 73
0000
0000
0020
0330
,  // measure 74
1011
0000
0000
0000
1000
0100
1000
0100
0010
0001
0010
0001
0100
0010
0100
0010
,  // measure 75
1000
0100
1000
0100
0010
0001
1000
0010
0100
0001
0010
0100
0010
0001
1000
0010
,  // measure 76
0100
0010
1000
0100
0010
0001
0010
0001
1000
0100
1000
0100
1000
0010
1000
0010
,  // measure 77
0100
0001
0100
0001
0010
0100
1000
0010
0100
0001
0010
0100
1000
0100
0010
0001
,  // measure 78
0100
0010
1000
0100
0010
0001
0010
0001
1000
0010
1000
0010
0100
0001
0100
0001
,  // measure 79
1000
0100
1000
0100
0010
0001
0100
0010
1000
0100
0010
0001
0100
0010
1000
0100
,  // measure 80
0010
0001
1000
0100
0010
0001
0010
0001
1000
0010
1000
0010
0100
0010
0100
0010
,  // measure 81
1000
0001
1000
0001
0010
0100
1000
0001
0100
0010
1000
0100
0010
0001
0100
0010
,  // measure 82
0100
0001
0010
0100
1000
0010
1000
0010
0100
0001
0100
0001
0010
0100
0010
0100
,  // measure 83
1000
0001
1000
0001
1000
0010
0100
0001
1000
0010
0100
0001
0010
0100
1000
0001
,  // measure 84
0010
0100
1000
0001
0100
0010
0100
0010
1000
0100
1000
0100
0010
0001
0010
0001
,  // measure 85
1000
0010
1000
0010
0100
0001
0010
0100
1000
0001
0010
0001
1000
0010
1000
0100
,  // measure 86
0010
0100
1000
0010
1000
0001
1000
0001
1000
0010
1000
0010
1000
0100
1000
0100
,  // measure 87
0010
0001
0010
0001
0010
0100
1000
0100
0010
0001
0010
0100
1000
0010
0100
0001
,  // measure 88
0100
0010
1000
0010
0100
0001
0010
0100
1000
0010
0100
0001
0010
0100
1000
0001
,  // measure 89
0100
0010
1000
0100
0020
0000
0000
0000
0000
0000
0000
0000
0100
0000
0100
0000
,  // measure 90
0100
0130
1100
1000
0010
0100
1001
1000
,  // measure 91
0100
0010
0011
0001
0100
1010
0000
0000
,  // measure 92
1010
0010
0100
0001
0010
0110
0000
0000
,  // measure 93
0011
0001
1000
0010
0100
0101
0000
0001
,  // measure 94
0100
0010
1010
1000
0100
0010
0011
0001
,  // measure 95
0100
0010
1010
1000
0001
0101
0000
0000
,  // measure 96
0011
0010
0100
1000
0010
0110
0000
0000
,  // measure 97
1010
1000
0001
0100
0010
0110
0000
0010
,  // measure 98
0010
0010
1100
0000
0000
0100
0100
0010
,  // measure 99
0001
0100
0010
0000
1010
1000
0001
0010
,  // measure 100
0100
1000
1010
0000
1001
0001
0010
0100
,  // measure 101
0010
0000
0001
0000
1000
0000
0000
0010
0000
0000
0100
0000
0020
0000
0000
0000
,  // measure 102
0130
0000
2001
0000
3000
0100
0010
0100
,  // measure 103
1000
0010
0200
0000
0300
0010
1000
0100
,  // measure 104
0010
0001
0200
0000
0300
0010
1000
0001
,  // measure 105
0010
0000
0100
0000
0010
0000
0000
0010
0000
0000
0010
0000
0001
0000
0000
0000
,  // measure 106
2000
0020
0000
3030
;
