#TITLE:Party of the Year;
#SUBTITLE:;
#ARTIST:Cranky;
#TITLETRANSLIT:;
#SUBTITLETRANSLIT:;
#ARTISTTRANSLIT:;
#CREDIT:;
#BANNER:Party of the Year.png;
#BACKGROUND:Party of the Year-bg.png;
#LYRICSPATH:;
#CDTITLE:;
#MUSIC:Party of the YEar.ogg;
#OFFSET:0.714;
#SAMPLESTART:68.640;
#SAMPLELENGTH:14.880;
#SELECTABLE:YES;
#DISPLAYBPM:155.000;
#BPMS:0.000=155.000;
#STOPS:163.000=0.581
,163.500=0.194
,169.000=0.581
,169.500=0.194
,175.000=0.581
,175.500=0.194
;
#BGCHANGES:;

//---------------dance-single - Highflyer----------------
#NOTES:
     dance-single:
     Highflyer:
     Challenge:
     11:
     0.851,0.903,0.462,0.055,1.000: // measure 1
0000
0000
0000
0000
,  // measure 2
0000
0000
0000
1001
,  // measure 3
0000
1000
0000
0010
,  // measure 4
0000
0110
1001
0110
,  // measure 5
1000
0000
0100
0000
0010
0010
0000
0000
,  // measure 6
0000
0000
0000
0001
0001
0000
1010
0000
,  // measure 7
1000
0000
1100
0000
0010
0001
0101
0000
,  // measure 8
0100
0110
1100
0011
,  // measure 9
0001
1010
0100
0220
,  // measure 10
0000
0000
0000
0000
0000
0000
0000
0000
0000
0000
0330
0000
0110
0000
0000
1001
,  // measure 11
0000
0011
1001
0000
1000
0000
0101
0000
,  // measure 12
0000
0000
0000
0000
,  // measure 13
0000
0000
0000
0000
0101
0000
0000
0000
1010
0000
0000
0000
0010
1000
0001
0010
,  // measure 14
0100
0000
1000
0010
0000
0100
0000
0001
0010
0100
1000
0001
0100
0010
0100
0001
,  // measure 15
0010
0000
0100
1000
0000
0010
0000
0100
0001
0010
0100
1000
0001
1000
0010
0100
,  // measure 16
0010
0000
0010
1000
0000
1000
0000
0001
0010
0100
0010
0001
1000
0010
0000
1000
,  // measure 17
0001
0000
1000
0100
0000
1000
0010
0100
0001
0010
0100
1000
0010
0100
0001
0010
,  // measure 18
0100
0000
0100
1000
0000
0010
0000
0100
0001
0010
0100
0010
0001
1000
0010
0100
,  // measure 19
0010
0000
0100
0010
0000
0100
0000
0001
0010
0100
1000
0001
0010
0100
0010
0100
,  // measure 20
1000
0000
0001
0100
0000
0010
0000
0100
0001
1000
0010
0100
0010
1000
0000
0100
,  // measure 21
0010
0000
0001
0100
0000
0010
1000
0000
0001
0100
0010
0000
1010
0000
0000
0000
,  // measure 22
1001
0000
0101
0000
0011
0000
1000
0010
,  // measure 23
0100
0000
0001
0000
0010
0001
1000
0001
0010
0001
1000
0001
0020
0000
0000
0000
,  // measure 24
0000
0000
0100
0100
0001
0000
0031
1000
,  // measure 25
0010
0000
1001
0000
1000
0010
0100
0001
,  // measure 26
0010
0000
1001
0000
1000
0010
0100
0001
,  // measure 27
0010
0000
0000
0000
1001
0000
0001
0100
0000
0000
0000
0000
0100
0000
0010
0000
,  // measure 28
1000
0000
0001
0000
0010
0000
0100
0010
0000
0000
0000
0000
0010
0001
0010
0000
,  // measure 29
0100
0000
1000
0000
1010
0000
0000
0000
1000
0000
0001
0000
0010
0100
0010
0000
,  // measure 30
0100
0000
1000
0000
1010
0000
0000
0000
0010
0000
0100
0000
0001
0010
0001
0000
,  // measure 31
1000
0000
0010
0000
0110
0000
0000
0110
0000
0000
0000
0000
0010
0000
1000
0000
,  // measure 32
0001
0010
0000
0100
0000
0000
1000
0100
0000
0000
1000
0000
0100
0010
0100
0000
,  // measure 33
1000
0010
1000
0010
0100
0000
0000
0000
1001
0000
0000
0000
0010
1000
0010
0000
,  // measure 34
0100
0001
0100
0001
0010
0000
0000
0000
0011
0000
0000
0000
0001
0010
0001
0000
,  // measure 35
0100
0010
0100
0010
1000
0000
0000
0000
1100
0000
0000
0000
0010
0001
0010
0000
,  // measure 36
0001
0100
0001
0100
0010
0000
0000
0000
1010
0000
0000
0000
1000
0010
0100
0000
,  // measure 37
0010
0100
0010
0100
0001
0000
0000
0000
0011
0000
0000
0000
0001
0010
0100
0000
,  // measure 38
1000
0010
1000
0010
0100
0000
0000
0000
0110
0000
0000
0000
0010
0100
0001
0000
,  // measure 39
0101
0000
0000
0000
0001
0100
0010
0000
1010
0000
0000
0000
1000
0100
0010
0000
,  // measure 40
0011
0000
0000
0000
1000
0010
0100
0010
1000
0000
0000
0000
1000
0000
0010
0000
,  // measure 41
0100
0001
0010
0100
1000
0001
0110
1001
,  // measure 42
0110
0000
0000
0000
1011
0000
0000
1000
0001
1000
0000
0010
1000
0000
0001
0100
,  // measure 43
0010
0100
1001
0110
1001
0000
1000
0010
,  // measure 44
0100
0000
0001
0010
0001
0000
1000
0000
0010
0100
0001
0010
0100
0000
1100
0000
,  // measure 45
0011
0000
0000
0000
0001
0010
0100
1000
0001
0000
0100
0010
0000
0000
0100
0010
,  // measure 46
1000
0000
0001
0100
0000
0000
0010
0100
0001
0000
0010
0000
0000
0000
0010
0100
,  // measure 47
1000
0000
0001
0000
0000
0000
1000
0010
0100
0000
0010
0000
0000
0000
1000
0000
,  // measure 48
1001
0000
0000
0000
1000
0010
0100
0001
0100
0010
1000
0100
0010
0001
0100
0010
,  // measure 49
0100
0001
0010
0100
1000
0100
0010
0001
0100
0000
0010
0100
0010
0000
1000
0100
,  // measure 50
0000
0010
0001
0000
1000
0100
1000
0100
0010
0001
0010
0001
0100
0001
0100
0010
,  // measure 51
1000
0010
1000
0100
0000
0010
0000
0001
0100
0000
0010
0100
0000
0001
0000
0010
,  // measure 52
0100
0000
1000
0000
0100
0010
0001
0100
0010
0100
0010
1000
0100
0010
0001
1000
,  // measure 53
0010
0100
0010
1000
0001
0010
0100
1000
0001
0100
0001
0100
0002
0000
0000
1000
,  // measure 54
0003
0000
0100
0000
0010
0001
0100
0010
0100
0001
0010
0100
1000
0001
0100
0010
,  // measure 55
0100
0001
0010
0100
1000
0010
0100
0001
0000
0010
0100
1000
0000
1000
0001
0100
,  // measure 56
0000
0010
0100
0001
0010
0100
1000
0001
0100
0010
0100
0001
0010
0100
1000
0010
,  // measure 57
0100
0001
0010
0100
0010
0001
1000
0010
1000
0000
0100
0010
0001
0000
1000
0100
,  // measure 58
0000
0000
0010
0000
0001
0100
0001
0100
0010
1000
0010
1000
0001
1000
0001
1000
,  // measure 59
0100
1000
0100
1000
0000
0010
0000
0100
0010
0000
0100
0010
0000
1000
0000
0001
,  // measure 60
0010
0000
0100
0000
1000
0010
0100
0001
0010
0100
0010
0001
0100
0010
0100
0001
,  // measure 61
0010
0100
1000
0100
0010
0100
1000
0001
0100
0010
0100
0010
0200
0000
0000
0310
,  // measure 62
1000
0001
0010
0100
1000
0001
0100
0010
0000
0010
0100
0010
0000
0000
1000
0100
,  // measure 63
1000
0001
0100
0010
1000
0000
1000
0100
0010
0001
0100
0010
0000
0100
0001
0010
,  // measure 64
0000
0100
1000
0001
0100
0010
0100
0001
0010
0100
1000
0000
1001
0000
0000
0000
,  // measure 65
0110
0000
0000
0000
0001
0100
0010
0100
0001
0000
0010
0100
0000
1000
0000
0010
,  // measure 66
0100
0001
0010
0100
1000
0010
1000
0010
0100
0000
0010
0100
0000
0100
0000
0010
,  // measure 67
1000
0001
0100
0010
1000
0100
1000
0100
1000
0000
1000
0100
0000
0010
0000
0001
,  // measure 68
0100
0010
0100
0010
1000
0100
0000
1000
0001
0000
1000
0010
0000
1000
0001
0010
,  // measure 69
0100
1000
0001
0100
0010
0100
0010
0100
0010
0000
1000
0100
0000
0010
0000
0001
,  // measure 70
0100
0010
0100
0001
0010
0100
0010
0001
0100
0000
0010
1000
0000
0100
0000
1000
,  // measure 71
0010
0100
0010
0100
0001
0010
0100
1000
0001
0000
1000
0010
0000
0100
0000
0010
,  // measure 72
0100
0001
0010
0100
1000
0100
0000
1000
0001
0000
1000
0010
0000
0100
0010
0000
,  // measure 73
0100
0001
0000
0000
1001
0000
0000
0000
1010
0000
0000
0000
0101
0000
0000
0000
,  // measure 74
0011
0000
0000
0000
1000
0000
0100
0000
0010
0000
0001
0000
0010
0001
0100
0010
,  // measure 75
1000
0001
0100
0010
1000
0000
0000
0000
1010
0000
0000
0000
1001
0000
0000
0000
,  // measure 76
0011
2002
0000
0000
,  // measure 77
0000
0000
0000
0000
,  // measure 78
3003
0000
0000
0000
;
