#TITLE:Out Of Control;
#SUBTITLE:;
#ARTIST:MAN WITH A MISSION x Zebrahead;
#TITLETRANSLIT:;
#SUBTITLETRANSLIT:;
#ARTISTTRANSLIT:;
#CREDIT:;
#BANNER:Out of Control.png;
#BACKGROUND:;
#LYRICSPATH:;
#CDTITLE:;
#MUSIC:Out Of Control.ogg;
#OFFSET:0.564;
#SAMPLESTART:46.500;
#SAMPLELENGTH:15.000;
#SELECTABLE:YES;
#DISPLAYBPM:156.000;
#BPMS:0.000=156.000,393.000=78.000,394.000=156.000;
#STOPS:;
#BGCHANGES:;

//---------------dance-single - HF 8/4/8/4/3/9-26----------------
#NOTES:
     dance-single:
     HF 8/4/8/4/3/9-26:
     Challenge:
     13:
     1.000,1.000,0.087,0.235,1.000: // measure 1
0000
0000
0000
0000
,  // measure 2
0000
0000
0000
0000
,  // measure 3
0000
0000
0000
0000
0000
0000
0000
0000
2000
0000
0000
3020
0000
0000
0230
0000
,  // measure 4
0000
0000
0310
0000
1000
0100
1000
0000
0020
0000
0000
0230
0000
0000
0302
0000
,  // measure 5
0000
0000
0013
0000
0100
0010
0001
0000
2000
0000
0000
3200
0000
0000
0320
0000
,  // measure 6
0000
0000
0031
0000
0100
0010
1000
0000
0020
0000
0000
0230
0000
0000
0302
0000
,  // measure 7
0000
0000
1003
0000
0010
0100
0010
0000
2000
0000
0000
3200
0000
0000
0320
0000
,  // measure 8
0000
0000
0130
0000
1000
0010
0100
0000
0002
0000
0000
2003
0000
0000
3002
0000
,  // measure 9
0000
0000
1003
0000
0010
0100
0010
0000
0200
0000
0000
0302
0000
0000
2003
0000
,  // measure 10
0000
0000
3100
0000
0010
0100
0010
0000
0020
0000
0000
0032
0000
0000
2003
0000
,  // measure 11
0000
0000
0000
0000
3010
0000
0000
0000
0220
0330
0000
0000
0000
0000
0000
0000
0000
0000
0000
0000
0010
0000
0100
0000
0010
0000
0000
0000
1000
0000
0000
0000
,  // measure 12
0001
0000
0010
0100
0010
0000
0001
0000
0100
0000
0010
1000
0001
0000
0010
0000
,  // measure 13
0100
0000
1000
0010
1000
0000
0100
0000
0010
0000
0001
0100
0001
0000
0010
0000
,  // measure 14
0100
0000
1000
0010
1000
0000
0001
0000
0010
0000
0100
0010
0100
0000
1000
0000
,  // measure 15
0010
0000
0100
0001
0010
0000
0100
0000
1000
0000
0010
0100
0001
0000
1000
0000
,  // measure 16
0010
0000
0100
0010
1000
0000
0010
0000
0100
0000
0001
0010
0100
0000
1000
0000
,  // measure 17
0100
0000
0010
0001
0100
0000
0010
0000
0100
0000
0010
1000
0001
0000
0010
0000
,  // measure 18
0100
0000
0010
0001
1000
0000
0010
0000
0100
0000
0010
0100
0001
0000
0010
0000
,  // measure 19
0001
0000
0100
0010
1000
0000
0010
0000
1000
0100
0010
0001
1000
0100
0010
0001
,  // measure 20
1000
0100
0010
0100
1000
0100
1000
0100
0010
0001
0010
0001
1000
0010
1000
0010
,  // measure 21
0100
0001
0100
0001
0010
0100
0010
0100
1000
0001
1000
0010
1000
0001
1000
0010
,  // measure 22
1000
0001
1000
0010
0100
0001
1000
0010
0100
0010
1000
0001
0010
0100
0010
0100
,  // measure 23
1000
0001
1000
0001
1000
0010
1000
0010
1000
0001
0100
0010
1000
0001
0100
0010
,  // measure 24
1000
0001
0100
0001
0010
0100
0010
0100
1000
0100
1000
0100
0010
0001
0010
0001
,  // measure 25
0100
0010
0100
0010
0100
0001
0010
0001
0010
0100
1000
0001
0010
0100
1000
0001
,  // measure 26
0010
0100
1000
0001
1000
0010
1000
0010
0100
0001
0100
0001
0010
0001
0010
0001
,  // measure 27
1000
0100
1000
0100
1000
0100
0010
0001
0010
0100
1000
0000
1000
0000
0010
0100
,  // measure 28
0000
0010
0100
0000
0010
0000
1000
0000
0000
0000
0010
0000
0100
0000
0001
0100
,  // measure 29
0000
0001
1000
0000
0010
0000
0110
0000
0000
0000
1000
0000
0010
0000
0100
0001
,  // measure 30
0000
0010
0100
0000
1000
0000
0000
0000
0100
0010
0001
0000
1000
0000
0010
0100
,  // measure 31
0000
0000
0000
0100
0000
0000
0001
0000
0000
0000
0010
0000
0000
0000
0000
0100
0000
0000
0000
0000
0000
0000
0000
0000
1000
0000
0000
0000
0000
0000
0001
0000
0000
1000
0000
0000
0001
0000
0000
0000
0000
0000
0001
0000
0000
0000
0000
0000
,  // measure 32
0001
0000
1000
0010
1000
0000
0100
0000
0010
0000
0001
0010
0001
0000
0010
0000
,  // measure 33
0100
0000
1000
0100
1000
0000
0010
0000
0100
0000
0010
0100
0000
0001
0000
0010
,  // measure 34
0000
0100
0000
1000
0001
0000
0100
0000
0010
0100
0001
0000
0010
0000
0100
1000
,  // measure 35
0000
0001
0100
0000
0010
0000
0010
0000
1000
0100
0010
0001
1000
0100
0010
0001
,  // measure 36
1000
0100
0010
0100
1000
0100
1000
0100
0010
0001
0010
0001
1000
0010
1000
0010
,  // measure 37
0100
0001
0100
0001
0010
0100
0010
0100
1000
0001
1000
0010
1000
0001
1000
0010
,  // measure 38
1000
0001
1000
0010
0100
0001
1000
0010
0100
0010
1000
0001
0010
0100
0010
0100
,  // measure 39
1000
0001
1000
0001
1000
0010
1000
0010
1000
0000
0001
0000
1000
0000
0010
0000
,  // measure 40
1000
0000
0000
0110
0000
0000
1000
0000
0010
0000
0000
1001
0000
0000
0001
0000
,  // measure 41
1000
0000
0001
0100
0001
0010
0001
1000
0001
0000
1000
0000
0100
0000
1000
0000
,  // measure 42
0010
0000
0000
1010
0000
0000
1000
0000
0010
0000
0000
0101
0000
0000
0001
0000
,  // measure 43
0010
0000
0001
1000
0100
1000
0010
1000
0001
0000
1000
0000
0010
0000
1000
0000
,  // measure 44
0010
0000
0000
1010
0000
0000
0001
0000
0100
0000
0000
0011
0000
0000
0010
0000
,  // measure 45
0001
0000
1000
0100
1000
0010
1000
0001
1000
0000
0001
0000
0100
0000
0010
0000
,  // measure 46
2000
0000
3200
0000
0320
0000
0030
0100
,  // measure 47
1000
0000
0000
0000
0010
0000
0000
0000
2001
0000
0000
3020
0000
0000
2030
0000
,  // measure 48
0000
0000
3100
0000
1000
0001
1000
0000
0002
0000
0000
0203
0000
0000
0302
0000
,  // measure 49
0000
0000
0013
0000
0001
0010
0001
0000
2000
0000
0000
3200
0000
0000
2300
0000
,  // measure 50
0000
0000
3010
0000
0100
0010
0100
0000
0002
0000
0000
2003
0000
0000
3200
0000
,  // measure 51
0000
0000
1300
0000
0100
1000
0020
0000
0030
0000
1000
0010
1000
0000
0010
0000
,  // measure 52
1000
0000
0001
0100
0010
0000
1000
0000
0001
0000
0010
0100
0010
0000
0001
0000
,  // measure 53
0100
0000
0010
1000
0001
0000
0010
0000
0100
0000
0010
0000
0001
0000
0010
0001
,  // measure 54
0000
0000
0000
1000
0000
0000
0000
0000
0000
0010
0000
0000
1000
0000
0000
0000
0000
0000
1000
0000
0000
0000
0000
0000
1000
0000
0000
0000
0000
0000
0000
0000
1000
0000
0000
0000
0000
0000
0000
0000
1000
0000
0000
0000
0000
0000
0000
0000
,  // measure 55
1000
0000
0000
0000
0000
0000
0000
0000
1000
0000
0000
0000
0000
0000
0000
0000
1000
0000
0000
0000
0000
0000
0000
0000
1000
0000
0000
0100
0000
0000
0010
0000
0000
0001
0000
0000
0100
0000
0000
0010
0000
0000
1000
0000
0000
0100
0000
0000
,  // measure 56
0010
0001
0100
0010
1000
0001
0100
0010
1000
0100
0010
0001
1000
0100
0010
0001
,  // measure 57
0100
0010
1000
0100
0010
0100
1000
0001
0100
0010
0100
0001
0010
0100
1000
0100
,  // measure 58
0010
0001
0100
0010
1000
0100
0010
0001
1000
0100
0010
0001
0100
0010
1000
0001
,  // measure 59
0100
0010
1000
0100
0010
0001
0100
0010
1000
0010
1000
0001
1000
0010
1000
0001
,  // measure 60
1000
0100
1000
0100
0010
0001
0010
0001
0100
0010
0100
0010
1000
0100
1000
0100
,  // measure 61
0010
0001
0010
0001
0100
0001
0100
0001
0100
0010
0100
0010
0100
0010
0100
0010
,  // measure 62
0100
0010
0100
0001
1000
0100
1000
0100
0010
0001
0100
0010
0100
0001
0010
0100
,  // measure 63
1000
0010
0100
0001
0010
0001
0010
0001
1000
0000
0010
0100
0010
0000
1000
0000
,  // measure 64
0100
0000
0010
0001
0100
0000
0010
0000
1000
0000
0100
0010
0001
0000
1000
0000
,  // measure 65
0100
0000
0010
0001
1000
0000
0001
0000
1000
0000
0010
0100
0010
0000
1000
0000
,  // measure 66
0100
0000
1000
0001
0010
0000
0001
0000
1000
0000
0100
1000
0010
0000
0100
0000
,  // measure 67
0010
0000
0100
0001
0010
0000
0001
0000
1000
0000
0100
1000
0010
0000
0100
0000
,  // measure 68
0010
0000
0100
0001
0010
0000
0100
0000
1000
0000
0001
1000
0100
0000
1000
0000
,  // measure 69
0010
0000
1000
0001
1000
0000
0001
0000
0100
0000
0001
0010
0001
0000
1000
0000
,  // measure 70
0001
0000
0000
0000
0000
0000
1000
0000
0000
0010
0000
0000
1000
0000
0000
0000
0000
0000
0100
0000
0000
0000
0000
0000
1010
0000
0000
0000
0000
0000
0000
0000
1001
0000
0000
0000
0000
0000
0000
0000
0011
0000
0000
0000
0000
0000
0000
0000
,  // measure 71
1100
0000
0000
0000
0000
0000
0000
0000
1010
0000
0000
0000
0000
0000
0000
0000
0101
0000
0000
0000
0000
0000
0000
0000
0001
0000
0000
0010
0000
0000
0100
0000
0000
1000
0000
0000
0001
0000
0000
0010
0000
0000
0100
0000
0000
1000
0000
0000
,  // measure 72
0001
0010
0100
0010
0001
0010
0001
0010
0100
1000
0100
1000
0001
0100
0001
0100
,  // measure 73
0010
1000
0010
1000
0100
0010
0100
0010
0001
1000
0001
0100
0001
1000
0001
0100
,  // measure 74
0001
1000
0001
0100
0010
1000
0001
0100
0010
0100
0001
1000
0100
0010
0100
0010
,  // measure 75
0001
1000
0001
1000
0001
0100
0001
0100
0001
0000
1000
0000
0010
0000
0100
0000
,  // measure 76
0001
0000
0000
1000
0000
0000
0100
0000
1000
0000
0000
0010
0000
0000
1000
0000
,  // measure 77
0001
0000
0100
0001
0010
0001
1000
0001
1000
0000
0100
0000
1000
0000
0010
0000
,  // measure 78
0100
0000
0000
0001
0000
0000
0010
0000
0001
0000
0000
1000
0000
0000
0100
0000
,  // measure 79
1000
0000
0010
0100
0001
0010
0001
1000
0100
0000
1000
0000
0010
0000
1000
0000
,  // measure 80
0001
0000
0000
0100
0000
0000
0001
0000
1000
0000
0000
0010
0000
0000
1000
0000
,  // measure 81
0001
0000
0001
0100
0010
1000
0001
1000
0100
0000
1000
0000
0010
0000
1000
0000
,  // measure 82
0001
0000
1100
0000
1001
0000
0000
0001
,  // measure 83
0100
0000
0000
0000
0010
0000
0000
0000
0010
1000
0010
1000
0100
1000
0100
1000
,  // measure 84
0100
1000
0100
1000
0001
1000
0001
1000
0010
1000
0010
1000
0010
1000
0010
0100
,  // measure 85
0001
0010
0100
1000
0100
0010
0001
0100
0010
0100
0010
1000
0010
0100
0010
1000
,  // measure 86
0010
1000
0100
0010
0001
1000
0010
0100
0001
0010
0100
1000
0001
0100
0010
1000
,  // measure 87
0001
0010
0100
1000
0002
0000
0000
0000
0103
0001
0100
0001
1000
0010
1000
0010
,  // measure 88
0100
0010
0100
0010
1000
0001
1000
0001
0010
0100
1000
0001
0100
0010
1000
0001
,  // measure 89
0020
0000
0000
0000
0000
0000
0000
0000
0130
1000
0100
1000
0010
0100
0010
0100
,  // measure 90
0010
0100
0010
0100
0001
0010
0001
0010
0100
1000
0100
1000
0100
1000
0100
1000
,  // measure 91
0001
0100
0001
0100
0001
0100
0001
0100
0010
1000
0001
0100
0010
1000
0001
0100
,  // measure 92
0010
1000
0010
0100
0010
1000
0010
0100
0001
0010
0001
1000
0001
0010
0001
1000
,  // measure 93
0001
0100
0010
0100
0001
0100
0010
0100
0001
0010
0100
1000
0001
0010
0100
1000
,  // measure 94
0001
0010
0001
1000
0001
0100
0001
1000
0001
0010
0100
1000
0010
0100
0001
0010
,  // measure 95
0100
1000
0010
0100
0001
0100
0010
1000
0001
0010
0001
1000
0001
0010
0001
1000
,  // measure 96
0010
0100
0001
1000
0010
0100
0001
1000
0100
0010
0001
1000
0100
0010
0001
1000
,  // measure 97
0100
0010
0001
0010
0100
0010
0001
0010
0100
1000
0100
0010
0100
1000
0100
0010
,  // measure 98
0001
0010
0100
1000
0100
0010
0001
0010
0100
1000
0010
0100
0001
0010
0100
1000
,  // measure 99
0010
0100
0001
1000
0020
0030
00M0
0000
0010
1000
0001
0100
0010
1000
0001
0100
,  // measure 100
0010
1000
0010
0100
0010
1000
0010
0100
0001
0010
0001
1000
0001
0010
0001
1000
,  // measure 101
0001
0100
0010
0100
0001
0100
0010
0100
0001
0010
0100
1000
0001
0010
0100
1000
,  // measure 102
0001
0010
0001
1000
0001
0100
0001
1000
0001
0010
0100
1000
0010
0100
0001
0010
,  // measure 103
0100
1000
0010
0100
0001
0100
0010
1000
0001
0010
0001
1000
0001
0010
0001
1000
,  // measure 104
0010
0100
0001
1000
0010
0100
0001
1000
0010
0100
0001
1000
0100
0010
0001
1000
,  // measure 105
0100
0010
0001
0010
0100
0010
0001
0010
0100
1000
0100
0010
0100
1000
0100
0010
,  // measure 106
0001
0010
0100
1000
0100
0010
0001
0010
0100
1000
0010
0100
0001
0010
0100
1000
,  // measure 107
0010
0100
0010
1000
0001
0100
0010
1000
0001
0100
0010
1000
0010
0100
0010
1000
,  // measure 108
0010
0100
0001
0010
0001
1000
0001
0010
0001
1000
0001
0100
0010
0100
0001
0100
,  // measure 109
0010
0100
0001
0010
0100
1000
0001
0010
0100
1000
0001
0010
0001
1000
0001
0100
,  // measure 110
0001
1000
0001
0010
0100
1000
0010
0100
0001
0010
0100
1000
0010
0100
0001
0100
,  // measure 111
0010
1000
0001
0010
0001
1000
0001
0010
0001
1000
0010
0100
0001
1000
0010
0100
,  // measure 112
0001
1000
0010
0100
0001
1000
0100
0010
0001
1000
0100
0010
0001
0010
0100
0010
,  // measure 113
0001
0010
0100
1000
0100
0010
0100
1000
0100
0010
0001
0010
0100
1000
0100
0010
,  // measure 114
0001
0010
0100
1000
0010
0100
0001
0010
0100
1000
0010
0100
0001
1000
0001
0100
,  // measure 115
0010
1000
0001
0100
0010
1000
0010
0100
0010
1000
0010
0100
0001
0010
0001
1000
,  // measure 116
0001
0010
0001
1000
0001
0100
0010
0100
0001
0100
0010
0100
0001
0010
0100
1000
,  // measure 117
0001
0010
0100
1000
0001
0010
0001
1000
0001
0100
0001
1000
0001
0010
0100
1000
,  // measure 118
0010
0100
0001
0010
0100
1000
0010
0100
0001
0100
0010
1000
0001
0010
0001
1000
,  // measure 119
0001
0010
0001
1000
0010
0100
0001
1000
0010
0100
0001
1000
0010
0100
0001
1000
,  // measure 120
0100
0010
0001
1000
0100
0010
0001
0010
0100
0010
0001
0010
0100
1000
0100
0010
,  // measure 121
0100
1000
0100
0010
0001
0010
0100
1000
0100
0010
0001
0010
0100
1000
0010
0100
,  // measure 122
0001
0010
0100
1000
0010
0100
0010
1000
0001
0100
0010
1000
0001
0100
0010
1000
,  // measure 123
0010
0100
0010
1000
0010
0100
0001
0010
0001
1000
0001
0010
0001
1000
0001
0100
,  // measure 124
0010
0100
0001
0100
0010
0100
0001
0010
0100
1000
0001
0010
0100
1000
0001
0010
,  // measure 125
0001
1000
0001
0100
0001
1000
0001
0010
0200
0000
0000
0000
0300
0000
0000
0000
;
