#TITLE:Niflheimr;
#SUBTITLE:;
#ARTIST:Qrispy Joybox;
#TITLETRANSLIT:;
#SUBTITLETRANSLIT:;
#ARTISTTRANSLIT:;
#CREDIT:;
#BANNER:Niflheimr.png;
#BACKGROUND:;
#LYRICSPATH:;
#CDTITLE:;
#MUSIC:Niflheimr.ogg;
#OFFSET:0.100;
#SAMPLESTART:50.280;
#SAMPLELENGTH:15.000;
#SELECTABLE:YES;
#DISPLAYBPM:186.000;
#BPMS:0.000=186.000;
#STOPS:;
#BGCHANGES:;

//---------------dance-single - HF 3/5----------------
#NOTES:
     dance-single:
     HF 3/5:
     Challenge:
     13:
     0.935,1.000,0.544,0.125,1.000: // measure 1
0000
0000
0000
0000
,  // measure 2
0000
0000
0000
0000
,  // measure 3
0000
0000
0000
0000
,  // measure 4
0000
0000
0000
0000
,  // measure 5
0000
0000
0000
0000
,  // measure 6
0000
0000
0000
0000
0000
0000
0000
0000
1000
0000
0010
0000
,  // measure 7
0100
0000
0001
0000
0010
0000
0100
0000
1000
0010
0100
0001
,  // measure 8
0010
0000
0100
0000
1000
0000
0010
0000
0100
0000
0010
0000
,  // measure 9
1000
0000
0000
0000
0000
0000
0000
0000
0100
0000
0000
0000
0000
0000
0000
0000
0010
0000
0000
0000
0000
0000
0000
0000
0001
0000
0000
0000
0000
0000
0000
0000
1000
0000
0000
0000
0001
0000
0000
0010
0000
0000
0100
0000
0000
1000
0000
0000
,  // measure 10
0001
0010
0100
1000
0001
0010
0100
1000
0001
0000
0000
0000
0000
0000
0000
0000
,  // measure 11
0110
0000
0000
1000
0001
0000
0000
0000
1001
0000
0000
1000
0100
0000
0000
0000
,  // measure 12
0110
0000
0000
0010
0001
0000
0000
0000
0110
0000
0001
0000
0000
1000
0010
0000
,  // measure 13
0100
0000
0001
0010
0000
0010
0100
1000
0001
0000
1000
0100
1000
0100
1000
0010
,  // measure 14
0100
0000
0010
0100
0001
0010
0100
1000
0002
0000
0000
0000
0000
0000
0000
0000
,  // measure 15
0000
0000
0000
0000
0000
0000
0000
0000
1003
0010
0100
0001
1000
0010
0100
0001
,  // measure 16
0020
0000
0000
0000
0130
0010
0001
1000
0100
0000
0000
0000
0100
0000
1000
0000
,  // measure 17
1010
0000
0000
0000
0000
0000
0000
0000
0000
0000
0000
0000
0010
0000
0000
0100
0000
0000
0010
0000
0000
0100
0000
0000
0010
0000
0000
0000
0000
0000
0000
0000
1000
0000
0000
0000
0000
0000
0000
0000
0010
0000
0000
0000
0000
0000
0000
0000
,  // measure 18
0100
0000
0010
0000
1000
0000
0100
0000
0010
0000
0001
0000
,  // measure 19
0100
0000
0010
0000
0100
0000
0001
0000
0010
0000
0100
0000
,  // measure 20
1000
0000
0010
0000
0100
0000
1001
0000
0000
0000
0000
0000
,  // measure 21
1000
0000
0000
0000
0001
0100
0010
1000
0100
0000
0000
0000
0000
0000
0000
0000
,  // measure 22
1010
0000
0000
0000
0010
1000
0100
0010
0001
0000
0000
0000
0000
0000
0000
0000
,  // measure 23
1010
0000
0000
0000
1000
0010
0100
0001
0010
0000
0000
0000
0000
0000
0000
0000
,  // measure 24
1100
0000
0000
0000
1000
0100
0010
0001
1000
0000
0000
0000
0000
0000
0000
0000
,  // measure 25
1001
0000
0000
0000
0000
0000
0000
0000
0000
0000
0000
0000
1000
0000
0000
0000
0010
0000
0000
0000
0100
0000
0000
0000
0001
0000
0000
0010
0000
0000
0100
0000
0000
1000
0000
0000
0001
0000
0000
0010
0000
0000
0100
0000
0000
1000
0000
0000
,  // measure 26
0001
0100
0010
1000
0001
0100
0010
0100
0010
1000
0100
1000
0100
0010
0001
0100
,  // measure 27
0010
1000
0100
0010
0001
0100
0010
0100
0001
0010
0100
1000
0100
0010
0001
0100
,  // measure 28
0010
0100
0001
0010
0100
1000
0100
0010
0001
0000
0000
0000
0000
0000
0001
0010
,  // measure 29
0100
0000
0000
0000
0000
0000
1000
0000
0000
0010
0000
0000
1000
0000
0000
0010
0000
0000
1000
0000
0000
0010
0000
0000
1000
0000
0000
0000
0000
0000
0000
0000
0100
0000
0000
0000
0000
0000
0000
0000
0001
0000
0000
0000
0000
0000
0000
0000
,  // measure 30
0100
0000
0000
0000
0000
0000
0000
0000
1000
0000
0000
0000
0000
0000
0000
0000
0010
0000
0000
0000
0000
0000
0000
0000
0100
0000
0000
0000
0000
0000
0010
0000
0000
0100
0000
0000
0010
0000
0000
0100
0000
0000
0010
0000
0000
0000
0000
0000
,  // measure 31
1000
0000
0000
0000
0000
0000
0000
0000
0100
0000
0000
0000
0000
0000
0000
0000
0010
0000
0000
0000
0000
0000
0000
0000
0001
0000
0000
0000
0000
0000
1000
0000
0000
0010
0000
0000
0000
0000
0000
0100
0000
0000
0010
0000
0000
0000
0000
0000
,  // measure 32
2002
0000
3003
0000
0001
1000
0001
1000
0001
0000
0000
0000
1000
0010
1000
0000
,  // measure 33
0100
0000
0010
0010
0010
0010
0010
0010
,  // measure 34
0010
0001
0001
0001
0001
0001
0001
0001
,  // measure 35
0001
1000
1000
1000
1000
1000
1000
1000
,  // measure 36
1000
1000
1000
1000
0101
0000
0000
0000
,  // measure 37
1000
0100
0010
0001
0100
0010
1000
0001
1000
0010
0000
0000
0000
0000
0000
0000
,  // measure 38
0010
1000
0100
0010
0001
0010
0100
1000
0010
0100
0000
0000
0000
0000
0000
0000
,  // measure 39
0010
0100
0001
0100
0010
1000
0100
0010
0001
0100
0000
0000
0000
0000
0000
0000
,  // measure 40
0010
0100
0001
0010
0100
1000
0100
0010
0001
0100
0000
0000
0000
0000
0000
0000
,  // measure 41
1010
0000
0000
0000
0000
0000
0000
0000
0000
0000
0000
0000
0010
0000
0000
0000
1000
0000
0000
0000
0001
0000
0000
0000
0010
0000
0000
0100
0000
0000
0010
0000
0000
0001
0000
0000
0100
0000
0000
0010
0000
0000
1000
0000
0000
0010
0000
0000
,  // measure 42
0100
0000
0010
0000
0100
0000
0010
0000
1000
0000
0100
0000
,  // measure 43
0010
0001
0100
0010
1000
0100
0010
0001
0010
0100
0010
0001
1000
0010
0100
0010
,  // measure 44
1000
0100
0010
0100
1000
0001
0100
0010
0000
1000
0000
0100
1000
0000
1000
0001
,  // measure 45
0100
0010
1000
0100
0010
0100
1000
0001
0100
0010
0100
0001
0010
0100
1000
0100
,  // measure 46
0010
0100
0010
0001
1000
0001
1000
0100
0010
0001
0100
0010
1000
0100
1000
0100
,  // measure 47
0010
0001
0100
0010
0100
0001
0010
0100
1000
0100
0010
0001
0100
0010
1000
0100
,  // measure 48
0020
0000
0000
0000
0000
0000
0000
0000
0000
0000
0000
0000
0031
0000
0000
1000
0000
0000
0001
0000
0000
1000
0000
0000
0001
0000
0000
0000
0000
0000
0000
0000
0001
0000
0000
0000
0000
0000
0000
0000
0001
0000
0000
0000
0000
0000
0000
0000
,  // measure 49
0110
0000
0110
0000
0110
0000
1001
0000
1001
0000
1001
0000
,  // measure 50
1010
0000
1010
0000
1010
0000
1100
0000
1100
0000
1100
0000
,  // measure 51
0011
0000
0011
0000
0011
0000
1010
0000
1010
0000
1010
0000
,  // measure 52
0101
0000
0101
0000
0101
0000
1001
0000
1010
0000
0110
0000
,  // measure 53
0101
0000
0011
0000
0110
0000
1100
0000
1010
0000
0101
0000
,  // measure 54
0011
0000
1100
0000
1010
0000
0110
0000
1001
0000
1100
0000
,  // measure 55
1010
0000
0101
0000
1001
0000
0110
0000
0011
0000
0110
0000
,  // measure 56
1001
0000
0101
0000
0110
0000
2002
0000
0000
0000
0000
0000
,  // measure 57
3003
0000
0000
0000
0000
0000
0000
0000
1000
0100
1000
0010
1000
0100
0010
0001
,  // measure 58
0200
0000
0000
0000
0310
0100
0010
0100
0010
0000
0000
0000
1000
0100
0010
0001
,  // measure 59
1000
0010
0100
0010
0000
1000
0000
0100
,  // measure 60
0000
0000
0010
0001
0100
0000
0010
0000
1001
0000
0000
0000
1000
0100
0010
0100
,  // measure 61
1000
0100
0010
0001
0000
0001
0000
1000
,  // measure 62
0000
0000
0000
0000
0000
0000
0010
0000
0000
1000
0000
0000
0001
0000
0000
0000
0000
0000
0010
0000
0000
0000
0000
0000
0001
0000
0000
0000
1000
0000
0000
0000
0010
0000
0000
0000
0100
0000
0000
0000
0010
0000
0000
0000
0100
0000
0000
0000
,  // measure 63
0001
0010
0100
1000
0100
0010
0110
1000
0010
0100
0010
1000
,  // measure 64
0100
0000
0000
0000
0010
0000
0000
0000
0001
0000
0000
0000
0010
0000
0000
0000
0100
0000
0000
0000
1000
0000
0000
0000
0100
0000
0000
0010
0000
0000
0001
0000
0000
1000
0000
0000
0100
0000
0000
0010
0000
0000
0001
0000
0000
0100
0000
0000
,  // measure 65
0010
1000
0100
0010
0001
0100
0010
1000
0100
0010
0001
0010
0100
1000
0100
0010
,  // measure 66
0001
1000
0001
1000
0001
1000
0001
0100
0010
0000
0000
0000
0010
0100
0010
0100
,  // measure 67
0010
1000
0001
0010
0000
0100
0000
0010
,  // measure 68
0000
0001
0100
0010
1000
0000
0001
0000
0000
0000
0000
0000
0100
0010
0100
0010
,  // measure 69
0100
0010
1000
0100
0000
0010
0000
0001
,  // measure 70
0000
0000
0000
0000
0000
0000
1000
0000
0000
0100
0000
0000
0010
0000
0000
0000
0000
0000
0001
0000
0000
0000
0000
0000
0000
0000
0000
0000
0000
0000
0000
0000
0000
0000
0000
0000
1000
0000
0000
0000
0010
0000
0000
0000
0100
0000
0000
0000
,  // measure 71
0001
0000
0000
0000
0010
0000
0000
0000
0100
0000
0000
0000
1000
0000
0000
0000
0010
0000
0000
0000
0100
0000
0000
0000
0001
0000
0000
0100
0000
0000
0010
0000
0000
1000
0000
0000
0001
0000
0000
0100
0000
0000
0010
0000
0000
1000
0000
0000
,  // measure 72
0001
1000
0100
0010
0001
0000
0000
0000
0001
0010
0100
1000
0001
0010
0100
1000
,  // measure 73
0010
0100
0001
1000
0010
0100
0001
1000
0100
1000
0100
0010
0001
0010
0001
1000
,  // measure 74
0010
1000
0010
0100
0001
0100
0001
1000
0001
0010
0100
1000
0010
0000
0000
0000
,  // measure 75
0000
0000
0000
0000
0000
0000
0000
0000
0010
1000
0100
1000
0010
0000
0000
0000
,  // measure 76
0000
0000
0000
0000
0000
0000
0000
0000
0010
1000
0100
0010
0001
0000
0000
0000
,  // measure 77
0001
0010
0100
1000
0001
0000
0000
0000
1000
0010
0100
0001
1000
0000
0000
0000
,  // measure 78
1000
0001
0010
0100
2000
3020
0230
0302
1003
0020
0200
0000
0000
0000
0000
0000
,  // measure 79
0000
0000
0000
0000
,  // measure 80
0000
0000
0000
0000
,  // measure 81
0000
0000
0000
0330
;
