#TITLE:Nagisa no koakuma lovely radio;
#SUBTITLE:Ryu Mix;
#ARTIST:Natsu shoku bikini no Prim;
#TITLETRANSLIT:;
#SUBTITLETRANSLIT:;
#ARTISTTRANSLIT:;
#CREDIT:;
#BANNER:Nagisa no koakuma lovely radio -Ryu_ Mix-.png;
#BACKGROUND:;
#LYRICSPATH:;
#CDTITLE:;
#MUSIC:Nagisa no koakuma lovely radio -Ryu_ Mix-.ogg;
#OFFSET:0.566;
#SAMPLESTART:68.640;
#SAMPLELENGTH:14.960;
#SELECTABLE:YES;
#DISPLAYBPM:199.000;
#BPMS:0.000=199.000;
#STOPS:;
#BGCHANGES:;

//---------------dance-single - HF 8-4/3-4/4/3-4----------------
#NOTES:
     dance-single:
     HF 8-4/3-4/4/3-4:
     Challenge:
     14:
     1.000,1.000,0.237,0.054,1.000: // measure 1
0000
0000
0000
0000
,  // measure 2
0000
0000
0000
0000
,  // measure 3
0000
0000
0101
1010
,  // measure 4
0010
0010
0000
0100
0000
0010
0010
0010
,  // measure 5
0010
0000
1010
0011
,  // measure 6
0010
0010
0000
0100
0000
1000
1000
1000
,  // measure 7
1000
0000
1100
0011
,  // measure 8
0010
0010
0000
0100
0000
1000
1000
1000
,  // measure 9
1000
0000
1010
0101
,  // measure 10
0100
0100
0000
0001
0000
0010
0010
0010
,  // measure 11
0010
0000
0100
1000
,  // measure 12
0010
0010
0000
0100
0000
0001
0001
0001
,  // measure 13
0001
0000
1100
0101
,  // measure 14
0001
0001
0000
0010
0000
0100
0100
0100
,  // measure 15
0100
0000
1010
0101
,  // measure 16
0100
0100
0000
0001
0010
0010
0010
0010
,  // measure 17
0100
0100
0100
0100
1100
0000
1010
0000
,  // measure 18
0010
0000
0100
0000
0001
0010
0001
0000
0100
0000
0010
0000
1000
0000
0001
0000
,  // measure 19
0010
0000
1011
0000
1000
0000
0010
0100
,  // measure 20
0000
0000
0001
0000
0000
0000
0001
0000
0100
0010
0100
0001
0010
0100
1000
0001
,  // measure 21
0100
0010
0100
0001
0010
0000
0100
0000
1000
0000
0000
0000
1000
0000
0001
0000
,  // measure 22
0000
0000
0100
0000
0000
0000
0010
0000
0100
0010
0100
0001
0010
0100
1000
0100
,  // measure 23
0010
0001
0100
0010
0100
0000
0010
0000
0100
0000
0000
0000
0010
0000
0100
0000
,  // measure 24
0000
0000
0010
0000
0000
0000
1000
0000
0100
0010
0001
0100
0010
0100
0001
0100
,  // measure 25
0010
1000
0100
0010
0001
0000
1000
0000
0100
0000
0000
0000
0010
0000
0001
0000
,  // measure 26
0000
0100
0000
0020
0000
0030
1000
0001
,  // measure 27
1000
0001
0000
0000
0001
0000
0010
0100
,  // measure 28
0000
0000
1000
0000
0000
0000
0001
0000
1000
0100
0010
0001
0100
0010
1000
0001
,  // measure 29
0100
0010
0100
0001
1000
0000
0010
0000
0100
0000
0000
0000
0001
0000
0100
0000
,  // measure 30
0000
0000
0010
0000
0000
0000
1000
0000
0001
0010
0100
1000
0100
0010
0001
0100
,  // measure 31
0010
1000
0001
0010
0001
0000
0010
0000
0100
0000
0000
0000
0100
0000
1000
0000
,  // measure 32
0000
0000
0010
0000
0000
0000
0100
0000
0001
0010
0100
0010
0001
0100
0010
1000
,  // measure 33
0001
0100
0010
1000
0001
0000
0010
0000
0100
0000
0000
0000
1000
0000
0001
0000
,  // measure 34
0000
0100
0000
0020
0000
0030
1000
0001
,  // measure 35
0010
0000
0100
0000
1001
0000
0000
0000
0001
0000
0100
0010
0100
0000
0010
0000
,  // measure 36
1000
0000
0001
0100
0010
0100
0001
0000
0100
0000
0010
0000
1000
0100
1000
0001
,  // measure 37
1000
0000
0010
0000
0100
0000
0001
0000
0010
0100
1000
0100
0010
0001
0010
0100
,  // measure 38
1000
0010
0100
0001
0011
0000
0101
0000
,  // measure 39
1010
0000
0000
0000
1100
0000
0000
0000
1000
0010
0100
0001
0010
0100
2000
0000
,  // measure 40
0000
0000
3000
0000
0001
0000
0000
0000
1000
0100
0010
0001
0100
0010
1000
0000
,  // measure 41
0000
0001
0100
0010
1001
0000
1000
0110
,  // measure 42
0000
0001
1000
0100
0011
0000
0101
0000
,  // measure 43
1010
0000
0000
0000
1100
0000
0000
0000
1000
0100
0010
0001
1000
0100
0010
0001
,  // measure 44
0100
0001
1000
0001
0100
0001
1000
0010
0100
0010
1000
0010
0100
0001
0010
0100
,  // measure 45
1000
0100
0010
0100
1000
0010
0100
0001
0100
0010
0100
0001
0010
0100
0010
0001
,  // measure 46
0100
0010
1000
0001
0100
0010
1000
0001
0100
0010
0100
0001
0010
0100
0010
0001
,  // measure 47
0010
0100
0010
0001
1000
0100
0010
0100
1000
0100
0010
0100
1000
0001
0100
0010
,  // measure 48
1000
0001
0010
0100
1000
0100
0010
0001
0100
0010
0100
0001
0010
0001
0010
0100
,  // measure 49
1000
0100
1000
0010
1000
0010
1000
0001
0010
0001
0010
0100
1000
0100
1000
0010
,  // measure 50
0100
0010
0100
0001
1000
0001
1000
0100
0010
0001
0100
0010
1000
0001
0100
0010
,  // measure 51
1000
0100
0010
0001
2000
0000
0000
0000
3001
0100
0001
1000
0001
0100
0001
1000
,  // measure 52
0001
0100
0001
1000
0001
0100
0001
1000
0001
0010
0001
0010
0001
0010
0100
1000
,  // measure 53
0100
1000
0100
1000
0010
0100
0010
0100
0001
1000
0001
1000
0001
1000
0001
0100
,  // measure 54
0010
1000
0010
0100
0001
0010
0100
1000
0001
0010
0001
1000
0001
0100
0001
1000
,  // measure 55
0001
0010
0001
1000
0001
0100
0001
1000
0010
0100
0010
1000
0010
1000
0001
0000
,  // measure 56
0000
0000
0001
0100
0010
0100
0001
0000
0000
0000
0010
0100
1000
0100
0010
0001
,  // measure 57
0010
0000
0000
0010
0000
0000
0010
0000
0010
0001
0100
0010
1000
0001
0100
0010
,  // measure 58
1000
0100
0010
0001
1000
0100
0010
0001
1000
0000
0000
0000
0110
0000
0000
0000
,  // measure 59
1001
0000
0000
0000
1010
0000
0000
0000
0010
1000
0001
0010
0001
1000
0010
0100
,  // measure 60
0001
0100
0010
1000
0001
0100
0010
0100
0010
1000
0010
0100
0010
1000
0010
0100
,  // measure 61
0001
0100
0010
1000
0001
0010
0100
1000
0001
0010
0001
1000
0001
0010
0001
0100
,  // measure 62
0010
0100
0010
1000
0100
0010
0001
1000
0001
0100
0001
0100
0010
0000
0000
0000
,  // measure 63
0010
0100
0010
0100
0001
0000
0000
0000
1000
0100
0010
0001
1000
0100
0010
0001
,  // measure 64
0100
0001
1000
0001
0100
0001
1000
0010
0100
0010
1000
0010
0100
0001
0010
0100
,  // measure 65
1000
0100
0010
0100
1000
0010
0100
0001
0100
0010
0100
0001
0010
0100
0010
0001
,  // measure 66
0100
0010
1000
0001
0100
0010
1000
0001
0100
0010
0100
0001
0010
0100
0010
0001
,  // measure 67
0010
0100
0010
0001
1000
0100
0010
0100
1000
0000
1000
0000
1000
0000
1000
0000
,  // measure 68
0000
0000
0001
0001
0001
0001
0000
0000
,  // measure 69
11MM
0000
11MM
0000
0100
0100
0100
0100
,  // measure 70
0000
0000
0010
0010
0010
0010
0000
0000
,  // measure 71
0011
0011
1000
0001
,  // measure 72
0100
0010
0000
0010
0000
0010
0010
0010
,  // measure 73
0010
0000
1000
1000
,  // measure 74
0001
0001
0000
0100
0000
0010
0010
0010
,  // measure 75
0010
0000
1000
0100
,  // measure 76
0010
0010
0000
0001
0000
0100
0100
0100
,  // measure 77
0100
0000
0010
0010
,  // measure 78
1000
1000
0000
0110
0000
0100
0100
0100
,  // measure 79
0100
0000
1000
0010
,  // measure 80
0100
0100
0000
0100
0000
0100
0100
0100
,  // measure 81
0100
0000
0010
1000
,  // measure 82
0001
0001
0000
0001
0000
0001
0001
0001
,  // measure 83
0001
0000
1000
0100
,  // measure 84
0010
0010
0000
0010
0010
0010
0010
0010
,  // measure 85
0010
0010
0010
0010
0010
0000
0001
1000
,  // measure 86
0000
1000
0000
1000
1000
1000
1000
1000
,  // measure 87
1000
0000
1011
0000
1000
0000
0010
0100
,  // measure 88
0000
0000
0001
0000
0000
0000
0001
0000
0100
0010
0100
0001
0010
0100
1000
0001
,  // measure 89
0100
0010
0100
0001
0010
0000
0100
0000
1000
0000
0000
0000
1000
0000
0001
0000
,  // measure 90
0000
0000
0100
0000
0000
0000
0010
0000
0100
0010
0100
0001
0010
0100
1000
0100
,  // measure 91
0010
0001
0100
0010
0100
0000
0010
0000
0100
0000
0000
0000
0010
0000
0100
0000
,  // measure 92
0000
0000
0010
0000
0000
0000
1000
0000
0100
0010
0001
0100
0010
0100
0001
0100
,  // measure 93
0010
1000
0100
0010
0001
0000
1000
0000
0100
0000
0000
0000
0010
0000
0001
0000
,  // measure 94
0000
0100
0000
0020
0000
0030
1000
0001
,  // measure 95
1000
0001
0000
0000
0001
0000
0010
0100
,  // measure 96
0000
0000
1000
0000
0000
0000
0001
0000
1000
0100
0010
0001
0100
0010
1000
0001
,  // measure 97
0100
0010
0100
0001
1000
0000
0010
0000
0100
0000
0000
0000
0001
0000
0100
0000
,  // measure 98
0000
0000
0010
0000
0000
0000
1000
0000
0001
0010
0100
1000
0100
0010
0001
0100
,  // measure 99
0010
1000
0001
0010
0001
0000
0010
0000
0100
0000
0000
0000
0100
0000
1000
0000
,  // measure 100
0000
0000
0010
0000
0000
0000
0100
0000
0001
0010
0100
0010
0001
0100
0010
1000
,  // measure 101
0001
0100
0010
1000
0001
0000
0010
0000
0100
0000
0000
0000
1000
0000
0001
0000
,  // measure 102
0000
0100
0000
0020
0000
0030
1000
0001
,  // measure 103
1000
0001
0110
0000
1001
0000
0001
0100
,  // measure 104
0001
0100
0001
0100
0010
0000
0010
1000
,  // measure 105
0010
1000
0100
1000
0100
0000
1000
0100
,  // measure 106
1000
0001
0100
0001
0010
0000
0010
0001
,  // measure 107
0010
0100
1000
0001
1000
0000
0001
0100
,  // measure 108
0010
0100
0010
1000
0100
0000
1000
0100
,  // measure 109
1000
0001
0100
0001
0010
0000
0010
0001
,  // measure 110
1000
0100
1000
0001
0100
0000
0001
0100
,  // measure 111
0001
0010
0100
1000
0001
0000
1000
0010
,  // measure 112
0100
0010
1000
0001
0100
0000
0000
0010
,  // measure 113
0000
0000
0000
0000
1000
0000
0000
0000
0001
0100
0001
1000
0001
0100
0001
1000
,  // measure 114
0001
0100
0001
1000
0001
0100
0001
1000
0001
0010
0001
0010
0001
0010
0100
1000
,  // measure 115
0100
1000
0100
1000
0010
0100
0010
0100
0001
1000
0001
1000
0001
1000
0001
0100
,  // measure 116
0010
1000
0010
0100
0001
0010
0100
1000
0001
0010
0001
1000
0001
0100
0001
1000
,  // measure 117
0001
0010
0001
1000
0001
0100
0001
1000
0010
0100
0010
1000
0010
1000
0001
0000
,  // measure 118
0000
0000
0001
0100
0010
0100
0001
0000
0000
0000
0010
0100
1000
0100
0010
0001
,  // measure 119
0010
0000
0000
0010
0000
0000
0010
0000
0010
0001
0100
0010
1000
0001
0100
0010
,  // measure 120
1000
0100
0010
0001
1000
0100
0010
0001
1000
0000
0000
0000
0110
0000
0000
0000
,  // measure 121
1001
0000
0000
0000
1010
0000
0000
0000
0010
1000
0001
0010
0001
1000
0010
0100
,  // measure 122
0001
0100
0010
1000
0001
0100
0010
0100
0010
1000
0010
0100
0010
1000
0010
0100
,  // measure 123
0001
0100
0010
1000
0001
0010
0100
1000
0001
0010
0001
1000
0001
0010
0001
0100
,  // measure 124
0010
0100
0010
1000
0100
0010
0001
1000
0001
0100
0001
0100
0010
0000
0000
0000
,  // measure 125
0010
0100
0010
0100
0001
0000
0000
0000
1000
0100
0010
0001
1000
0100
0010
0001
,  // measure 126
0100
0001
1000
0001
0100
0001
1000
0010
0100
0010
1000
0010
0100
0001
0010
0100
,  // measure 127
1000
0100
0010
0100
1000
0010
0100
0001
0100
0010
0100
0001
0010
0100
0010
0001
,  // measure 128
0100
0010
1000
0001
0100
0010
1000
0001
0100
0010
0100
0001
0010
0001
0100
0010
,  // measure 129
1000
0001
0100
0010
1000
0000
0000
0000
1000
0000
1000
0000
1000
0000
1000
0000
,  // measure 130
0000
0000
0001
0001
0001
0001
0000
0000
,  // measure 131
1M1M
0000
1M1M
0000
1000
1000
1000
1000
,  // measure 132
0000
0000
0001
0001
0001
0001
0000
0000
,  // measure 133
1MMM
0000
1MMM
0000
1000
1000
1000
1000
,  // measure 134
0000
0010
0010
0100
0100
0100
0100
0001
,  // measure 135
0000
0000
1101
0000
0001
0000
0100
0010
,  // measure 136
0000
0000
1000
0000
0000
0000
1000
0000
0010
0100
0010
1000
0100
0010
0001
1000
,  // measure 137
0010
0100
0010
1000
0100
0000
0010
0000
0001
0000
0000
0000
0001
0000
1000
0000
,  // measure 138
0000
0000
0010
0000
0000
0000
0100
0000
0010
0100
0010
1000
0100
0010
0001
0010
,  // measure 139
0100
1000
0010
0100
0010
0000
0100
0000
0010
0000
0000
0000
0100
0000
0010
0000
,  // measure 140
0000
0000
0100
0000
0000
0000
0001
0000
0010
0100
1000
0010
0100
0010
1000
0010
,  // measure 141
0100
0001
0010
0100
1000
0000
0001
0000
0010
0000
0000
0000
0100
0000
1000
0000
,  // measure 142
0000
0010
0000
0200
0000
0300
0001
1000
,  // measure 143
0001
1000
0000
0000
1000
0000
0100
0010
,  // measure 144
0000
0000
0001
0000
0000
0000
1000
0000
0001
0010
0100
1000
0010
0100
0001
1000
,  // measure 145
0010
0100
0010
1000
0001
0000
0100
0000
0010
0000
0000
0000
1000
0000
0010
0000
,  // measure 146
0000
0000
0100
0000
0000
0000
0001
0000
1000
0100
0010
0001
0010
0100
1000
0010
,  // measure 147
0100
0001
1000
0100
1000
0000
0100
0000
0010
0000
0000
0000
0010
0000
0001
0000
,  // measure 148
0000
0000
0100
0000
0000
0000
0010
0000
1000
0100
0010
0100
1000
0010
0100
0001
,  // measure 149
1000
0010
0100
0001
1000
0000
0100
0000
0010
0000
0000
0000
0001
0000
1000
0000
,  // measure 150
0000
0010
0000
2000
0000
3000
0010
0100
,  // measure 151
0010
0100
2002
0000
0000
0000
0000
0000
,  // measure 152
0000
0000
0000
0000
,  // measure 153
0000
0000
0000
0000
,  // measure 154
0000
0000
0000
0000
,  // measure 155
0000
3003
0000
0000
;
