#TITLE:Masked Dedede;
#SUBTITLE:;
#ARTIST:Kirby Triple Deluxe OST;
#TITLETRANSLIT:;
#SUBTITLETRANSLIT:;
#ARTISTTRANSLIT:;
#CREDIT:;
#BANNER:Masked Dedede.png;
#BACKGROUND:Masked Dedede-bg.png;
#LYRICSPATH:;
#CDTITLE:;
#MUSIC:Masked Dedede.ogg;
#OFFSET:0.067;
#SAMPLESTART:16.770;
#SAMPLELENGTH:13.120;
#SELECTABLE:YES;
#DISPLAYBPM:150.000;
#BPMS:0.000=150.000;
#STOPS:;
#BGCHANGES:;

//---------------dance-single - Highflyer----------------
#NOTES:
     dance-single:
     Highflyer:
     Challenge:
     11:
     0.958,0.929,0.000,0.061,1.000: // measure 1
0000
0000
0000
0000
,  // measure 2
0000
0000
0000
0000
,  // measure 3
0000
0000
0000
0000
,  // measure 4
0000
0000
0000
0000
,  // measure 5
0000
0000
0000
0000
,  // measure 6
0000
0000
0000
0000
1000
0010
0000
1000
0001
0000
1000
0100
0000
0010
0001
0000
,  // measure 7
0100
0010
1000
0001
0100
0010
1000
0100
0010
0001
0010
0100
1000
0010
0100
0001
,  // measure 8
0100
0010
1000
0100
0010
0100
1000
0001
0100
0010
1000
0100
1000
0010
0000
0010
,  // measure 9
0100
0000
0001
0010
0100
1000
0000
0100
1000
0000
0001
0100
0000
0001
0100
0000
,  // measure 10
0010
1000
0001
0010
0100
1000
0000
0001
0100
0000
0010
1000
0000
0001
0010
0000
,  // measure 11
0100
1000
0100
1000
0001
0100
0000
0001
0100
0000
0001
0100
0000
0010
1000
0001
,  // measure 12
0100
0010
0100
0010
1000
0100
0000
0100
1000
0000
0001
0100
0000
0100
0001
0010
,  // measure 13
0100
1000
0100
1000
0100
0010
0000
0001
1000
0000
0100
0010
0000
0001
1000
0000
,  // measure 14
0010
1000
0001
0100
0010
1000
0000
0001
0100
0000
0010
1000
0000
0001
0100
0000
,  // measure 15
0010
1000
0100
0010
0001
0010
0000
0100
1000
0000
0001
0010
0000
0100
1000
0100
,  // measure 16
1000
0001
0100
0001
1000
0100
0000
1000
0010
0000
0100
0001
0000
0010
0001
1000
,  // measure 17
0100
1000
0100
1000
0100
0100
0001
0010
0010
1000
0100
0100
0001
0010
0000
0100
,  // measure 18
0000
1000
0000
0000
0001
0100
0100
1000
0010
0010
0001
0100
0100
1000
0000
0100
,  // measure 19
0000
0100
0010
0010
1000
0100
0100
0001
0100
0100
1000
0100
0100
0001
0000
0200
,  // measure 20
0000
0000
0000
0300
0001
0100
0100
1000
0010
0010
0100
1000
0010
0100
0001
1000
,  // measure 21
0000
0000
0001
0100
0001
0000
1000
0100
1000
0000
0010
0100
0001
0000
0010
0000
,  // measure 22
0100
0000
0000
0000
0000
0000
1000
0000
0000
0100
0000
0000
1000
0000
0000
0000
0000
0000
0010
0000
0000
0100
0000
0000
0001
0000
0000
0000
0010
0000
0000
0000
0100
0000
0000
0000
2000
0000
0000
0000
0000
0000
0000
0000
0000
0000
0000
0000
,  // measure 23
3001
0000
0000
0100
0000
0000
0010
0000
0000
1000
0100
0000
0010
0000
0001
0000
1000
0000
0010
0000
0000
1000
0001
0000
,  // measure 24
0100
0000
0000
0000
0010
0000
0000
0000
1000
0000
0000
0000
0100
0000
0000
0000
0010
0000
0000
0000
0100
0000
0000
0000
0010
0000
0000
0000
0100
0000
0000
0000
0010
0000
0000
0000
0100
0000
0000
0010
0000
0000
0000
0000
0000
0100
0000
0000
,  // measure 25
0010
0000
0001
1000
0001
1000
0000
0010
1000
0000
1000
0010
0000
1000
0010
0000
,  // measure 26
0100
0001
1000
0100
0010
0001
0000
1000
0010
0000
0100
0001
0000
1000
0100
0000
,  // measure 27
0010
0001
0010
0001
1000
0010
0000
1000
0010
0000
1000
0010
0000
0100
0001
1000
,  // measure 28
0010
0100
0010
0100
0001
0010
0000
0010
0001
0000
1000
0010
0000
0010
1000
0100
,  // measure 29
0010
0001
0010
0001
0010
0100
0000
1000
0001
0000
0010
0100
0000
1000
0001
0000
,  // measure 30
0100
0001
1000
0010
0100
0001
0000
1000
0010
0000
0100
0001
0000
1000
0010
0000
,  // measure 31
0100
0001
0010
0100
1000
0100
0000
0010
0001
0000
1000
0100
0000
0010
0001
0010
,  // measure 32
0001
1000
0010
1000
0001
0010
0000
0001
0100
0000
0010
1000
0000
0100
1000
0001
,  // measure 33
0010
0001
0010
0001
0010
0010
1000
0100
0100
0001
0010
0010
1000
0100
0000
0010
,  // measure 34
0000
0001
0000
0000
1000
0010
0010
0001
0100
0100
1000
0010
0010
0001
0000
0010
,  // measure 35
0000
0010
0100
0100
0001
0010
0010
1000
0010
0010
0001
0010
0010
1000
0000
0020
,  // measure 36
0000
0000
0000
0030
1000
0010
0010
0001
0100
0100
0010
0001
0100
0010
1000
0001
,  // measure 37
0000
0000
1000
0010
1000
0000
0001
0010
0001
0000
0100
0010
1000
0000
0100
0000
,  // measure 38
0010
0000
0000
0000
0000
0000
0001
0000
0000
0010
0000
0000
0001
0000
0000
0000
0000
0000
0100
0000
0000
0010
0000
0000
1000
0000
0000
0000
0100
0000
0000
0000
0010
0000
0000
0000
0002
0000
0000
0000
0000
0000
0000
0000
0000
0000
0000
0000
,  // measure 39
1003
0000
0000
0010
0000
0000
0100
0000
0000
0001
0010
0000
0100
0000
1000
0000
0001
0000
0100
0000
0000
0001
1000
0000
,  // measure 40
0010
0000
0000
0000
0100
0000
0000
0000
0001
0000
0000
0000
0010
0000
0000
0000
0100
0000
0000
0000
0010
0000
0000
0000
0100
0000
0000
0000
0010
0000
0000
0000
0100
0000
0000
0000
0010
0000
0000
0100
0000
0000
0000
0000
0000
0010
0000
0000
,  // measure 41
0100
0000
0100
1000
0001
0010
0000
0010
0001
0000
1000
0010
0000
1000
0010
0000
,  // measure 42
0100
0001
1000
0100
0010
0001
0000
1000
0010
0000
0100
0001
0000
1000
0100
0000
,  // measure 43
0010
0001
0010
0001
1000
0010
0000
1000
0010
0000
1000
0010
0000
0100
0001
1000
,  // measure 44
0010
0100
0010
0100
0001
0010
0000
0010
0001
0000
1000
0010
0000
0010
1000
0100
,  // measure 45
0010
0001
0010
0001
0010
0100
0000
1000
0001
0000
0010
0100
0000
1000
0001
0000
,  // measure 46
0100
0001
1000
0010
0100
0001
0000
1000
0010
0000
0100
0001
0000
1000
0010
0000
,  // measure 47
0100
0001
0010
0100
1000
0100
0000
0010
0001
0000
1000
0100
0000
0010
0001
0010
,  // measure 48
0001
1000
0010
1000
0001
0010
0000
0001
0100
0000
0010
1000
0000
0100
1000
0001
,  // measure 49
0010
0001
0010
0001
0100
0100
1000
0100
0100
0001
0010
0010
1000
0100
0000
0010
,  // measure 50
0000
0001
0000
0000
1000
0100
0100
0001
0010
0010
1000
0010
0010
0001
0000
0010
,  // measure 51
0000
0010
0100
0100
0001
0010
0010
1000
0100
0100
0001
0100
0100
1000
0000
0020
,  // measure 52
0000
0000
0000
0030
1000
0010
0010
0001
0100
0100
0010
0001
0100
0010
1000
0001
,  // measure 53
0000
0000
1000
0010
1000
0000
0001
0010
0001
0000
0100
0010
1000
0000
0100
0000
,  // measure 54
0010
0000
0000
0000
0000
0000
0001
0000
0000
0010
0000
0000
0001
0000
0000
0000
0000
0000
0100
0000
0000
0010
0000
0000
1000
0000
0000
0000
0100
0000
0000
0000
0010
0000
0000
0000
0002
0000
0000
0000
0000
0000
0000
0000
0000
0000
0000
0000
,  // measure 55
1003
0000
0000
0010
0000
0000
0100
0000
0000
0001
0010
0000
0100
0000
1000
0000
0001
0000
0100
0000
0000
0001
1000
0000
,  // measure 56
0010
0000
0000
0000
0100
0000
0000
0000
0001
0000
0000
0000
0100
0000
0000
0000
0010
0000
0000
0000
0100
0000
0000
0000
0010
0000
0000
0000
0100
0000
0000
0000
0010
0000
0000
0000
0100
0000
0000
0010
0000
0000
0000
0000
0000
0100
0000
0000
,  // measure 57
0010
0000
0010
1000
0100
1000
0000
0100
1000
0000
0001
0100
0000
0001
0100
0000
,  // measure 58
0010
1000
0001
0010
0100
1000
0000
0001
0100
0000
0010
1000
0000
0001
0010
0000
,  // measure 59
0100
1000
0100
1000
0001
0100
0000
0001
0100
0000
0001
0100
0000
0010
1000
0001
,  // measure 60
0100
0010
0100
0010
1000
0100
0000
0100
1000
0000
0001
0100
0000
0100
0001
0010
,  // measure 61
0100
1000
0100
1000
0100
0010
0000
0001
1000
0000
0100
0010
0000
0001
1000
0000
,  // measure 62
0010
1000
0001
0100
0010
1000
0000
0001
0100
0000
0010
1000
0000
0001
0100
0000
,  // measure 63
0010
1000
0100
0010
0001
0010
0000
0100
1000
0000
0001
0010
0000
0100
1000
0100
,  // measure 64
1000
0001
0100
0001
1000
0100
0000
1000
0010
0000
0100
0001
0000
0010
0001
1000
,  // measure 65
0100
1000
0100
1000
0100
0100
0001
0010
0010
1000
0100
0100
0001
0010
0000
0100
,  // measure 66
0000
1000
0000
0000
0001
0100
0100
1000
0010
0010
0001
0100
0100
1000
0000
0100
,  // measure 67
0000
0100
0010
0010
1000
0100
0100
0001
0100
0100
1000
0100
0100
0001
0000
0200
,  // measure 68
0000
0000
0000
0300
0001
0100
0100
1000
0010
0010
0100
1000
0010
0100
0001
1000
,  // measure 69
0000
0000
0001
0100
0001
0000
1000
0100
1000
0000
0010
0100
0001
0000
0010
0000
,  // measure 70
0100
0000
0000
0000
0000
0000
1000
0000
0000
0100
0000
0000
1000
0000
0000
0000
0000
0000
0010
0000
0000
0100
0000
0000
0001
0000
0000
0000
0010
0000
0000
0000
0100
0000
0000
0000
2000
0000
0000
0000
0000
0000
0000
0000
0000
0000
0000
0000
,  // measure 71
3001
0000
0000
0100
0000
0000
0010
0000
0000
1000
0100
0000
0010
0000
0001
0000
1000
0000
0010
0000
0000
1000
0001
0000
,  // measure 72
0100
0000
0000
0000
0010
0000
0000
0000
1000
0000
0000
0000
0100
0000
0000
0000
0010
0000
0000
0000
0100
0000
0000
0000
0010
0000
0000
0000
0100
0000
0000
0000
0010
0000
0000
0000
0100
0000
0000
0010
0000
0000
0000
0000
0000
0100
0000
0000
,  // measure 73
0010
0000
0001
1000
0001
1000
0000
0001
1000
0000
0001
1000
0000
0001
1000
0000
,  // measure 74
0100
0010
0100
0010
0100
1000
0000
0100
1000
0000
0100
1000
0000
0100
1000
0000
,  // measure 75
0001
0100
0010
1000
0001
0100
0000
0010
0100
0000
0010
1000
0000
0100
0010
0001
,  // measure 76
1000
0001
1000
0001
0100
0010
0000
0100
0010
0000
1000
0001
0000
0001
1000
0001
,  // measure 77
0100
0010
0100
0010
0000
0000
0000
0000
0000
0000
0000
0000
0000
0000
0000
0000
;
