#TITLE:MAD ATTACK;
#SUBTITLE:;
#ARTIST:HALFBY;
#TITLETRANSLIT:;
#SUBTITLETRANSLIT:;
#ARTISTTRANSLIT:;
#CREDIT:;
#BANNER:MAD ATTACK.png;
#BACKGROUND:;
#LYRICSPATH:;
#CDTITLE:;
#MUSIC:Mad Attack.ogg;
#OFFSET:0.193;
#SAMPLESTART:68.640;
#SAMPLELENGTH:15.000;
#SELECTABLE:YES;
#DISPLAYBPM:140.000;
#BPMS:0.000=140.000;
#STOPS:;
#BGCHANGES:;

//---------------dance-single - Highflyer----------------
#NOTES:
     dance-single:
     Highflyer:
     Challenge:
     9:
     0.814,0.833,0.657,0.324,0.643: // measure 1
0000
0000
0000
0000
1001
0000
0000
1000
,  // measure 2
0110
0000
0001
0110
0000
1010
0000
1000
,  // measure 3
0100
0000
0000
0000
0010
0000
0000
0000
0001
0000
0000
0000
1000
0000
0000
0000
0010
0000
0000
0000
0100
0000
0000
0000
0110
0000
0000
0000
0000
0000
1000
0000
0000
0100
0000
0000
1000
0000
0000
0000
0000
0000
0010
0000
0000
0000
0000
0000
,  // measure 4
0110
0000
0001
0010
0001
0000
1000
0000
0110
0000
0010
0100
0010
0000
1000
0000
,  // measure 5
0100
0000
0000
0000
0010
0000
0000
0000
0100
0000
0000
0000
1000
0000
0000
0000
0001
0000
0000
0000
0100
0000
0000
0000
0010
0000
0000
0000
0000
0000
1000
0000
0000
0000
0000
0000
0100
0000
0000
0000
0000
0000
1000
0000
0000
0010
0000
0000
,  // measure 6
1000
0000
0010
0000
1000
0010
0100
0000
0001
0000
0010
0001
0100
0000
0010
0000
,  // measure 7
0010
0000
0000
0000
0100
0000
0000
0000
0010
0000
0000
0000
1000
0000
0000
0000
0100
0000
0000
0000
0010
0000
0000
0000
0100
0000
0000
0000
0000
0000
0010
0000
0000
0100
0000
0000
1000
0000
0000
0000
0000
0000
1000
0000
0000
0000
0000
0000
,  // measure 8
0010
0000
1000
0100
1000
0000
0001
0000
1000
0000
0010
0000
0100
0000
0001
0000
,  // measure 9
0010
0000
0001
0000
1000
0000
0100
0000
0010
0000
0001
0000
0010
0000
0000
0010
0000
0000
0010
0000
0000
0010
0000
0000
,  // measure 10
0010
0010
0010
0010
0100
0100
0100
0100
,  // measure 11
0100
0100
0100
0100
1000
1000
1000
1000
,  // measure 12
1000
1000
1000
1000
0001
0001
0001
0001
,  // measure 13
0001
0000
0001
0000
0001
0000
0001
0000
0001
0010
0100
1000
0001
0010
0100
1000
,  // measure 14
0001
0010
0100
1000
0001
0010
0100
1000
0010
0100
0001
1000
0010
0100
0001
1000
,  // measure 15
0010
0100
0001
1000
0010
0100
0001
1000
0010
1000
0001
1000
0100
1000
0001
1000
,  // measure 16
0010
1000
0001
1000
0100
1000
0001
1000
0010
0000
1000
0100
0000
0100
1000
0000
,  // measure 17
0010
0000
1001
0000
1001
0000
0000
0000
0101
0000
0000
0001
1000
0000
0010
0000
,  // measure 18
1000
0000
0100
1000
0010
0000
0100
0000
0001
0000
0010
0000
0001
0000
1000
0000
,  // measure 19
0100
0000
0000
0000
1000
0000
0000
0000
0010
0000
0000
0000
0100
0000
0000
0000
0001
0000
0000
0000
1000
0000
0000
0000
0001
0000
0000
0000
0000
0000
1000
0000
0000
0010
0000
0000
0100
0000
0000
0000
0000
0000
0001
0000
0000
0000
0000
0000
,  // measure 20
1000
0000
0100
0010
0001
0000
1000
0000
0010
0000
1000
0000
0000
0000
0010
0000
,  // measure 21
0010
0000
0000
0000
1000
0000
0000
0000
0100
0000
0000
0000
2002
0000
0000
0000
0000
0000
0000
0000
0000
3003
0000
0000
0001
0000
0000
0000
0000
0000
0100
0000
0000
0010
0000
0000
1000
0000
0000
0000
0000
0000
0100
0000
0000
0000
0000
0000
,  // measure 22
1000
0000
0001
0100
0001
0000
0010
0000
0001
0000
1000
0000
0100
0000
1000
0000
,  // measure 23
0010
0000
0000
0000
0100
0000
0000
0000
0001
0000
0000
0000
1000
0000
0000
0000
0010
0000
0000
0000
1000
0000
0000
0000
0100
0000
0000
0000
0000
0000
1000
0000
0000
0010
0000
0000
1000
0000
0000
0000
0000
0000
0001
0000
0000
0000
0000
0000
,  // measure 24
0100
0000
0001
0010
0001
0000
1000
0000
0100
0000
1000
0000
1000
0010
0000
0000
,  // measure 25
0010
0000
0000
0000
0100
0000
0000
0000
0010
0000
0000
0000
2002
0000
0000
0000
0000
0000
0000
0000
0000
3003
0000
0000
1100
0000
0000
0000
0000
0000
1000
0000
0000
0010
0000
0000
1000
0000
0000
0000
0000
0000
0010
0000
0000
0000
0000
0000
,  // measure 26
1000
0000
0001
0100
0001
0000
0010
0000
0001
0000
1100
0000
0100
0000
1000
0000
,  // measure 27
0010
0000
0000
0000
1000
0000
0000
0000
0001
0000
0000
0000
0100
0000
0000
0000
0001
0000
0000
0000
1000
0000
0000
0000
0010
0000
0000
0000
0000
0000
1000
0000
0000
0100
0000
0000
1000
0000
0000
0000
0000
0000
0001
0000
0000
0000
0000
0000
,  // measure 28
0100
0000
0001
0010
0001
0000
1000
0000
0100
0000
1000
0000
0000
0000
0010
0000
,  // measure 29
1000
0000
0000
0000
0010
0000
0000
0000
1000
0000
0000
0000
2002
0000
0000
0000
0000
0000
0000
0000
0000
3003
0000
0000
0001
0000
0000
0000
0000
0000
0100
0000
0000
0001
0000
0000
1000
0000
0000
0000
0000
0000
0010
0000
0000
0000
0000
0000
,  // measure 30
1000
0000
0100
0010
0001
0000
1000
0000
0001
0000
1000
0000
0010
0000
0100
0000
,  // measure 31
0001
0000
0000
0000
1000
0000
0000
0000
0100
0000
0000
0000
1000
0000
0000
0000
0001
0000
0000
0000
1000
0000
0000
0000
0010
0000
0000
0000
0000
0000
0100
0000
0000
0001
0000
0000
1000
0000
0000
0000
0000
0000
0100
0000
0000
0000
0000
0000
,  // measure 32
1000
0000
0000
0000
0010
0000
0100
0000
0001
0000
0000
0000
1000
0000
0000
0000
0100
0000
0000
0000
2020
3030
0000
0000
0000
0000
0000
0000
0202
0303
0000
0000
,  // measure 33
0000
0000
0000
0000
0001
0000
0000
0000
2002
3003
0000
0000
0000
0000
0000
0000
1010
0000
0000
0000
0000
0000
0000
0000
1001
0000
0000
0000
0000
0000
0000
0000
,  // measure 34
0001
0000
0100
0001
0000
0000
0000
0000
0001
0000
1000
0000
0000
0000
0100
0000
,  // measure 35
1000
0000
0010
1000
0000
0000
0000
0000
1001
0000
0000
0000
0101
0000
0000
0000
,  // measure 36
0001
0000
0010
0001
0000
0000
0000
0000
1001
0000
1010
0000
0000
0000
0010
0000
,  // measure 37
1000
0000
0010
1000
0000
0000
0000
0000
0010
0000
0010
0000
0010
0000
0010
0000
,  // measure 38
0010
0010
0010
0010
0100
0100
0100
0100
,  // measure 39
0100
0000
0100
0000
0100
0000
0100
0000
0001
0100
0010
1000
0001
0100
0010
1000
,  // measure 40
0001
1000
0100
0010
0001
1000
0010
1000
0002
0000
2000
0000
3003
0000
M00M
0000
,  // measure 41
0001
1000
0010
0100
0000
MMMM
0000
0000
1001
0000
0000
0000
1000
0000
0010
0000
,  // measure 42
1010
0000
0000
1100
0000
0000
1001
0000
0001
0000
0101
0000
0100
0000
0010
0000
,  // measure 43
1010
0000
0000
1100
0000
0000
1001
0000
0101
0000
0001
0000
0010
0000
0001
1000
,  // measure 44
0100
0000
1000
0000
0010
0000
1000
0000
0010
0000
1000
0001
0000
0000
1000
0001
,  // measure 45
0000
0000
1000
0100
0000
0000
1000
0000
0020
0000
0000
0000
2030
0000
0000
0000
,  // measure 46
3002
0000
0000
0000
1003
0100
0010
0001
0200
0000
0000
0000
0320
0000
0000
0000
,  // measure 47
2030
0000
0000
0000
3001
0010
0100
0010
0002
0000
0000
0000
0023
0000
0000
0000
,  // measure 48
0230
0000
0000
0000
1300
0100
0010
0001
0100
0010
1000
0100
0010
0001
0100
0010
,  // measure 49
0000
0000
0000
0000
0220
0330
0000
0000
2002
3003
0000
0000
0000
0000
0000
0000
0001
0000
0000
0000
0000
0000
1000
0000
0100
0000
0000
0000
1000
0000
0000
0000
,  // measure 50
0010
0000
0000
0100
0001
0000
0100
0000
0001
0000
0000
0010
0001
0000
1000
0000
,  // measure 51
0100
0000
1000
0000
0010
0000
0000
0000
0110
0000
0000
0010
1000
0000
0001
0000
,  // measure 52
1000
0000
0000
0001
0010
0000
0100
0000
1000
0000
0000
0100
1000
0000
0010
0000
,  // measure 53
2002
0000
3003
0000
0202
0000
0303
0000
0101
0000
0000
0001
1000
0000
0010
0000
,  // measure 54
1100
0000
0000
0100
1000
0000
0010
0000
1010
0000
0000
0010
0100
0000
0001
0000
,  // measure 55
0101
0000
0011
0000
0011
0000
0000
0000
1001
0000
0000
0001
1000
0000
0010
0000
,  // measure 56
1100
0000
0000
0100
1000
0000
0010
0000
1010
0000
0000
0010
0100
0000
0001
0000
,  // measure 57
0202
0000
0303
0000
2020
0000
3030
0000
1100
0000
0000
1010
0000
0000
1001
0000
,  // measure 58
0000
0000
0101
0000
0101
0000
0000
0000
1010
0000
0000
1100
0000
0000
1001
0000
,  // measure 59
0000
0000
0101
0000
0101
0000
0000
0000
1010
0000
0000
1100
0000
0000
0101
0000
,  // measure 60
0000
0000
0000
1100
0000
0000
1100
0000
0000
0000
0000
0000
1001
0000
1010
0000
0110
0000
0101
0000
0110
0000
1010
0000
,  // measure 61
1001
0000
0000
0000
;
