#TITLE:Like It!;
#SUBTITLE:;
#ARTIST:Ryu*;
#TITLETRANSLIT:;
#SUBTITLETRANSLIT:;
#ARTISTTRANSLIT:;
#CREDIT:;
#BANNER:Like It!.png;
#BACKGROUND:;
#LYRICSPATH:;
#CDTITLE:;
#MUSIC:Like It!.ogg;
#OFFSET:0.018;
#SAMPLESTART:68.640;
#SAMPLELENGTH:15.000;
#SELECTABLE:YES;
#DISPLAYBPM:165.000;
#BPMS:0.000=165.000,145.000=82.500,165.000=41.250,166.000=165.000;
#STOPS:;
#BGCHANGES:;

//---------------dance-single - HF 7/7----------------
#NOTES:
     dance-single:
     HF 7/7:
     Challenge:
     12:
     1.000,1.000,0.134,0.330,1.000: // measure 1
0000
0000
0000
0000
,  // measure 2
0000
0000
0000
0000
,  // measure 3
0000
0000
0000
0000
,  // measure 4
0000
0000
0000
0000
0000
0000
0000
1001
,  // measure 5
1010
0000
0010
1000
0010
1000
0001
0010
,  // measure 6
0001
0010
0100
1000
0100
1000
0001
0001
,  // measure 7
1000
1000
0010
0100
0010
0100
0001
1000
,  // measure 8
0001
1000
0010
0100
0001
1000
0010
1000
,  // measure 9
0100
0000
1000
0000
0010
0000
0100
0000
0001
0000
0010
0000
0001
0000
0010
0001
,  // measure 10
0000
0100
0001
0000
1000
0000
0010
0000
1000
0000
0100
0000
1000
0000
0010
0100
,  // measure 11
0000
0001
1000
0000
0110
0000
0000
1001
0000
0000
0110
0000
0001
0000
1000
0001
,  // measure 12
0000
0010
0100
0000
1000
0000
0001
0000
0100
0010
1000
0001
0100
0000
0010
0000
,  // measure 13
0110
0000
0000
0000
0010
0000
1000
0100
1000
0000
0010
0000
0100
0000
0001
0010
,  // measure 14
0001
1000
0100
0010
0001
1000
0010
0010
,  // measure 15
0100
0000
0100
0000
0001
0000
0010
0001
0010
0000
0100
0000
1000
0000
0001
0010
,  // measure 16
0001
0000
1000
0000
0010
0000
0100
0010
0100
0000
0010
0000
1000
0000
1000
0000
,  // measure 17
1000
0000
0000
0000
1100
0000
1000
0010
1000
0000
0001
0000
0100
0000
0010
0100
,  // measure 18
0000
0010
1000
0000
0100
0000
0010
0001
0010
0000
0100
0000
1000
0000
0010
0100
,  // measure 19
0000
0100
0001
0000
0010
0000
0000
0100
0000
0000
1000
0000
0010
0000
0100
0001
,  // measure 20
0000
1000
0100
0000
0010
0001
0100
0010
1000
0100
0010
0100
1000
0000
0002
0000
,  // measure 21
2000
0000
3003
0000
1000
0100
0010
0001
1000
0100
0010
0001
0100
0010
1000
0001
,  // measure 22
0100
0010
1000
0001
0100
0010
0100
0010
0100
0010
0100
0010
1000
0100
1000
0100
,  // measure 23
1000
0100
1000
0100
1000
0100
0010
0100
1000
0001
0100
0010
0100
0001
0010
0100
,  // measure 24
1000
0001
0100
0010
1000
0100
0010
0001
0010
0100
1000
0010
0100
0010
1000
0100
,  // measure 25
0010
0001
0010
0100
1000
0100
0010
0001
1000
0100
0010
0001
0100
0010
1000
0001
,  // measure 26
0100
0010
1000
0001
0100
0010
0100
0010
0100
0010
0100
0010
2000
3100
2000
3100
,  // measure 27
2000
3100
1000
0100
1000
0100
0010
0100
1000
0001
0100
0010
0100
0001
0010
0100
,  // measure 28
1000
0001
0100
0010
1000
0100
0010
0001
0010
0100
1000
0010
0100
0000
0020
0000
,  // measure 29
2000
3030
0010
1000
0100
0100
0010
0001
,  // measure 30
0100
0000
0000
0010
0100
0010
0000
1000
0000
0100
0000
0000
0200
0300
0200
0300
,  // measure 31
0200
0300
0000
0000
0010
0000
0001
0000
0100
0000
0100
0000
0010
0000
1000
0000
,  // measure 32
0100
0000
0000
0100
0010
0001
0000
1000
0002
0000
0200
0303
0000
0000
0110
0000
,  // measure 33
1001
0000
1000
0100
1000
1000
0100
1000
,  // measure 34
0010
0000
0000
0010
0100
0001
0000
0010
0000
0100
0000
0000
0100
0000
1000
0000
,  // measure 35
0010
0000
0010
0100
0001
0001
0100
0010
,  // measure 36
1000
0000
1000
0000
0100
0010
0000
0001
0000
0100
0000
0000
0010
0000
2000
0000
,  // measure 37
0002
0000
3003
0000
1000
0100
1000
0100
0010
0001
0010
0001
0100
0010
0100
0010
,  // measure 38
1000
1000
0001
0001
0010
0100
0010
0100
1000
0010
1000
0010
0100
0001
0100
0001
,  // measure 39
0010
0000
0010
0000
0100
0000
0100
0000
0010
0000
0001
0000
0010
0000
0001
0000
1000
0000
0100
0010
0000
0001
1000
0000
0010
0000
0100
0000
0010
0000
0100
0000
,  // measure 40
0001
0000
0010
0100
0000
1000
0001
0000
0110
0000
0000
1001
0000
0000
0110
0000
0001
0000
1000
0100
0000
0100
0010
0000
0001
0000
0010
0001
0000
0000
0001
0000
,  // measure 41
1000
0000
0010
0100
0000
0100
0001
0000
0001
0000
0000
0100
0000
0000
0010
0000
1000
0000
0100
0010
0000
0001
0100
0000
0010
1000
0001
0100
0010
1000
0001
0100
,  // measure 42
0010
0000
0100
0000
0001
0000
0010
0000
0100
0000
1000
0000
0001
0000
0010
0000
0200
0000
0000
0000
1300
0001
1000
0001
0000
0000
2000
0000
0002
0000
3003
0000
1000
0000
0000
0000
0100
0000
0000
0000
0010
0000
0000
0000
0001
0000
0000
0000
1000
0000
0000
0000
0100
0000
0000
0000
0010
0000
0000
0000
0001
0000
0000
0000
,  // measure 43
0100
0010
1000
0001
0100
0010
1000
0001
0100
0010
0100
0010
0100
0010
0100
0010
,  // measure 44
1000
0100
1000
0100
1000
0100
1000
0100
1000
0100
0010
0100
1000
0001
0100
0010
,  // measure 45
0100
0001
0010
0100
1000
0001
0100
0010
1000
0100
0010
0001
0010
0100
1000
0010
,  // measure 46
0100
0010
1000
0100
0010
0001
0010
0100
1000
0100
0010
0001
1000
0100
0010
0001
,  // measure 47
0100
0010
1000
0001
0100
0010
1000
0001
0100
0010
0100
0010
0100
0010
0100
0010
,  // measure 48
1000
0100
1000
0100
1000
0100
1000
0100
1000
0100
0010
0100
1000
0001
0100
0010
,  // measure 49
0100
0001
0010
0100
1000
0001
0100
0010
1000
0100
0010
0001
1000
0100
0010
0001
,  // measure 50
1000
0000
2000
0000
0002
0000
3003
0000
1000
0100
0010
0001
1000
0100
0010
0001
,  // measure 51
0100
0010
1000
0001
0100
0010
1000
0001
0100
0010
0100
0010
0100
0010
0100
0010
,  // measure 52
2000
3001
2000
3001
2000
3000
0000
0000
1000
0100
0010
0001
0100
0010
1000
0001
,  // measure 53
0100
0010
1000
0001
0100
0010
1000
0100
0010
0001
0010
0001
0010
0001
0010
0001
,  // measure 54
2000
3100
2000
3100
2000
3000
0000
0000
1000
0010
0100
0001
0100
0010
1000
0010
,  // measure 55
0100
0001
0100
0010
0100
0001
0010
0100
1000
0001
0010
0100
1000
0100
1000
0100
,  // measure 56
0020
0031
0020
0031
0020
0030
0000
0000
0010
0001
0100
0010
1000
0100
0010
0001
,  // measure 57
0100
0010
1000
0001
0010
0100
1000
0100
0010
0001
0010
0001
0010
0100
0010
0100
,  // measure 58
1000
2000
0002
3003
2002
0000
0000
0000
,  // measure 59
0000
0000
3003
0000
;
