#TITLE:Kitty from Hell;
#SUBTITLE:;
#ARTIST:Paul Bazooka;
#TITLETRANSLIT:;
#SUBTITLETRANSLIT:;
#ARTISTTRANSLIT:;
#CREDIT:;
#BANNER:Kitty from Hell.png;
#BACKGROUND:Kitty from Hell-bg.png;
#LYRICSPATH:;
#CDTITLE:;
#MUSIC:Kitty from Hell.ogg;
#OFFSET:0.546;
#SAMPLESTART:68.640;
#SAMPLELENGTH:14.960;
#SELECTABLE:YES;
#DISPLAYBPM:128.000;
#BPMS:0.000=128.000;
#STOPS:;
#BGCHANGES:;

//---------------dance-single - Highflyer----------------
#NOTES:
     dance-single:
     Highflyer:
     Challenge:
     10:
     0.852,0.844,0.548,0.648,0.776: // measure 1
0000
0000
0000
0002
,  // measure 2
2003
0000
0000
0000
3100
0010
0000
0000
0001
0000
0100
0010
0000
0000
0010
0000
,  // measure 3
1000
0100
0010
0000
0001
0100
0000
0100
0010
0000
0010
1000
0000
0000
1001
0000
,  // measure 4
0000
0000
1000
0000
0000
0100
0000
0000
0020
0000
0000
0001
0030
0000
0100
0000
,  // measure 5
0010
0100
0010
0000
1000
0100
0000
0010
0001
0000
0100
0010
0000
0000
0100
0000
,  // measure 6
0000
0000
0110
0000
0000
0010
0000
0000
0100
0010
0000
1001
0000
0000
0001
0000
,  // measure 7
0001
0010
0100
0000
1000
0100
0000
1000
0020
0030
0200
0300
0002
0003
0100
0000
,  // measure 8
0020
0030
0020
0030
0020
0030
0020
0030
2000
3000
2000
3000
2000
3000
2000
3000
,  // measure 9
0100
0010
0000
0110
0000
0000
0010
0000
0001
1000
0001
1000
0001
0010
0100
1000
,  // measure 10
0001
0000
1000
0010
1000
0000
0001
0100
0001
0010
0100
1000
0000
0100
0020
0031
,  // measure 11
0000
1000
0020
0130
0000
0010
2000
3001
0000
0010
0000
0100
0010
0000
1001
0000
,  // measure 12
0110
0000
0000
0001
0200
0000
0000
0000
0301
1000
0010
0100
0002
0000
0010
0000
,  // measure 13
0023
0000
0230
0000
2300
3020
0230
0302
,  // measure 14
0013
0100
0010
0100
0010
0001
0010
0001
0010
0100
2000
3001
0000
1000
0020
0130
,  // measure 15
0000
0010
0200
0301
0000
0010
0200
1300
0001
0000
0100
0000
0020
0000
1030
0000
,  // measure 16
0020
0000
2030
0000
3200
0000
0310
0001
,  // measure 17
0200
0000
0000
0300
0200
0000
0000
0300
0010
0000
1000
0000
0011
0000
1000
0000
,  // measure 18
1100
0000
0000
1000
0010
0000
0100
0010
0000
0010
0100
0001
0000
0010
0200
1300
,  // measure 19
0001
1000
0002
2000
3MM3
0000
0000
0000
1000
0001
1000
0100
0010
0000
1001
0000
,  // measure 20
0220
0330
0000
0010
0100
0000
0000
0000
0010
0000
0000
0000
0100
0000
0000
0000
,  // measure 21
2010
0000
0000
3000
0012
0000
0000
0003
0010
0000
00M0
0000
0010
0000
00M0
0000
,  // measure 22
0010
0000
0001
0100
0000
0000
0110
0000
0010
1000
0000
0001
0000
0100
0020
0030
,  // measure 23
0000
0010
0200
0300
0000
0000
1001
0000
1000
0100
0010
0001
2000
0000
0020
3030
,  // measure 24
1010
0010
0110
0100
0101
0001
1100
1000
,  // measure 25
0021
0000
0000
0000
0130
0M00
0200
0000
2000
0000
3300
0000
0022
0000
0000
0033
,  // measure 26
0001
0000
1000
0010
0100
0001
0100
0010
1000
0000
1000
0100
0010
0001
0100
0010
,  // measure 27
1000
0000
0001
0000
0100
0010
1000
0001
0100
0000
0010
0100
0001
0010
0100
1000
,  // measure 28
0001
0000
1000
0000
0010
0100
0010
1000
0100
0000
0010
0001
0100
0010
1000
0001
,  // measure 29
0010
0000
0100
0000
1000
0010
0100
0001
0100
0000
0010
0100
0001
0010
0100
1000
,  // measure 30
0001
1000
0010
0000
0100
0010
0000
1000
0001
0010
0100
0000
1000
0100
0000
0010
,  // measure 31
0001
0100
0010
0000
0100
0010
0000
0010
0100
0001
0010
0000
0100
1000
0000
1000
,  // measure 32
0010
0100
0010
0000
0100
0001
0000
0001
0010
0100
1000
0000
0001
0100
0000
0010
,  // measure 33
1000
0100
0010
0000
0100
0010
0000
0001
0100
0010
1000
0000
1010
0000
1010
0000
,  // measure 34
1010
0000
0000
0010
0100
0001
0010
0000
1100
0000
1000
0000
1000
0000
0001
0000
,  // measure 35
0101
0100
0100
0100
1010
0010
0011
0001
,  // measure 36
0200
0000
0000
0000
0000
0000
0000
0000
0310
0000
0010
0100
0010
0000
0010
0000
,  // measure 37
0010
0010
0010
0010
1001
0001
1010
0100
,  // measure 38
0120
0030
0100
0100
1010
0010
0010
1001
,  // measure 39
0001
0010
0001
0010
0002
0003
1000
0000
0110
0000
0100
0000
0101
0000
0010
0000
,  // measure 40
0201
0000
0000
0000
0310
0000
0010
0000
0010
0000
0010
1000
0000
0100
0010
0000
,  // measure 41
0001
0100
0000
0010
0100
0000
0010
0000
1001
0000
0011
0000
0110
0000
1100
0000
,  // measure 42
1010
0000
0010
0100
0000
0001
0010
0000
0100
1000
0000
0010
0100
0000
0001
0010
,  // measure 43
0100
0000
1000
0010
0000
0100
0001
0000
0010
0100
0000
1000
0010
0000
0100
0001
,  // measure 44
0010
0000
0100
1000
0000
1000
0010
0000
0010
0100
0000
0100
0001
0000
0010
0100
,  // measure 45
0010
0000
0010
0001
0000
0100
0010
0000
0010
0100
0000
0100
0001
0000
1000
0000
,  // measure 46
1001
0000
0000
0000
,  // measure 47
1000
0010
0100
0001
0010
0100
1000
0010
0100
0001
0010
0100
1000
0001
0100
0010
,  // measure 48
1000
0100
0010
0001
0100
0010
1000
0100
0010
0001
1000
0100
0010
0001
0010
0001
,  // measure 49
0020
0030
0000
0000
0220
0330
0000
0000
2002
3003
0000
0000
2022
0000
3033
0000
,  // measure 50
1001
0000
1000
0010
0100
0010
0100
0010
2000
3000
2000
3000
0100
0010
0001
0100
,  // measure 51
0010
0000
1000
0000
0100
0010
0100
0010
0100
0000
1000
0000
2020
3030
0100
0000
,  // measure 52
0120
0000
0130
0000
0010
0000
1000
0100
M000
0000
1000
0010
0100
0010
1000
0001
,  // measure 53
0010
0000
0100
0000
0010
0001
0100
0010
1000
0000
1000
0000
0101
0000
2000
3000
,  // measure 54
0010
1000
0010
1000
0010
0100
0001
0010
0100
0000
0100
0000
1000
0010
1000
0001
,  // measure 55
0100
0000
0010
0000
1000
0010
1000
0010
1000
0000
0001
0000
0101
0000
0010
0000
,  // measure 56
2001
0000
3001
0000
0100
0000
0010
0000
1000
0000
0200
0300
0010
0000
0002
0003
,  // measure 57
1000
0000
0010
0000
0100
0010
0100
0000
2002
3003
0000
0000
0220
0330
0000
0000
,  // measure 58
1001
0000
1001
0000
0001
0100
0010
1000
0001
0000
1001
0000
1000
0100
0000
1000
,  // measure 59
0100
0000
0010
0000
0001
0100
0010
1000
0001
0000
1000
0000
1010
0000
0100
0000
,  // measure 60
2002
3003
0100
0000
1001
0000
0001
0010
0001
0000
1000
0100
1000
0010
0100
0001
,  // measure 61
0010
0000
0100
0000
0010
0001
0100
0010
2000
3000
2000
3000
2002
3003
0000
0000
,  // measure 62
0001
0010
0001
0010
0001
0010
0100
1000
0001
0000
0001
0000
1000
0010
0100
0001
,  // measure 63
0010
0000
0010
0000
0100
1000
0001
0010
0100
0000
1000
0000
0011
0000
1000
0000
,  // measure 64
1010
0110
0101
0011
0110
1100
0110
0101
,  // measure 65
1010
0000
0101
0000
1000
0010
1000
0000
0001
0100
0001
0000
1000
0000
1000
0000
,  // measure 66
2002
0000
0000
0000
,  // measure 67
0000
3003
0000
0000
;
