#TITLE:I Really Like You;
#SUBTITLE:;
#ARTIST:Carly Rae Jepson;
#TITLETRANSLIT:;
#SUBTITLETRANSLIT:;
#ARTISTTRANSLIT:;
#CREDIT:;
#BANNER:I Really Like You.png;
#BACKGROUND:;
#LYRICSPATH:;
#CDTITLE:;
#MUSIC:I Really Like You.ogg;
#OFFSET:0.100;
#SAMPLESTART:37.780;
#SAMPLELENGTH:15.000;
#SELECTABLE:YES;
#DISPLAYBPM:122.000;
#BPMS:0.000=122.000,77.000=61.000,79.000=122.000,143.000=61.000,149.000=122.000,201.000=61.000,203.000=122.000;
#STOPS:;
#BGCHANGES:;

//---------------dance-single - HF 4/4----------------
#NOTES:
     dance-single:
     HF 4/4:
     Challenge:
     10:
     0.765,0.808,0.330,0.147,0.858: // measure 1
0000
0000
0000
0000
,  // measure 2
0000
0000
0000
0000
,  // measure 3
0000
0000
0000
0000
,  // measure 4
0000
0000
0000
0000
,  // measure 5
0000
0000
0000
0000
1001
0000
0000
1000
0100
0000
1000
0010
0100
0000
0100
0001
,  // measure 6
0010
0000
0011
0000
0101
0000
1010
0000
0000
0000
0001
1000
0010
0100
0010
0000
,  // measure 7
0100
0000
0001
0000
0011
0000
0000
1000
0001
0000
1000
0000
0010
0100
0001
0000
,  // measure 8
0001
2200
0000
3300
1000
0010
1000
0001
,  // measure 9
0100
0000
0001
0000
1001
0000
0000
1000
0001
0000
0100
0000
0010
1000
0010
1000
,  // measure 10
0100
0000
1100
0000
1001
0000
1010
0000
0000
0000
0010
0100
0001
0000
0001
0010
,  // measure 11
0100
0000
0100
0000
1010
0000
0000
1000
0010
0000
1000
0000
0001
1000
0100
0000
,  // measure 12
1000
2000
0000
0000
3001
0002
0000
2003
,  // measure 13
3000
0000
0000
0000
1000
0010
1000
0000
1000
0001
1000
0000
0001
0100
0001
0000
,  // measure 14
0001
0010
0001
0100
0020
0000
0000
0000
1030
0010
0100
0000
0000
0000
0110
0000
,  // measure 15
0000
0000
1001
0000
0001
1000
0010
0000
0100
0010
0100
0000
0001
0010
0100
0000
,  // measure 16
1000
0010
0100
0000
0001
0000
0010
0100
1000
0001
2000
0000
0000
0000
3010
0000
,  // measure 17
0000
0000
0010
0100
0001
0000
0001
0010
0100
0000
1000
0010
0100
0000
0010
0000
,  // measure 18
0100
0010
1000
0010
1000
0000
0100
1000
0100
0000
2000
0000
0000
0000
0002
0000
,  // measure 19
0000
0020
0000
0000
0000
0000
0000
0000
,  // measure 20
3033
0000
0000
0000
0000
0000
0000
0000
0000
0001
0100
0000
0001
0000
1000
0000
0100
0000
0010
0000
1001
0000
0110
0000
1001
0000
0000
0000
1000
0000
0001
0000
,  // measure 21
0100
0010
1000
0010
1000
0100
0010
0001
0010
0001
0100
0010
0100
0010
1000
0100
,  // measure 22
0010
0001
0100
0010
1000
0100
0010
0001
0100
0010
0100
0000
0000
0000
0000
0000
,  // measure 23
0001
0000
1000
0100
1000
0000
0100
0000
1000
0000
0010
1000
0010
0000
0100
0000
,  // measure 24
0001
0000
0100
0001
0010
0000
0100
0000
1000
0000
1001
0000
1100
0000
0100
1000
,  // measure 25
0010
1000
0001
1000
0001
0010
0001
0100
0001
1000
0100
1000
0010
1000
0001
0010
,  // measure 26
0001
1000
0100
1000
0010
1000
0001
1000
0100
1000
0001
0000
1001
0000
0000
0000
,  // measure 27
0001
0000
1000
0010
1000
0000
0100
0000
0100
0000
0100
0010
0001
0000
0100
0000
,  // measure 28
0001
0000
1000
0010
1000
0000
0100
0000
1000
0000
0101
0000
0100
0001
0010
0001
,  // measure 29
1000
0100
1000
0010
0100
0001
0100
0001
1000
0010
1000
0100
1000
0010
1000
0001
,  // measure 30
0010
0001
0100
0001
1000
0010
1000
0100
1000
0001
0010
0001
0100
0010
1000
0100
,  // measure 31
1000
0001
0100
0010
1000
0100
1000
0001
0100
0001
0010
0001
1000
0100
1000
0010
,  // measure 32
0100
0001
1000
0001
1000
0010
1000
0001
1000
0000
1001
0000
1010
0000
0010
1000
,  // measure 33
0100
1000
0001
1000
0010
1000
0100
1000
0001
1000
0010
0100
0001
0010
0001
1000
,  // measure 34
0100
1000
0001
0100
0010
1000
0001
1000
0010
1000
0100
0000
1100
0000
1000
0000
,  // measure 35
0010
0000
1000
0100
1000
0000
0001
0000
0010
0000
0001
1000
0001
0000
1000
0000
,  // measure 36
0010
0000
0100
0001
1000
0000
0010
0000
1001
0000
0000
0000
1010
0000
0000
0010
,  // measure 37
0010
1000
0010
0010
0010
0000
0010
1000
0100
1000
0100
2000
0000
3001
0000
0000
,  // measure 38
0001
1000
0010
1000
0100
0000
0000
0000
0100
0000
0100
0000
1000
0010
1000
0100
,  // measure 39
1000
0000
0200
0000
0000
0000
0300
0000
0100
0000
1000
0000
0010
0000
0100
0001
,  // measure 40
1000
0000
1000
0000
0010
0000
0000
0000
0010
0000
1000
0000
0100
0000
1000
0010
,  // measure 41
1000
1001
1010
0101
0000
0000
0001
0100
,  // measure 42
0010
0000
1000
0000
0100
0000
0000
0000
0100
0000
1000
0000
0010
0100
0001
0000
,  // measure 43
0001
2000
0000
3000
0000
0110
0000
1001
,  // measure 44
0000
0000
0000
0000
1000
0010
1000
0000
0001
0100
0001
0000
0100
0001
0010
0000
,  // measure 45
1100
0000
0000
0000
0010
0001
1000
0010
1000
0000
1010
0000
0000
0000
1001
0000
,  // measure 46
0000
0000
0001
0000
1000
0100
1000
0000
0001
0010
0001
0000
0010
0001
1000
0000
,  // measure 47
0001
1000
0001
0000
0001
0100
0010
0100
0010
0000
1000
0000
0000
0000
1100
0000
,  // measure 48
0000
0000
0100
1000
0010
0100
0010
0000
0100
0001
1000
0000
0001
0010
0100
0000
,  // measure 49
1000
0001
0100
0000
0001
0000
0000
0000
1000
0000
0010
0000
0000
0000
0020
0000
,  // measure 50
0000
2002
0000
0000
0000
0200
0000
0000
,  // measure 51
3033
0000
0000
0000
0300
0000
0000
0000
0000
0001
1000
0000
0010
0000
1000
0000
0001
0000
0100
0000
0010
0000
1000
0000
1010
0000
0000
0000
0010
0000
1000
0000
,  // measure 52
0100
1000
0001
0100
0001
0010
0001
1000
0010
1000
0001
0100
0001
0010
0001
1000
,  // measure 53
0100
1000
0001
0100
0001
0010
0001
1000
0001
0100
0001
0000
1001
0000
0000
0000
,  // measure 54
0000
0000
0001
0100
0010
0000
1000
0000
0010
0000
1000
0100
1000
0000
0010
0000
,  // measure 55
0100
0000
0001
0010
0100
0000
1000
0000
0001
0000
1001
0000
0110
0000
0001
1000
,  // measure 56
0010
0100
0001
1000
0001
0010
0100
1000
0001
0100
0010
0100
0010
1000
0001
1000
,  // measure 57
0100
0010
0001
1000
0001
0100
0010
1000
0001
1000
0100
0000
1100
0000
0100
0000
,  // measure 58
1000
0000
0010
1000
0010
0000
1000
0000
0010
0000
0100
0001
0010
0000
0100
0000
,  // measure 59
1000
0000
0010
0100
0001
0000
1000
0000
0010
0000
1001
0000
0001
1000
0010
1000
,  // measure 60
0001
0100
0001
0100
0001
0010
0001
1000
0100
1000
0010
0100
0001
0010
0001
1000
,  // measure 61
0010
0100
0001
1000
0001
1000
0100
1000
0010
0100
0001
0100
0001
0010
0001
0100
,  // measure 62
0001
1000
0100
1000
0010
1000
0100
1000
0010
0100
0001
0010
0001
1000
0100
0010
,  // measure 63
0001
1000
0001
1000
0010
1000
0002
0000
0003
0000
1001
0000
0110
0000
0001
1000
,  // measure 64
0010
1000
0100
1000
0001
0100
0001
1000
0010
1000
0100
1000
0010
0100
0001
0010
,  // measure 65
0001
1000
0100
1000
0010
1000
0001
1000
0010
1000
0100
0000
1100
0000
0100
1000
,  // measure 66
0001
0000
0001
1000
0010
0000
1000
0000
0010
0000
1000
0001
0100
0000
0001
0000
,  // measure 67
1000
0000
0010
1000
0100
0000
1000
0000
2002
0000
0000
0000
3003
0000
0000
0000
;
