#TITLE:H.O.W.ling;
#SUBTITLE:;
#ARTIST:M2U;
#TITLETRANSLIT:;
#SUBTITLETRANSLIT:;
#ARTISTTRANSLIT:;
#CREDIT:;
#BANNER:H.O.W.ling.png;
#BACKGROUND:H.O.W.ling-bg.png;
#LYRICSPATH:;
#CDTITLE:;
#MUSIC:H.O.W.ling.ogg;
#OFFSET:0.299;
#SAMPLESTART:68.640;
#SAMPLELENGTH:14.940;
#SELECTABLE:YES;
#DISPLAYBPM:160.000;
#BPMS:0.000=160.000;
#STOPS:;
#BGCHANGES:;

//---------------dance-single - HF 3-4/3-4----------------
#NOTES:
     dance-single:
     HF 3-4/3-4:
     Challenge:
     12:
     1.000,1.000,0.273,0.366,1.000: // measure 1
0000
0000
0000
0000
1000
0010
0100
0001
,  // measure 2
0010
0100
1000
0001
0100
0010
0100
0001
,  // measure 3
0010
0100
1000
0001
0100
0000
0010
0100
0001
0000
0010
0000
0100
0000
1000
0000
,  // measure 4
0001
0100
0010
1000
0001
0100
0010
1000
,  // measure 5
0100
0010
0001
1000
0100
0000
1000
0100
0010
0000
0001
0000
0100
0000
0010
0000
,  // measure 6
1000
0001
0010
0100
1000
0010
0100
0001
,  // measure 7
0010
0100
0010
0001
0100
0010
1000
0001
0010
0000
0100
0000
1000
0000
0010
0000
,  // measure 8
0100
0001
0010
0100
0010
0001
1000
0001
,  // measure 9
1000
0010
0100
0001
0010
0100
1000
0010
0200
0000
0000
0000
0320
0000
0000
0000
,  // measure 10
2030
0000
0000
0000
3002
0000
0000
0000
0023
0000
0000
0000
0000
0000
0031
0010
,  // measure 11
0200
0000
0000
0000
2300
0000
3020
0000
0230
0000
0000
0000
0320
0000
1030
0001
,  // measure 12
0020
0000
0230
0000
2300
0000
3002
0000
0203
0000
0300
0010
0100
0001
0010
0100
,  // measure 13
2000
0000
3002
0000
0203
0000
0320
0230
,  // measure 14
0302
0000
0000
0000
2003
0000
3100
0010
0002
0000
0203
0000
0320
0000
2030
0000
,  // measure 15
3002
0000
0023
0000
0230
0000
2300
0000
3002
0000
0023
0000
0230
0000
1300
0001
,  // measure 16
0100
0000
0110
0000
0010
1000
0100
0010
,  // measure 17
0001
0010
0100
1000
0010
0100
0010
1000
,  // measure 18
0100
0010
0001
0100
0010
1000
0001
0100
0010
0000
1000
0000
0010
0000
0100
0000
,  // measure 19
0001
0000
0010
0000
0100
0000
1000
0000
0001
0000
1000
0010
0100
0001
0010
0100
,  // measure 20
2000
0000
0000
0000
0000
0000
0000
0000
3001
0100
0010
1000
0001
0100
0010
1000
,  // measure 21
0001
0010
0100
1000
0001
0010
0100
1000
0100
0010
0001
1000
0100
0010
0001
1000
,  // measure 22
0010
0100
0010
1000
0001
0010
0100
0010
0001
0100
0010
0100
0010
1000
0010
1000
,  // measure 23
0001
0010
0001
0010
0100
1000
0100
1000
0001
0100
0001
0100
0010
0000
1000
0000
,  // measure 24
0100
0010
0001
0010
0100
1000
0100
0010
0001
0010
0001
0010
0100
0010
0100
0010
,  // measure 25
0100
1000
0100
1000
0010
1000
0010
1000
0001
0010
0001
0010
0100
1000
0100
1000
,  // measure 26
0010
0100
0010
0100
0001
1000
0001
1000
0010
0100
0001
0100
0010
1000
0010
0100
,  // measure 27
0001
0100
0010
1000
0100
0010
0001
0100
0010
1000
0001
0010
0100
0000
1000
0000
,  // measure 28
1001
0000
0000
0000
1000
0000
0001
0000
1001
0000
0000
1000
0100
0000
0000
0010
,  // measure 29
0001
0100
0010
1000
0001
0100
0010
0100
0001
0010
0100
1000
0001
0100
0010
1000
,  // measure 30
0100
0010
0100
1000
0001
0000
0100
0000
0001
0010
0100
1000
0001
0100
0010
0100
,  // measure 31
0001
0010
0100
1000
0100
1000
0010
0100
0001
0010
0100
1000
0100
1000
0010
0100
,  // measure 32
0001
0010
0100
1000
0001
0000
0100
0000
0010
0000
0000
0100
0020
0000
0000
0000
,  // measure 33
1030
0100
0010
0001
0100
0010
1000
0001
0100
0010
0100
0001
0010
0100
1000
0001
,  // measure 34
0100
0000
0001
0000
0100
0000
0010
0100
0001
0000
0000
0010
0200
0000
0000
0000
,  // measure 35
1300
0010
0100
0001
0100
0010
0100
0001
0010
0100
1000
0100
0010
0001
0100
0010
,  // measure 36
1000
0100
0010
0001
1000
0001
1000
0000
1100
0000
0100
0010
0001
0000
1000
0000
,  // measure 37
0010
0000
0100
0010
1000
0000
0001
0000
0010
0000
0100
1000
0001
0000
0100
0000
,  // measure 38
0010
0000
0100
0001
0010
0000
0100
1000
0001
0000
0100
0010
1000
0000
0001
0010
,  // measure 39
0100
0010
0001
1000
0010
0100
0010
1000
0001
0000
0000
0000
1001
0000
0000
0000
,  // measure 40
0110
0000
1011
0000
1000
0100
0010
0001
,  // measure 41
1000
M001
100M
M001
100M
M001
100M
M001
,  // measure 42
1001
0000
1001
0000
0001
0010
0100
1000
,  // measure 43
0001
0000
100M
0000
M001
0000
100M
0000
M001
0000
100M
0000
M001
0000
010M
0010
,  // measure 44
1000
0000
0000
0001
0100
0000
0000
0000
0110
0000
0000
1001
0000
0000
0110
0000
,  // measure 45
1010
0000
0000
1100
0000
0000
1001
0000
0000
0101
0000
0000
1010
0000
1001
0000
,  // measure 46
0011
0000
0000
0000
0101
0000
0000
0000
0001
0000
0010
0000
0100
1000
0010
0100
,  // measure 47
0001
100M
0001
100M
0001
100M
0001
100M
0002
0000
0000
0000
0003
0000
0000
0000
,  // measure 48
0101
0000
1010
0000
0010
1000
0001
0010
,  // measure 49
0100
0M10
01M0
0M10
01M0
0M10
01M0
0M10
,  // measure 50
1001
0000
0000
0001
0100
0000
0000
0000
0010
0000
0000
0010
1000
0000
0100
0000
,  // measure 51
0010
0000
00M1
0000
001M
0000
00M1
0000
001M
0000
00M1
0000
001M
0000
00M1
1000
,  // measure 52
0010
0000
0000
0100
0010
0000
0000
0000
0110
0000
0000
1001
0000
0000
0011
0000
,  // measure 53
0101
0000
0000
0110
0000
0000
1001
0000
0000
1010
0000
1000
0001
0000
0010
0100
,  // measure 54
1000
0000
0000
1000
0001
0000
0000
0000
0001
0000
0100
0000
0010
0000
1000
0000
,  // measure 55
0100
0010
0001
0100
0010
1000
0001
0100
0020
0000
0000
0000
0000
0000
0030
0100
,  // measure 56
0010
1000
0001
0010
1001
1000
0100
0010
,  // measure 57
0001
1000
0010
0100
0010
1000
0001
0010
,  // measure 58
0200
2300
3002
0203
0310
1000
0001
0100
,  // measure 59
0010
0000
0100
0000
0001
0000
0010
0000
0100
0000
1000
0100
0010
0001
1000
0010
,  // measure 60
0200
0000
0000
0000
0000
0000
0000
0000
0310
1000
0001
0010
0100
0010
0001
1000
,  // measure 61
0010
0100
0010
1000
0001
0010
0100
0010
0001
1000
0010
0100
0001
1000
0010
0100
,  // measure 62
0001
0010
0100
1000
0100
0010
0100
1000
0010
0100
0001
1000
0001
1000
0100
0010
,  // measure 63
0100
0010
0001
0100
0010
1000
0001
0100
0010
0100
0010
1000
0010
0000
1000
0000
,  // measure 64
0100
0000
0010
0001
0100
0010
1000
0001
0100
0010
0100
0001
0010
0100
1000
0100
,  // measure 65
0010
0001
0100
0010
1000
0001
0100
0010
0100
0001
0010
0100
1000
0001
0100
0010
,  // measure 66
0100
0001
0010
0100
1000
0001
0100
0010
0100
0001
0010
0100
1000
0010
0100
0001
,  // measure 67
0100
0010
1000
0100
0010
0001
0010
0100
1000
0001
0100
0010
1000
0000
0010
0000
,  // measure 68
0101
0000
0000
0000
1000
0000
0010
0000
1001
0000
0000
1000
0001
0000
0000
0001
,  // measure 69
0010
0001
0100
0010
1000
0001
0100
0010
0100
0001
0010
0100
1000
0001
1000
0001
,  // measure 70
1000
0000
0010
0000
0100
0000
0100
0010
0100
0001
0010
0001
0010
0001
1000
0010
,  // measure 71
1000
0010
0100
0001
0010
0100
1000
0001
0100
0010
1000
0001
0100
0010
0100
0001
,  // measure 72
0010
0100
1000
0001
1000
0000
0001
0000
0100
0000
0000
0010
0200
0000
0000
0000
,  // measure 73
0310
1000
0001
0010
0100
1000
0100
0010
0001
0100
0010
1000
0001
0100
0010
1000
,  // measure 74
0010
0000
0100
0000
0010
0000
1000
0100
0010
0000
0000
0001
0020
0000
0000
0000
,  // measure 75
0130
1000
0001
0100
0010
0100
0001
0010
0100
1000
0001
0100
0010
1000
0010
0100
,  // measure 76
0001
0010
0100
1000
0001
0100
0010
0000
1000
0000
0001
0010
0100
0000
1000
0000
,  // measure 77
0010
0000
0100
0001
0010
0000
0100
0000
1000
0000
0010
1000
0100
0000
0010
0000
,  // measure 78
0001
0000
0100
0010
1000
0000
0001
0010
0001
0000
1000
0100
1000
0000
0001
0100
,  // measure 79
0010
1000
0001
0010
0100
1000
0001
0100
0010
0000
0000
0000
0000
0000
0000
0000
,  // measure 80
2002
0000
0000
0000
,  // measure 81
0000
0000
0000
0000
,  // measure 82
0000
0000
0000
0000
0000
0000
0000
3003
1001
0000
0000
0000
0000
0000
0000
0000
;
