#TITLE:Forgot About Dre;
#SUBTITLE:;
#ARTIST:Dr. Dre feat. Eminem;
#TITLETRANSLIT:;
#SUBTITLETRANSLIT:;
#ARTISTTRANSLIT:;
#CREDIT:;
#BANNER:Forgot About Dre.png;
#BACKGROUND:Forgot About Dre-bg.png;
#LYRICSPATH:;
#CDTITLE:;
#MUSIC:Forgot About Dre.ogg;
#OFFSET:1.406;
#SAMPLESTART:64.403;
#SAMPLELENGTH:14.880;
#SELECTABLE:YES;
#BPMS:0.000=133.880;
#STOPS:;
#BGCHANGES:;

//---------------pump-single - Highflyer----------------
#NOTES:
     pump-single:
     Highflyer:
     Hard:
     11:
     0.799,0.844,0.360,0.242,0.903:
00000
00000
00000
10000
,
00001
00001
00010
00000
,
01000
00000
10000
01000
,
00100
00000
00000
00000
10000
00000
00000
00000
00020
00000
00000
00030
00000
00000
00000
00000
,
00010
00000
00000
00000
01000
00000
00100
01000
00100
00000
10000
00000
00100
00000
01000
00000
,
00101
00000
00000
00000
00001
01000
00100
00000
10000
00000
00010
00000
00000
00000
00010
10000
,
00001
00000
01000
00000
10000
00000
00000
00000
10000
00000
00010
00100
00000
00000
01000
00000
,
00100
00000
01000
00000
00001
10000
00010
00000
00100
00000
20001
00000
30000
00000
00010
00000
,
02020
00000
03030
00100
10000
00000
20200
00000
30300
00000
00010
00000
02020
00000
03030
00100
,
10000
20020
30030
00100
00101
00010
10010
00100
,
11000
00000
00000
01000
10000
00000
20200
00000
30300
00000
00000
00000
00010
00000
10000
00001
,
00000
00100
00001
00010
00001
00000
01000
10000
01000
00000
00010
10000
00001
00000
00001
00100
,
00000
00010
00000
01000
00010
00000
01000
00010
00000
00000
00000
00000
01000
00100
00010
00000
,
00100
01000
00010
00100
01000
00000
01000
00100
00010
00000
10000
00100
00002
00000
00000
00000
,
00003
00000
00000
00100
10000
00000
01000
10000
00010
00000
00100
00001
00020
00000
00000
00000
,
00030
00000
00100
00010
10000
00000
00010
10000
01000
00000
00100
01000
00001
00000
00010
00001
,
00010
00000
00100
00000
20100
00000
00000
01000
30000
00000
00000
01000
00100
00000
00100
00000
,
01000
00001
00010
10000
00020
00000
00000
00130
00000
00000
00000
00000
02000
00000
00000
03100
,
00000
00000
00000
00100
10000
00010
01000
00000
00100
00000
01000
00000
02010
00000
00000
03100
,
00000
00000
00000
00000
00100
01000
00010
00000
00110
00000
00010
01000
00002
00000
00000
00103
,
00000
00000
00000
00000
00010
10000
00100
00000
01000
00000
00010
01000
00002
00000
00000
00103
,
00000
00000
00000
00000
01010
00000
00010
02000
00000
03000
00000
00000
00110
00000
00000
01100
,
00000
01000
00000
00100
00000
01000
00000
00001
00000
00000
00000
00010
10000
00000
00100
10000
,
00001
00010
00100
00000
00000
00000
00100
10000
00001
00000
10000
00000
00001
00000
00100
00001
,
01000
00000
00010
00000
02000
00000
00000
03010
00000
00000
00000
00000
00010
00000
10000
00001
,
00010
00000
00100
01000
20000
00000
00000
31000
00000
00100
01000
00000
00010
01000
00001
00000
,
00001
10000
00010
00200
00000
00000
00300
00000
00000
00010
01000
00001
10000
00000
10000
00010
,
00000
00000
10000
00000
00001
00010
00100
01000
00000
00000
10000
01000
10000
00000
01000
00100
,
00010
00001
10000
00010
01000
00000
00010
01000
00000
00000
00000
00000
01000
00000
00010
10000
,
00001
10000
01000
00000
11000
00000
00000
10100
00000
00000
10000
00010
01000
00001
00010
00100
,
00000
01000
00100
00000
02000
00000
00000
03100
00000
00000
00100
10000
00020
00000
00000
00030
,
01000
00000
00000
00000
00001
00000
10000
01000
00100
00000
00010
00001
00010
00000
10000
00000
,
00001
00000
00100
00000
00020
00000
00000
01030
00000
00000
00010
00000
10010
00000
00000
01001
,
00000
00000
00000
00000
00010
00000
10000
00100
00000
00000
00000
10000
00100
00000
10000
00000
,
00001
00000
00010
00000
00000
01100
00000
00000
01010
00000
00000
00000
00010
10000
00001
00000
,
01000
00010
10000
00001
00000
00001
00000
10000
00001
00000
10000
00010
00001
00000
00010
00000
,
10000
00000
01000
00100
00010
00000
00000
00000
01000
00000
00000
00000
00000
00000
01010
00000
,
01100
00000
10000
01000
00100
00010
00001
10000
01000
00000
01000
00100
00010
00000
10000
00100
,
00001
00010
00000
00100
01000
10000
01000
00000
11000
00000
00100
01000
00010
00000
00010
00100
,
00000
00100
00010
10000
00001
00010
00100
01000
00100
00000
10000
00001
00010
00100
01000
00100
,
00000
00100
01000
10000
00100
00001
10000
00000
10001
00000
00000
00000
00000
00000
10100
00000
,
10010
00000
00010
00100
00010
01000
00100
01000
00001
00000
00100
00001
00010
00000
10000
01000
,
00100
01000
00000
00010
00100
01000
00100
00000
00010
00000
10000
00100
01000
00000
00001
00100
,
00000
00001
00010
00001
01000
10000
01000
00001
00100
00000
00010
00001
00100
10000
01000
10000
,
00000
00010
10000
01000
10000
00100
01000
00000
00101
00000
00000
10000
00010
10000
00001
10000
,
00000
10000
00100
00000
10000
00010
00100
01000
00000
00000
01000
00100
00010
10000
00010
00000
,
00010
10000
00001
00000
00010
00100
01000
10000
00000
00000
00000
01000
00100
00010
00001
00000
,
00011
00000
00001
10000
00010
10000
00010
10000
00000
00000
00100
10000
00010
01000
00010
01000
,
00000
00010
01000
00000
00010
10000
00001
10000
00000
00000
00000
00000
00000
00000
00010
00000
,
10000
00000
00001
00010
00100
00000
01000
10000
00000
00000
01000
00001
10000
00000
00010
10000
,
00000
00000
00100
10000
00100
00000
10000
00010
00000
00010
10000
00001
00010
00000
00001
00010
,
00000
00001
10000
00010
01000
00000
00010
01000
00010
00000
10000
00001
10000
00000
00010
10000
,
00000
00000
00010
01000
00100
00000
00100
01000
00000
00000
00000
00000
01000
00010
10000
00001
,
00100
00000
00010
00100
00001
00000
00001
00100
00000
00000
00000
00010
01000
00000
00100
10000
,
00001
00000
00010
00001
00010
00000
00001
20000
00000
30000
00010
01000
00100
00000
00100
01100
,
00000
00000
00000
00000
00100
00000
10000
00000
00001
01000
00100
01000
00000
00010
01000
00000
,
00100
01000
00001
00000
10000
00000
00100
10000
00000
00000
00000
00000
00100
00000
10000
00010
,
00000
10000
00010
00000
10000
00000
00100
10000
00000
00000
10000
00001
10000
00000
00100
01000
,
00000
00000
00000
00000
10001
00000
00101
00000
01100
00000
01001
00000
01010
00000
01000
00100
,
00000
00000
00000
00000
01000
00010
01000
00000
10010
00000
00010
10000
00100
00000
10000
01000
,
00100
00001
00010
00100
01000
00000
00100
01000
00000
00000
00000
00000
00000
01000
00010
01000
,
00010
00000
01010
00000
00110
00000
00010
00000
10000
00000
00001
00000
00010
00000
00100
01000
,
10000
00000
11000
00000
01100
00000
00000
00000
00000
00000
00100
01000
00010
00000
00100
00010
,
01000
00000
00001
00100
00010
00000
00100
00010
01000
00000
00100
00000
00000
00100
01000
00000
,
01100
00000
01010
00000
00110
00000
00020
00000
00200
00330
00010
01000
00100
00000
01000
00000
,
00001
00000
00010
00001
00100
00000
00010
00100
00000
00000
00000
00000
00100
10000
00100
00010
,
00000
00000
00100
01000
00100
00000
01000
00100
00000
00000
00000
00000
00100
00001
10000
00000
,
10100
00000
00010
01000
00100
00000
00100
00000
01100
00000
00100
10000
00001
00000
10000
00010
,
01000
00000
00010
00000
00110
00000
00010
00100
00010
00100
00010
00100
00002
00000
00000
00103
,
00000
00001
00000
00000
00000
00000
00001
10000
00010
01000
00100
01000
10000
00000
00000
01000
,
00000
10000
00000
00000
00000
01000
00010
01000
00010
00000
01010
00000
00110
00000
00010
00100
,
00001
00000
10000
00000
00010
00000
00100
00010
01000
00000
00100
00000
01000
00000
00010
10000
,
00001
00000
00000
10000
00000
00001
00000
00000
00000
00000
00001
10000
00010
00000
00000
00010
,
00000
01000
00000
00000
00000
00000
00010
10000
00100
00000
01000
00100
01000
00000
00000
00000
,
00100
00000
01000
00000
00000
00000
00100
10000
00001
00000
01000
00010
10000
00000
00000
00000
,
00100
00000
10000
00000
00000
00000
00100
10000
00001
00000
00010
00001
00010
00000
00000
00000
,
00001
10000
00000
20000
00002
30003
00000
00000
;

//---------------dance-single - Highflyer----------------
#NOTES:
     dance-single:
     Highflyer:
     Challenge:
     11:
     0.797,0.732,0.602,0.044,0.911: // measure 1
0000
0000
0000
1000
,  // measure 2
0010
0100
0001
0000
,  // measure 3
1100
0000
1010
0010
,  // measure 4
0100
0001
2000
3000
,  // measure 5
0100
0000
0000
0000
0010
0000
0001
0100
0001
0000
1000
0000
1010
0000
1000
0000
,  // measure 6
0001
0000
0000
0000
0001
0010
0100
0000
2000
0000
3010
0000
0000
0000
0010
0100
,  // measure 7
0001
0000
0010
0000
0100
0000
0000
0000
1000
0000
0100
0010
0000
0000
0001
0000
,  // measure 8
0100
0000
0010
0000
1000
0100
0010
0000
0001
0000
1100
0000
0000
0000
0010
0000
,  // measure 9
0101
0000
0000
0001
0100
0000
1010
0000
0000
0000
1000
0000
0011
0000
0000
0001
,  // measure 10
0100
0110
0000
0010
1100
0010
0101
0010
,  // measure 11
1001
0000
0000
1000
0100
0000
0011
0000
0000
0000
0000
0000
0001
0000
1000
0010
,  // measure 12
0000
0100
0001
0010
0100
0000
1000
0001
0100
0000
0010
0100
0001
0000
0010
0100
,  // measure 13
0000
1000
0001
0100
0010
0000
0100
0010
0000
0000
0000
0000
0010
1000
0001
0000
,  // measure 14
0010
0100
1000
0001
0100
0000
0010
0100
0001
0000
1000
0100
1000
0000
0000
0000
,  // measure 15
0000
0000
0000
0001
0100
0000
0001
1000
0010
0000
0100
0001
1000
0000
0000
0000
,  // measure 16
0000
0000
0001
0100
0001
0000
1000
0100
1000
0000
0010
0100
0010
0000
0100
0001
,  // measure 17
0010
0000
0100
0000
1010
0000
0000
0101
0000
0000
0000
0000
1100
0000
0100
0000
,  // measure 18
0010
0001
0100
0010
1000
0000
0000
1001
0000
0000
0000
0000
0101
0000
0000
1010
,  // measure 19
0000
0000
0000
1000
0100
0010
0001
0000
1000
0000
0010
0000
0110
0000
0000
1001
,  // measure 20
0000
0000
0000
0000
1000
0010
0100
0000
0001
0000
0010
0100
1000
0000
0000
0101
,  // measure 21
0000
0000
0000
0000
1000
0010
0100
0000
0001
0000
0010
0001
0100
0000
0000
1010
,  // measure 22
0000
0000
0000
0000
1000
0000
0100
0010
0000
0000
0000
0000
0011
0000
0000
0101
,  // measure 23
0000
0001
0000
0100
0000
0010
0000
1000
0000
0000
0000
0100
1000
0000
0010
0100
,  // measure 24
0001
0010
0100
0000
0000
0000
0100
1000
0001
0000
1000
0000
0100
0000
0010
0001
,  // measure 25
0100
0000
0010
0000
1010
0000
0000
0101
0000
0000
0000
0000
0001
0000
1000
0010
,  // measure 26
0100
0000
0010
0100
0001
0000
0000
0011
0000
0001
0010
0000
0100
1000
0001
0000
,  // measure 27
0100
0010
1000
0100
0000
0000
0000
0000
0000
1000
0100
0010
0001
0000
1000
0010
,  // measure 28
0000
0000
0110
0000
0010
0100
0001
0010
0000
0000
0010
0100
1000
0000
0001
0100
,  // measure 29
0010
0000
1000
0100
0010
0000
0000
0101
0000
0000
0000
0000
1100
0000
1000
0001
,  // measure 30
0100
0010
1000
0000
0001
0000
0000
0100
0000
0000
0010
0100
0001
0010
0100
1000
,  // measure 31
0000
0001
0100
0000
0110
0000
0000
1001
0000
0000
1000
0100
1000
0000
0000
0000
,  // measure 32
1010
0000
0000
0000
0110
0000
0010
0100
0001
0000
1000
0100
1000
0000
0010
0000
,  // measure 33
0101
0000
0010
0000
1100
0000
0000
0110
0000
0000
0001
0000
1100
0000
0000
1010
,  // measure 34
0000
0000
0000
0000
0101
0000
0001
1000
0000
0000
0000
1000
0001
0000
1000
0000
,  // measure 35
0010
0000
0100
0000
0000
0001
0000
1000
0000
0000
0000
0000
1100
0000
0010
0000
,  // measure 36
0101
0000
0001
0100
0010
1000
0000
0100
0010
0000
0001
0000
1100
0000
0010
0000
,  // measure 37
0101
0000
0001
0100
0010
0000
0000
1010
0000
0000
0000
0000
0000
0000
0110
0000
,  // measure 38
1001
0000
1000
0100
0010
0001
0010
0100
1000
0000
0010
1000
0010
0000
0100
0010
,  // measure 39
1000
0100
0000
0010
0001
1000
0010
0000
1001
0000
1000
0100
0010
0000
0001
0100
,  // measure 40
0000
0000
0001
0100
0010
1000
0001
0100
0010
0000
1000
0100
1000
0100
1000
0100
,  // measure 41
0000
0010
0001
0100
0010
1000
0100
0000
1001
0000
0000
0000
0000
0000
0101
0000
,  // measure 42
1100
0000
1000
0010
0100
0010
1000
0100
0010
0000
0001
0100
0001
0000
1000
0100
,  // measure 43
0010
0001
0000
1000
0100
0010
0001
0000
1010
0000
0100
0001
0010
0000
0100
1000
,  // measure 44
0000
0000
0001
0100
0010
1000
0100
0010
0001
0000
1000
0100
0010
0100
0010
0001
,  // measure 45
0000
1000
0010
0100
0001
0010
0100
0000
1001
0000
0000
0001
0010
0100
0010
0001
,  // measure 46
0000
1000
0010
0000
0100
0010
1000
0001
0000
0000
0000
0001
1000
0010
0100
0000
,  // measure 47
0010
0100
0001
0000
0010
0100
1000
0001
0000
0000
0000
0001
0100
0010
1000
0000
,  // measure 48
0101
0000
0001
0100
0010
1000
0100
0010
0000
0000
0000
0010
0001
0100
0001
0100
,  // measure 49
0000
0010
1000
0000
0001
0100
0001
0100
0000
0000
0000
0000
0000
0000
0110
0000
,  // measure 50
1001
0000
1000
0100
1000
0000
0001
0100
0000
0000
0100
0010
1000
0000
0100
0010
,  // measure 51
0000
0000
0001
0100
0001
0000
1000
0100
0000
0010
0001
0100
0010
0000
1000
0100
,  // measure 52
0000
0010
0001
0100
0010
0000
1000
0010
1000
0000
0001
0100
0001
0000
0010
0100
,  // measure 53
0000
0000
1000
0010
1000
0000
0100
0010
0000
0000
0000
0000
0001
0010
0100
1000
,  // measure 54
0001
0000
0100
0010
1000
0000
0001
0100
0000
0000
0000
0001
0100
0000
0010
1000
,  // measure 55
0001
0000
0010
0100
1000
0000
0001
0100
0000
0000
0010
0100
0001
0000
0010
1100
,  // measure 56
0000
0000
0000
0000
1001
0000
0110
0000
0001
1000
0010
0100
0000
0001
0100
0000
,  // measure 57
0010
1000
0100
0000
0010
0000
0001
1000
0000
0000
0000
0000
1100
0000
0100
0010
,  // measure 58
0000
0001
0100
0000
1010
0000
1000
0100
0000
0000
0100
0010
0001
0000
1000
0001
,  // measure 59
0000
0000
0000
0000
0101
0000
1010
0000
0101
0000
1100
0000
0011
0000
0010
0001
,  // measure 60
0000
0000
0000
0000
1000
0100
1000
0000
0101
0000
0001
0100
0001
0000
1100
0000
,  // measure 61
1000
0010
1000
0010
1000
0000
0001
0100
0000
0000
0000
0000
0000
0001
0100
0001
,  // measure 62
0100
0000
0110
0000
1001
0000
1000
0100
1000
0000
0101
0000
1100
0000
1000
0010
,  // measure 63
1000
0000
0101
0000
0011
0000
0000
0000
0000
0000
0001
0010
0100
0000
1000
0100
,  // measure 64
0010
0000
0001
0100
0001
0000
1000
0100
1000
0000
0010
0000
0000
0000
0110
0000
,  // measure 65
1001
0000
1100
0000
0101
0000
0002
0000
2000
0003
3001
0100
0010
0000
1000
0000
,  // measure 66
0100
0000
0010
0001
1000
0000
0010
0100
0000
0000
0000
0000
0001
0100
0010
1000
,  // measure 67
0000
0000
1000
0100
0010
0001
1000
0001
0000
0000
0000
0000
0001
1000
0100
0000
,  // measure 68
0011
0000
1000
0100
1000
0000
0010
0100
0000
0000
0001
0100
0001
0000
1000
0100
,  // measure 69
1000
0000
0010
0000
0100
0000
0001
1000
0001
1000
0001
1000
0001
0000
0000
0010
,  // measure 70
0000
0100
0000
0000
0000
0000
1000
0100
1000
0010
1000
0100
0010
0000
0000
0001
,  // measure 71
0000
0100
0000
0000
0000
0010
0100
0001
1000
0000
0001
0000
1100
0000
0100
0010
,  // measure 72
0001
0000
0100
0000
1001
0000
1000
0100
0010
0000
0001
0000
1010
0000
0010
0100
,  // measure 73
0001
0000
0000
1000
0000
0010
0000
0000
0000
0000
0010
0100
0001
0000
0000
1000
,  // measure 74
0000
0100
0000
0000
0000
0000
0100
0010
0001
0000
1000
0100
0010
0000
0000
0001
,  // measure 75
0000
1000
0000
0000
0000
0000
0010
0100
0001
0000
1000
0010
0100
0000
0000
0010
,  // measure 76
0000
0100
0000
0000
0000
0000
0010
0100
0001
0000
1000
0100
0010
0000
0000
0001
,  // measure 77
0000
1000
0000
0000
0000
0000
0002
0000
2000
0000
3003
0000
0000
0000
0000
0000
;
