#TITLE:Flowers;
#SUBTITLE:;
#ARTIST:MYLK and Geek Boy;
#TITLETRANSLIT:;
#SUBTITLETRANSLIT:;
#ARTISTTRANSLIT:;
#CREDIT:;
#BANNER:;
#BACKGROUND:;
#LYRICSPATH:;
#CDTITLE:;
#MUSIC:Flowers.ogg;
#OFFSET:0.482;
#SAMPLESTART:68.640;
#SAMPLELENGTH:14.960;
#SELECTABLE:YES;
#DISPLAYBPM:128.000;
#BPMS:0.000=128.000;
#STOPS:;
#BGCHANGES:;

//---------------dance-single - Highflyer----------------
#NOTES:
     dance-single:
     Highflyer:
     Challenge:
     9:
     0.621,0.725,0.335,0.399,0.447: // measure 1
0000
0000
0000
1001
,  // measure 2
0000
0000
0000
0000
0000
0000
0101
0000
0000
0000
1010
0000
0000
0000
0000
1000
,  // measure 3
0100
0010
0000
0000
0110
0000
1001
0000
,  // measure 4
0000
0000
0000
0000
0000
0000
1100
0000
0000
0000
0011
0000
0000
0000
0000
0010
,  // measure 5
0001
1000
0110
0000
1000
0010
1000
0000
,  // measure 6
0010
0000
0000
0000
1000
0000
0000
0100
0000
0000
1000
0000
0001
0000
0000
0000
,  // measure 7
0100
0000
0000
0000
0010
0000
0000
0010
0000
0000
0010
0000
1000
0000
0000
0000
,  // measure 8
0100
0000
0000
0000
0010
0000
0000
0001
0000
0000
1000
0000
0001
0000
0010
0100
,  // measure 9
0010
0001
2000
0002
3003
0000
0001
0000
,  // measure 10
0100
0000
0000
0000
0010
0000
0000
0010
0000
0000
0010
0000
1000
0000
0000
0000
,  // measure 11
0100
0000
0000
0000
0010
0000
0000
0010
0000
0000
0010
0000
0001
0000
0000
0000
,  // measure 12
0100
0000
0000
0000
0010
0000
0000
0010
0000
0000
0010
0000
1000
0000
0100
0010
,  // measure 13
0001
1000
0020
0230
0301
0000
0001
0000
,  // measure 14
1000
0000
0000
0000
0100
0000
0000
0100
0000
0000
0100
0000
1000
0000
0000
0000
,  // measure 15
0010
0000
0000
0000
0100
0000
0000
0100
0000
0000
0100
0000
0001
0000
0000
0000
,  // measure 16
0010
0000
0000
0000
0100
0000
0000
1000
0000
0000
0010
0000
0000
0000
0010
0000
,  // measure 17
0100
0001
0000
0000
0000
0000
0001
0100
,  // measure 18
0010
0000
1000
0010
0000
0010
1000
0000
0010
0000
1000
0000
0100
0000
1000
0000
,  // measure 19
0001
0000
0100
0001
0000
0100
0001
0000
1000
0000
1000
0000
0010
0000
1000
0000
,  // measure 20
0100
0000
1000
0001
0000
0100
0001
0000
1000
0000
0010
0000
1000
0000
0100
0010
,  // measure 21
0000
0001
0010
0001
1000
1000
0001
1000
,  // measure 22
0010
0000
0100
0001
0000
0100
0001
0000
1000
0000
0010
0000
1000
0000
0100
0000
,  // measure 23
0010
0000
0001
0010
0000
0001
1000
0000
0100
0000
1000
0000
0010
0000
0100
0000
,  // measure 24
0001
0000
1000
0001
0000
1000
0001
0000
0001
0000
1000
0100
1000
0000
0010
0000
,  // measure 25
0200
0020
0330
0000
0110
0000
0001
1000
,  // measure 26
0100
0000
1000
0000
0002
0000
0203
0000
0310
0000
0010
0000
0000
0000
0010
1000
,  // measure 27
0100
1000
0002
0203
0300
0000
0000
0001
,  // measure 28
1000
0010
0100
0001
0000
0001
1000
0010
,  // measure 29
1000
0000
0100
0000
0010
0000
0000
0001
0010
0000
0000
0000
0000
0000
0001
0000
,  // measure 30
1000
0000
0100
0000
2000
0000
3020
0000
0030
0000
0010
0000
0000
0000
0010
0100
,  // measure 31
0001
0000
1000
0000
0100
0000
0000
0100
1000
0000
0000
0000
0000
0000
0100
0000
,  // measure 32
1000
0010
0200
0302
1003
0001
0000
1000
,  // measure 33
0100
0000
1000
0000
0010
0000
0000
0000
0010
0000
0000
0010
0100
0000
0001
0000
,  // measure 34
1000
0000
0100
1000
0000
0100
1000
0000
0001
0000
0100
0000
0010
0000
1000
0000
,  // measure 35
0001
0000
0010
0001
0000
0010
0001
0000
1000
0000
1000
0000
0100
0000
1000
0000
,  // measure 36
0010
0000
0100
0001
0000
1000
0001
0000
1000
0000
0010
0000
1000
0000
0100
0010
,  // measure 37
0000
0001
1000
0001
1000
1000
0001
0100
,  // measure 38
0010
0000
1000
0100
0000
1000
0001
0000
0100
0000
0010
0000
1000
0000
0001
0000
,  // measure 39
0010
0000
0001
0010
0000
0001
1000
0000
0200
0000
1300
0000
0010
0000
0100
0000
,  // measure 40
0001
0000
0100
0010
2000
0000
3200
0000
0320
0000
0032
0000
2003
0000
3002
0000
,  // measure 41
0003
0002
0000
0200
0000
0303
1001
0000
,  // measure 42
0000
0000
0000
0000
1100
0000
0000
1010
0000
0000
0001
0010
0001
1000
0001
0000
,  // measure 43
0100
0000
0010
0000
1010
0000
0000
1001
0000
0000
1100
0000
0110
0000
0020
0000
,  // measure 44
0032
0000
0103
0000
1001
0000
0000
0011
0000
0000
2001
0000
3200
0000
0310
0001
,  // measure 45
0100
0010
0100
0000
0010
0000
2000
0000
3002
0000
0203
0000
0310
0000
0000
0000
,  // measure 46
0000
0000
0010
1001
0100
1001
0000
1000
,  // measure 47
0110
0000
0000
0000
0001
0000
0000
0000
2000
0000
3100
0010
0002
0000
0000
0000
,  // measure 48
0003
1000
0001
0110
0000
1001
0000
0010
,  // measure 49
0011
0010
0100
1000
0000
0000
0000
0000
0000
2020
0000
0000
,  // measure 50
0000
0000
0000
3000
1030
0000
0101
0000
0000
0000
0101
0000
0000
0000
0010
0000
,  // measure 51
1001
0000
0000
0000
0100
0000
0010
1000
0001
0000
0000
0000
0022
0000
0000
0000
,  // measure 52
0000
0000
0000
0030
0013
0000
1001
0000
0000
0000
1001
0000
0000
0000
0001
0000
,  // measure 53
0100
0010
0100
0000
0010
0000
1000
0000
0002
0000
2003
0000
3200
0000
0000
0000
,  // measure 54
0000
0000
0310
1001
0000
1001
0000
0010
,  // measure 55
0101
0000
0001
0000
0100
0000
M01M
0000
1MM1
0000
0001
0100
0020
0000
0000
0000
,  // measure 56
0030
0100
0000
1010
0000
1001
0000
0001
,  // measure 57
1010
0000
1000
0000
0100
0000
0020
0000
0000
0032
0000
0000
0203
0000
0000
0320
0000
0000
1030
0000
0000
0001
0000
0000
,  // measure 58
0100
0000
0010
1000
0100
0000
1000
0000
0001
0000
0100
0001
1000
0000
0001
0000
,  // measure 59
1000
0000
0010
0000
0110
0000
0001
1000
0001
0000
0000
0000
0001
0000
1000
0000
,  // measure 60
0010
0000
0100
0001
1000
0000
0001
0000
1000
0000
0100
0000
0010
0000
0001
0000
,  // measure 61
1000
0000
0010
0100
0010
0000
1000
0000
0001
0000
0020
0000
0000
0000
0000
0000
,  // measure 62
0001
0000
0030
0001
1000
0010
0100
0001
,  // measure 63
1000
1001
0000
1000
0001
2000
0000
0010
,  // measure 64
0010
0000
3000
0100
1000
0001
0100
0010
,  // measure 65
1000
0100
0000
0100
1000
0000
0001
1000
,  // measure 66
0010
0000
0100
0001
0100
0000
0001
0000
0010
0100
1000
0000
0100
0000
1000
0000
,  // measure 67
0010
0000
0100
0000
0010
0000
1000
0010
0000
1000
0010
0000
0100
0000
0001
0000
,  // measure 68
0010
0000
0001
1000
0100
0000
1000
0000
0010
0000
0100
0000
0001
0000
0010
0000
,  // measure 69
0001
0000
0020
0000
0000
0000
0000
0030
0001
0000
2000
0000
0200
0000
0000
0000
,  // measure 70
0000
0000
0000
0000
3300
0000
0000
0000
1000
0000
0010
0000
1000
0000
0000
0001
,  // measure 71
0000
0100
0000
0010
1000
0002
0000
0000
,  // measure 72
2000
0000
0000
0000
0003
3000
0001
0000
1000
0000
0010
0000
0100
0000
0001
0000
,  // measure 73
1000
0010
0000
0010
1000
0000
0001
1000
,  // measure 74
1000
0000
0001
0001
0000
0200
0000
0000
,  // measure 75
0000
0000
0301
0000
0001
1000
0000
0000
,  // measure 76
0100
2000
0000
0000
3000
0010
1000
0001
,  // measure 77
1000
0000
0001
0000
1001
0000
0000
1010
0000
0000
0220
0330
0001
0000
1000
0100
,  // measure 78
0010
0000
0000
0001
0000
0000
0000
0000
0000
0000
0000
0000
1001
0000
0000
0000
0000
0000
0001
0000
0000
0100
0000
0000
0010
0000
0000
0000
1000
0000
0000
0000
0001
0000
0000
0000
0011
0000
0000
0000
0000
0000
0001
0000
0000
0100
0000
0000
,  // measure 79
0010
0000
0000
0100
0000
0000
0000
0000
0000
0000
0000
0000
0001
0000
0000
0100
0000
0000
0010
0000
0000
0000
0000
0000
1001
0000
0000
0000
0100
0000
0000
0000
0010
0000
0000
0000
0110
0000
0000
0000
0000
0000
0001
0000
0000
0100
0000
0000
,  // measure 80
0010
0000
0000
0000
1000
0000
0000
0000
0100
0000
0000
0000
1001
0000
0000
0000
0000
0000
0001
0000
0000
0010
0000
0000
0100
0000
0000
0000
1000
0000
0000
0000
0001
0000
0000
0000
0010
0000
0000
0100
0000
0000
1000
0000
0000
0001
0000
0000
,  // measure 81
0010
0000
0000
0100
0000
0000
1000
0000
0000
0001
0000
0000
0010
0000
0000
0000
0000
0000
1001
0000
0000
0000
0000
0000
0001
0000
0000
0000
0010
0000
0000
0000
0100
0000
0000
0000
1000
0000
0000
0000
0000
0000
0001
0000
0000
0100
0000
0000
,  // measure 82
0001
0000
0000
0010
0000
0000
0000
0000
0000
0000
0000
0000
0110
0000
0000
0000
0000
0000
0010
0000
0000
0001
0000
0000
0100
0000
0000
0000
0010
0000
0000
0000
0100
0000
0000
0000
0010
0000
0000
1000
0000
0000
0100
0000
0000
0010
0000
0000
,  // measure 83
0001
0000
0000
0100
0000
0000
0010
0000
0000
1000
0000
0000
0100
0000
0000
0000
0010
0000
0000
0000
0001
0000
0000
0000
0100
0000
0000
0010
0000
0000
1000
0000
0000
0100
0000
0000
0010
0000
0000
0000
0000
0000
0001
0000
0000
0010
0000
0000
,  // measure 84
0001
0000
0000
0000
1000
0000
0000
0000
0001
0000
0000
0000
1000
0000
0000
0000
0000
0000
0001
0000
0000
0100
0000
0000
0010
0000
0000
0000
0100
0000
0000
0000
0010
0000
0000
0000
0100
0000
0000
0010
0000
0000
1000
0000
0000
0100
0000
0000
,  // measure 85
0010
0000
0000
0001
0000
0000
1000
0000
0000
0100
0000
0000
0010
0000
0000
0001
0000
0000
1000
0000
0000
0001
0000
0000
1000
0000
0000
0000
0100
0000
0000
0000
0010
0000
0000
0000
0001
0000
0000
0010
0000
0000
0000
0000
0000
0001
0000
0000
,  // measure 86
0100
0000
0010
0100
0001
0010
0100
1000
0001
0000
0000
0000
0010
0100
0000
0010
,  // measure 87
0001
0000
1000
0100
0010
0100
1000
0001
0100
0010
1000
0001
0100
0010
0000
0100
,  // measure 88
0000
0000
0010
0100
0001
0010
0100
1000
0001
0100
0001
0010
0100
1000
0001
0100
,  // measure 89
0000
0000
0010
0100
0001
1000
0001
0010
0100
1000
0001
0100
0010
0100
0000
0010
,  // measure 90
0100
0000
0010
0100
0001
0010
0100
1000
0001
0000
0000
0000
0001
0100
0000
0001
,  // measure 91
0100
0000
0010
0100
0001
0010
0100
1000
0001
0010
0001
0100
0001
1000
0000
0001
,  // measure 92
0000
0000
0001
0100
0010
1000
0001
0010
0100
1000
0100
1000
0100
0010
0100
0010
,  // measure 93
0000
0000
0001
0100
0010
0100
0001
0010
0100
1000
0001
1000
0001
0000
1000
0000
,  // measure 94
0100
0000
0010
0001
1000
0000
0001
0000
1000
0000
1000
0010
0100
0000
0010
0000
,  // measure 95
1000
0001
0010
0001
1000
0200
0000
1300
,  // measure 96
1000
0000
0010
0100
0001
0000
0010
0000
0001
0000
1000
0000
0010
0000
1000
0000
,  // measure 97
0010
0200
0000
0300
0020
0000
0030
1000
,  // measure 98
0000
0000
0000
1000
0001
1000
0100
0010
,  // measure 99
0001
1000
0010
1000
0010
2000
0000
3001
,  // measure 100
1000
0000
0000
0001
0010
0001
0100
0010
,  // measure 101
1000
1001
0000
0001
0100
0010
1000
0100
,  // measure 102
0010
0001
0100
0001
0000
0200
0000
0000
,  // measure 103
0000
0000
0310
0000
1000
0100
0000
0000
,  // measure 104
0010
0001
0000
0000
0000
0001
1000
0010
,  // measure 105
0100
0000
0001
0000
1000
0000
0000
0001
0000
0000
1000
0000
0010
0000
0000
0000
,  // measure 106
0000
0000
0000
0000
1001
0000
0000
1010
0000
0000
1100
0000
0000
0011
0000
0000
,  // measure 107
0102
0000
2003
0000
3020
0000
0030
0000
0200
0300
0000
0000
1001
0000
0001
0000
,  // measure 108
0001
0000
0001
0000
0011
0000
0000
1001
0000
0000
1100
0000
0001
0000
0010
0000
,  // measure 109
0100
0000
0010
0000
0100
0000
0000
0000
0100
0010
0000
0010
0100
0000
0020
0030
,  // measure 110
0002
0003
2000
3000
0020
0030
0000
1001
0000
0000
0011
0000
0000
1100
0000
0000
,  // measure 111
2020
0000
0000
0000
0000
0000
0030
0000
3010
0000
0000
0000
0000
0000
0000
0000
1000
0001
0000
0000
0100
0010
0000
0000
2002
0000
0000
0000
0000
0000
0000
0000
,  // measure 112
3003
0010
1000
0110
0000
1001
0000
0001
,  // measure 113
0011
0010
0100
1000
0000
0000
0000
0000
0000
2002
0000
0000
,  // measure 114
0000
3003
0110
0010
0000
1000
0000
0100
,  // measure 115
1001
0000
2000
0000
3200
0000
0320
0000
0032
0000
2003
3000
0202
0000
0000
0000
,  // measure 116
0000
0300
0203
0300
0000
0000
0101
0000
0000
0000
1001
0000
0000
0000
1000
0000
,  // measure 117
0001
0100
0001
0000
1000
0000
0100
0000
0020
0000
0230
0300
2002
0000
0000
0000
,  // measure 118
0000
0000
0000
3003
0000
0000
2001
0000
0000
0000
0200
0000
3300
0000
0100
0000
,  // measure 119
0022
0000
0033
0000
1100
0000
0010
0001
0100
0000
1001
0000
0110
0000
0000
0000
,  // measure 120
0001
1010
0000
0110
0000
0022
0000
0000
,  // measure 121
0000
0000
0000
0000
0033
0000
0000
1000
,  // measure 122
0100
0000
0010
0000
0002
0000
0203
0000
0300
0000
0010
0000
0000
0000
0010
1000
,  // measure 123
0010
0000
0000
0000
0000
0000
0000
0000
0100
0000
0000
0000
0000
0000
0000
0000
0020
0000
0000
0000
0000
0000
0000
0000
0230
0000
0000
0000
0000
0000
0000
0000
0301
0000
0000
0000
0000
0000
0000
0000
0000
0000
0000
0000
0000
0000
0000
0000
0000
0000
0000
0000
0000
0000
0000
0001
0000
0000
0000
0000
0000
0000
0000
0010
,  // measure 124
0000
0000
0000
0000
0000
0000
0000
0100
0000
0000
0000
0000
0000
0000
0000
1000
0000
0000
0000
0000
0000
0000
0000
0001
0000
0000
0000
0000
0000
0000
0000
0000
0000
0000
0000
0000
0000
0000
0000
1000
0000
0000
0000
0000
0000
0000
0000
0010
0000
0000
0000
0000
0000
0000
0000
0100
0000
0000
0000
0000
0000
0000
0000
0010
,  // measure 125
0000
0000
0000
0000
0000
0000
0000
1000
0000
0000
0000
0000
0000
0000
0000
0200
0000
0000
0000
0000
0000
0000
0000
0000
0000
0000
0000
0000
0000
0000
0000
0310
0000
0000
0000
0000
0000
0000
0000
0000
0000
0000
0000
0000
0000
0000
0000
0000
0000
0000
0000
0000
0000
0000
0000
0001
0000
0000
0000
0000
0000
0000
0000
1000
,  // measure 126
0000
0000
0000
0000
0000
0000
0000
0010
0000
0000
0000
0000
0000
0000
0000
0100
0000
0000
0000
0000
0000
0000
0000
0001
0000
0000
0000
0000
0000
0000
0000
0000
0000
0000
0000
0000
0000
0000
0000
0001
0000
0000
0000
0000
0000
0000
0000
0000
0000
0000
0000
0000
0000
0000
0000
0001
0000
0000
0000
0000
0000
0000
0000
1000
,  // measure 127
0000
0000
0000
0000
0000
0000
0000
0010
0000
0000
0000
0000
0000
0000
0000
0200
0000
0000
0000
0000
0000
0000
0000
0000
0000
0000
0000
0000
0000
0000
0000
0000
0000
0000
0000
0000
0000
0000
0000
0000
0000
0000
0000
0000
0000
0000
0000
0300
0000
0000
0000
0000
0000
0000
0000
0010
0000
0000
0000
0000
0000
0000
0000
1000
,  // measure 128
0000
0000
0000
0000
0000
0000
0000
0100
0000
0000
0000
0000
0000
0000
0000
1000
0000
0000
0000
0000
0000
0000
0000
0001
0000
0000
0000
0000
0000
0000
0000
0000
0000
0000
0000
0000
0000
0000
0000
0001
0000
0000
0000
0000
0000
0000
0000
0000
0000
0000
0000
0000
0000
0000
0000
0001
0000
0000
0000
0000
0000
0000
0000
1000
,  // measure 129
0000
0000
0000
0000
0000
0000
0000
0010
0000
0000
0000
0000
0000
0000
0000
0100
0000
0000
0000
0000
0000
0000
0000
0000
0000
0000
0000
0000
0000
0000
0000
2000
0000
0000
0000
0000
0000
0000
0000
0000
0000
0000
0000
0000
0000
0000
0000
0002
0000
0000
0000
0000
0000
0000
0000
0000
0000
0000
0000
0000
0000
0000
0000
0000
,  // measure 130
0000
0000
0000
0000
0000
0000
0000
0000
0000
0000
0000
0000
0000
0000
0000
0000
0000
0000
0000
0000
0000
0000
0000
0000
0000
0000
0000
0000
0000
0000
0000
0000
0000
0000
0000
0000
0000
0000
0000
0000
0000
0000
0000
0000
0000
0000
0000
3003
0000
0000
0000
0000
0000
0000
0000
0000
0000
0000
0000
0000
0000
0000
0000
0000
;
