#TITLE:Eminem vs. Cranky;
#SUBTITLE:;
#ARTIST:Funtastic Power;
#TITLETRANSLIT:;
#SUBTITLETRANSLIT:;
#ARTISTTRANSLIT:;
#CREDIT:;
#BANNER:;
#BACKGROUND:;
#LYRICSPATH:;
#CDTITLE:;
#MUSIC:Eminem vs Cranky.ogg;
#OFFSET:1.293;
#SAMPLESTART:54.430;
#SAMPLELENGTH:11.980;
#SELECTABLE:YES;
#BPMS:0.000=160.000;
#STOPS:;
#BGCHANGES:;

//---------------dance-single - Highflyer----------------
#NOTES:
     dance-single:
     Highflyer:
     Challenge:
     13:
     1.000,1.000,0.725,0.040,1.000: // measure 1
0000
0000
0000
0000
,  // measure 2
1100
0000
0000
0000
0100
1000
0100
1000
0001
0000
0100
0000
0010
0000
0000
0000
,  // measure 3
1000
0000
0100
0000
0010
0000
0001
0000
0000
0000
0000
0000
0000
0000
0001
0100
,  // measure 4
0010
0100
0001
0100
0000
0010
0000
0010
0100
0010
0100
0010
0000
0010
0100
0001
,  // measure 5
0000
0000
1000
0000
0001
0000
1000
0000
0000
0000
0001
0000
1000
0000
0000
0000
1000
0000
0001
0000
1000
0000
0001
0000
0010
0000
0100
1000
0001
0000
0000
0000
,  // measure 6
0000
0000
1000
0000
0001
0000
1000
0000
0001
0000
0000
0000
0001
0000
1000
0000
0010
0000
1000
0000
0010
0000
1000
0000
0100
0000
0010
0001
0010
0000
0000
0000
,  // measure 7
0000
0010
0001
0100
0010
0100
0001
0000
0010
0001
0010
0001
0000
0100
0010
0100
,  // measure 8
0001
0000
1000
0100
1000
0001
1000
0010
0000
1000
0001
0000
0001
1000
0100
1000
,  // measure 9
0100
0000
1000
0001
0100
0001
0000
0100
0000
0010
0100
0000
0010
0100
0001
0100
,  // measure 10
0001
0100
0001
0000
1000
0000
0100
0000
1000
0000
0001
0000
0100
0000
0010
0000
1000
0010
0100
0000
0010
0000
0100
0000
0010
1000
0000
0000
0010
0000
0100
0000
,  // measure 11
0001
0000
0000
0000
1000
0000
0000
0000
0001
0000
0000
0000
0001
0000
0000
0000
1000
0000
0000
0000
0100
0000
0000
0000
1000
0000
0000
0000
0001
0000
0000
0000
1000
0000
0000
0000
0000
0000
0001
0000
0000
0000
0000
1000
0000
0000
0000
0000
0100
0000
0000
0000
0000
0000
0000
0000
2000
0000
0000
0000
0000
0000
0000
0000
,  // measure 12
3000
1000
0100
0010
0000
0001
0000
0001
1000
0000
0100
0010
0000
0001
1000
0010
,  // measure 13
0100
0000
0010
0100
0010
0100
0000
0010
0100
0000
0001
0010
0000
0010
0000
0000
,  // measure 14
0001
0000
1000
0000
0100
1000
0100
0000
0010
0000
0001
0000
0010
0000
0100
0000
1000
0000
0000
0000
1000
0000
0001
0000
0000
0000
0001
0000
0010
0000
0100
0000
,  // measure 15
1000
0000
0000
0000
0001
0000
0010
0001
1000
0000
0100
0000
0000
0000
0100
0000
0010
0000
0001
0000
1000
0000
0100
0000
0000
0000
0100
0000
1000
0000
0100
0000
,  // measure 16
0010
0000
1001
0000
1001
0000
1000
0000
1001
0000
1000
0100
0000
0100
0010
0000
,  // measure 17
0110
0000
0110
0000
0110
0000
0001
0000
1000
0000
0001
1000
0000
0000
0000
1000
,  // measure 18
0001
1000
0010
1000
0001
0000
1000
0000
0100
0000
0010
0001
0000
0000
0010
0001
,  // measure 19
0100
0000
0001
0000
1000
0000
0100
0000
0100
0010
0000
0110
0000
0000
1001
0000
,  // measure 20
0000
0000
1000
0100
0000
0010
0000
0000
0100
0010
0100
0010
0000
0000
1001
0000
,  // measure 21
1001
0000
1000
0100
1000
0100
0000
0010
0001
0010
0001
0010
0000
0010
0001
0000
,  // measure 22
0001
1000
0000
1000
0100
0000
0010
0001
0010
0100
1000
0100
0010
0001
1000
0000
,  // measure 23
1000
0100
0010
0001
1000
0000
0110
0000
1001
0000
1000
0100
1000
0010
1000
0000
,  // measure 24
1000
0000
0100
0000
0010
0000
0001
0000
1000
0000
0100
0010
0000
0000
0001
0000
,  // measure 25
1000
0010
0100
0001
0000
0000
1001
0000
0001
0000
0100
0010
0000
0000
1000
0100
,  // measure 26
0010
0001
1000
0100
0000
0000
0101
0000
0100
0010
0000
0100
0000
0000
0100
0010
,  // measure 27
1000
0000
0011
0000
1100
0000
0011
0000
1000
0100
0000
0110
0000
0100
1000
0000
,  // measure 28
1001
0000
1001
0000
1100
0000
0011
0000
1010
0000
0100
0010
0000
0000
1001
0000
,  // measure 29
0100
0010
0100
0010
0000
0000
1001
0000
1100
0000
0001
1000
0000
0000
1000
0100
,  // measure 30
0010
0100
1000
0001
0000
0000
1001
0000
1000
0100
0000
0011
0000
0000
1000
0100
,  // measure 31
0010
0000
1001
0000
1100
0000
0011
0000
1000
0100
0000
0010
0000
0000
0001
1000
,  // measure 32
0100
0000
0011
0000
0000
0000
1000
0000
0100
0010
0001
0100
0000
0110
0000
0010
,  // measure 33
1000
0100
0000
0010
0001
0000
0100
0000
0010
0100
0010
0100
0000
0001
0000
0000
,  // measure 34
0000
1000
0001
0000
0001
0010
0001
0000
1000
0100
1000
0010
0000
0110
0000
0010
,  // measure 35
1000
0100
0010
0001
1000
0000
0100
1000
0100
0010
0001
1000
0000
2002
0000
3003
,  // measure 36
0000
0001
0100
0010
1000
0000
0001
0000
1000
0100
0010
0001
0000
1100
0000
0100
,  // measure 37
1000
0100
0010
0001
1000
0000
0010
0000
1000
0100
1000
0001
0000
0001
0000
1000
,  // measure 38
0100
0010
0000
0000
0001
1000
0100
0010
0001
0010
0100
1000
0000
0100
1000
0100
,  // measure 39
0000
1000
0010
1000
0100
0010
0001
0010
0100
1000
0010
0100
0001
1000
0100
0010
,  // measure 40
0001
0100
0010
1000
0100
0010
0001
0100
0010
1000
0100
1000
0001
0010
0001
0010
,  // measure 41
0001
1000
0100
1000
0100
0010
0001
0010
0100
0010
0001
1000
0100
0010
0100
0000
,  // measure 42
0000
1000
0001
0000
0010
0000
0001
0010
0001
1000
0001
0100
0001
0010
0001
1000
,  // measure 43
0000
0000
1000
0100
0010
0001
0100
0010
1000
0001
1000
0100
0010
0001
1000
0001
,  // measure 44
1000
0100
0010
0001
0000
0001
1000
0100
0010
0000
0001
0010
0100
1000
0000
1000
,  // measure 45
0001
1000
0100
1000
0001
0000
1001
0000
1000
0100
1000
0100
1000
0010
1000
0010
,  // measure 46
1000
0000
1001
0000
0000
0001
1000
0000
0100
0000
0010
0001
0000
1001
0000
1000
,  // measure 47
0001
0000
0010
0000
0001
0010
0001
0000
0010
0000
0010
0001
0000
1001
0000
0000
,  // measure 48
0000
0000
1000
0000
0100
0000
0000
1000
0100
0000
0010
0001
1000
0000
1000
0100
,  // measure 49
0010
0000
0001
0000
1000
0100
0010
0001
1000
0000
0100
1000
0000
0000
0000
0100
,  // measure 50
1000
0000
0010
0000
0000
1000
0100
0000
0010
0000
0001
2000
0000
3000
1000
0100
,  // measure 51
1000
0000
0100
0010
0100
0000
0001
0010
0001
0000
1000
0001
0000
0000
1001
0000
,  // measure 52
1100
0000
1001
0000
0011
0000
1010
0000
0110
0000
0001
1000
0000
0000
1000
0000
,  // measure 53
0100
0010
0100
0010
0000
0000
1001
0000
1100
0000
0100
0010
0000
0000
0001
1000
,  // measure 54
0100
0010
0001
1000
0000
0000
1000
0000
0010
0100
0000
1001
0000
0000
1000
0100
,  // measure 55
0010
0000
1100
0000
0011
0000
0110
0000
1000
0100
0000
0110
0000
1000
0001
0000
,  // measure 56
1000
0000
0010
0000
1000
0000
0010
0000
0100
0000
0001
0100
0000
0000
0010
0000
,  // measure 57
0100
0001
0100
0010
0000
0000
0100
0000
0001
0000
0100
0010
0000
0000
0100
0001
,  // measure 58
1000
0100
1000
0001
0000
0000
0100
0000
0001
0100
0000
0010
0000
0000
0100
0001
,  // measure 59
0100
0000
0010
0000
0100
0000
0001
0000
0100
0010
0000
0100
0000
0001
0100
0000
,  // measure 60
0001
1000
0100
0000
1000
0000
0001
1000
0010
0000
1000
0001
0000
0001
0000
0000
,  // measure 61
0100
0010
0100
0010
0100
0000
0100
0001
0010
0000
0010
0001
0000
0100
0000
0001
,  // measure 62
0000
0100
0010
0000
0100
0000
0001
0100
0010
0000
1000
0100
0000
1000
0000
0000
,  // measure 63
0001
0000
0001
1000
0001
0100
0001
0000
1000
0000
0001
1000
0000
0010
0000
1000
,  // measure 64
0010
0000
0100
0000
0001
0100
0001
0000
1000
0000
0001
1000
0000
1000
0000
0000
,  // measure 65
0001
0100
0010
0000
1000
0001
0000
0001
0000
0100
0010
0000
0100
0000
0010
0000
,  // measure 66
0000
0010
0100
0000
0001
0000
0010
0100
0010
0001
0000
1000
0000
0010
0000
0100
,  // measure 67
0001
0000
1000
0000
0100
0000
1000
0100
1000
0010
1000
0001
0000
1000
0000
0010
,  // measure 68
1000
0001
1000
0000
0001
0000
0100
0000
0100
0010
0100
0001
0000
0100
0010
1000
,  // measure 69
0001
0000
0001
1000
0010
0000
1000
0000
0010
1000
0001
0100
0000
0010
0000
0100
,  // measure 70
0001
0000
0100
0000
0000
0100
0010
0000
0100
0010
0100
0001
0000
0100
0010
0100
,  // measure 71
0001
0000
1000
0000
0001
1000
0100
0000
1000
0001
0100
0010
0000
0100
0000
0000
,  // measure 72
0000
0100
0001
0000
0100
0000
0010
0101
0000
1010
0000
1100
0000
0000
0001
1000
,  // measure 73
0100
1000
0001
0100
0010
0000
0100
0011
0000
1100
0000
0110
0000
0000
0000
0001
,  // measure 74
0100
0000
0010
0000
0100
0000
0001
1010
0000
0101
0000
1001
0000
0000
0000
0001
,  // measure 75
0100
0000
0100
0000
0010
0000
0010
1100
0000
0011
0000
0101
0000
0000
0001
0100
,  // measure 76
0010
0000
0100
0010
0000
0100
0000
0010
0100
0000
0010
0100
0000
0001
0000
0100
,  // measure 77
0001
0000
0100
0001
0000
0100
0000
0001
1000
0000
0100
1000
0000
1000
0000
1000
,  // measure 78
0001
0000
0001
0000
1000
0000
1000
0000
0100
0010
0000
0001
0000
0100
0000
0001
,  // measure 79
0100
0000
0010
0000
0100
0000
0001
0000
0100
0010
0000
0100
0000
0001
0000
0000
,  // measure 80
1001
0000
0000
0000
0001
0100
0010
0000
0100
0000
0100
0010
0000
0000
0100
0010
,  // measure 81
0100
0001
0100
0010
1000
0000
0001
0000
1000
0000
1000
0001
0000
0000
0100
0010
,  // measure 82
0100
0001
1000
0000
1000
0001
0100
0000
0001
0000
0001
1000
0000
0000
0001
1000
,  // measure 83
0100
1000
0001
0100
0010
0100
0001
1000
0100
1000
0001
0100
0010
0000
0110
0000
,  // measure 84
1100
0000
0011
0000
0110
0000
1001
0000
0101
0000
0010
1000
0000
0000
0001
0000
,  // measure 85
1000
0100
1000
0001
0100
0000
0010
0000
0110
0000
0001
1000
0000
0000
0100
1000
,  // measure 86
0001
0100
0010
0100
0000
0000
1001
0000
0001
0100
0000
0101
0000
0000
0001
1000
,  // measure 87
0010
0000
1001
0000
1100
0000
0110
0000
0001
0010
0000
0110
0000
1000
0100
0000
,  // measure 88
0110
0000
1100
0000
0011
0000
0110
0000
1100
0000
0100
0010
0000
0000
0001
0000
,  // measure 89
1000
0010
1000
0001
0000
0000
0001
0000
0100
0000
0100
0010
0000
0000
0010
0100
,  // measure 90
0001
0100
0010
0100
0000
0000
0101
0000
0001
0100
0000
0110
0000
0000
0001
0100
,  // measure 91
0010
0000
0100
0000
0101
0000
0010
0000
1000
0001
0000
1000
1100
0000
0110
0000
,  // measure 92
0110
0011
0000
0000
0000
1001
0110
0101
,  // measure 93
1100
0110
0000
0000
0000
0101
1010
1001
,  // measure 94
1100
0101
0000
0000
0000
0110
1100
0110
,  // measure 95
0011
0000
0001
0100
0001
0000
0001
0010
0001
1000
0001
0100
0001
0000
1001
0000
,  // measure 96
1001
0000
1000
0010
0100
0000
0010
0100
0001
0100
0010
0100
0001
0000
1000
0001
,  // measure 97
0100
0000
0001
0100
0010
0000
0010
0100
0001
0100
0010
1000
0001
0000
0001
0100
,  // measure 98
0010
0000
0010
0100
0001
0000
0001
1000
0100
1000
0001
0100
0010
0000
1000
0001
,  // measure 99
0220
0000
0000
0000
,  // measure 100
0330
0000
0000
0000
;
