#TITLE:Eight Linear Sides;
#SUBTITLE:;
#ARTIST:Jack Black vs. daniwellP feat. Mowtendoo;
#TITLETRANSLIT:;
#SUBTITLETRANSLIT:;
#ARTISTTRANSLIT:;
#CREDIT:;
#BANNER:Eight Linear Sides.png;
#BACKGROUND:Eight Linear Sides-bg.png;
#LYRICSPATH:;
#CDTITLE:;
#MUSIC:Eight Linear Sides.ogg;
#OFFSET:0.235;
#SAMPLESTART:16.734;
#SAMPLELENGTH:13.180;
#SELECTABLE:YES;
#BPMS:0.000=144.000;
#STOPS:;
#BGCHANGES:;

//---------------dance-single - Highflyer----------------
#NOTES:
     dance-single:
     Highflyer:
     Challenge:
     8:
     1.000,1.000,0.598,0.598,0.863: // measure 1
0000
0000
1000
0010
1000
0010
1000
0000
,  // measure 2
0100
1000
0100
0000
0010
0001
0010
0000
,  // measure 3
1001
0000
0001
0010
0001
0010
0001
0000
,  // measure 4
1000
0010
1000
0000
1100
0000
1001
1000
,  // measure 5
1010
0000
0010
0100
0010
0000
1000
0100
1000
0000
0100
0000
0110
0000
0000
0001
,  // measure 6
0010
0000
0100
1000
0010
0100
0010
1000
0001
0010
0100
0000
1000
0000
0001
0000
,  // measure 7
0101
0000
0000
0000
0001
0000
0100
0010
0000
0000
1000
0100
0010
0000
0001
0000
,  // measure 8
0100
0001
0100
0000
2222
3333
0000
0000
1000
0000
0100
0000
1000
0000
0001
0000
,  // measure 9
0000
0001
1000
0000
0100
0010
0001
1000
0010
0100
0010
1000
0100
0000
0010
0001
,  // measure 10
0000
0000
0001
0000
1001
0000
1000
0010
0100
0010
0000
0010
1000
0000
0100
0000
,  // measure 11
1100
0000
0000
0000
0100
0000
0010
0001
0000
0100
0010
0000
0000
1000
0000
1000
,  // measure 12
0000
1000
0000
0000
1000
0100
0000
0000
1000
0010
0100
0010
0100
0000
0000
0010
,  // measure 13
0100
0000
0000
0000
0010
0000
1000
0001
0000
0100
0000
0001
0100
0001
0010
0000
,  // measure 14
0100
1000
0001
0100
0010
0000
0100
0010
0000
1000
0000
0100
0010
0001
1000
0000
,  // measure 15
0010
0100
0010
0000
1000
0000
0100
0010
0000
1000
0000
0010
0001
0100
0010
0000
,  // measure 16
1000
0001
0100
0010
1000
0001
0100
0000
0010
0100
0001
0010
0100
0000
1000
0000
,  // measure 17
1001
0000
1000
0010
0100
0010
1000
1001
,  // measure 18
1011
0000
1111
0000
2111
3000
2211
3300
2221
3330
2222
3333
1000
0100
0010
0000
,  // measure 19
0101
0000
0001
0000
2222
3333
0000
0000
0001
1000
0000
0000
0100
0000
0010
0000
,  // measure 20
0000
0000
0001
0000
0100
0000
0000
0110
0000
1000
0010
0000
0010
0000
1000
0000
,  // measure 21
0001
0000
0000
0000
1000
0000
0010
0100
0001
0010
0000
0001
0100
0000
0000
0100
,  // measure 22
0010
0000
1000
0100
0010
0100
1000
0001
0100
0010
0100
0000
0001
0000
1000
0000
,  // measure 23
0010
0000
0000
0000
0010
0000
0100
0010
0000
0000
0010
1000
0001
0000
0010
0000
,  // measure 24
0100
1000
0010
0000
2222
3333
0000
0000
0001
0000
0100
0000
0010
0000
1000
0000
,  // measure 25
0000
0000
1000
0000
0010
0100
0001
0010
0100
1000
0100
1000
0010
0000
0100
0010
,  // measure 26
0000
0000
0010
0000
1001
0000
0001
0010
0100
1000
0000
0001
0100
0000
0010
0000
,  // measure 27
0110
0000
0000
0000
0001
0000
1000
0001
0000
0010
0100
0000
0000
1000
0000
0001
,  // measure 28
0000
0100
0000
0000
0010
0100
0000
0000
0010
1000
0000
0001
0010
0000
0000
0000
,  // measure 29
1011
0000
0000
0000
0001
0000
1000
0010
0000
0100
0000
0010
0100
0010
0100
0000
,  // measure 30
0010
1000
0001
0100
0010
0000
1000
0100
0000
0100
0000
1000
0100
0010
0001
0000
,  // measure 31
1000
0010
1000
0000
0100
0000
1000
0001
0000
0100
0000
0010
1000
0100
1000
0000
,  // measure 32
0001
0010
0001
0010
0001
0100
0001
0000
1000
0010
0100
0010
1000
0000
0001
0000
,  // measure 33
0101
0000
0001
1000
0010
0100
0001
0101
,  // measure 34
1101
0000
1111
0000
1112
0003
1122
0033
1222
0333
2222
3333
0001
0010
0100
0000
,  // measure 35
1100
0000
1000
0000
2222
3333
0000
0000
1000
0010
0000
0000
0010
0000
0100
0000
,  // measure 36
0000
0000
0010
0000
1001
0000
0000
1001
0000
0001
1000
0000
0010
0000
0000
0010
,  // measure 37
0100
0000
0000
0000
;
