#TITLE:Danse Macabre;
#SUBTITLE:;
#ARTIST:Invader and Shanty;
#TITLETRANSLIT:;
#SUBTITLETRANSLIT:;
#ARTISTTRANSLIT:;
#CREDIT:;
#BANNER:Danse Macabre.png;
#BACKGROUND:Danse Macabre-bg.png;
#LYRICSPATH:;
#CDTITLE:;
#MUSIC:Danse Macabre.ogg;
#OFFSET:0.002;
#SAMPLESTART:16.770;
#SAMPLELENGTH:13.100;
#SELECTABLE:YES;
#DISPLAYBPM:176.000;
#BPMS:0.000=176.000;
#STOPS:;
#BGCHANGES:;

//---------------dance-single - HF 47----------------
#NOTES:
     dance-single:
     HF 47:
     Challenge:
     14:
     1.000,1.000,0.188,0.295,1.000: // measure 1
0000
0000
0000
0000
1000
0000
0010
0000
0100
0000
0001
0010
0001
0000
0100
0000
,  // measure 2
0001
0001
0000
0000
0000
0000
0000
0000
,  // measure 3
2000
3000
0110
0110
0000
0000
0000
0000
,  // measure 4
0000
0000
0010
0000
1010
0000
1010
0000
1000
0000
1000
0000
0100
0010
0001
0010
,  // measure 5
0100
1000
0100
0010
0001
0000
0100
0000
0010
0000
1000
0010
1000
0000
0100
0000
,  // measure 6
0010
0010
0000
0000
0000
0000
0000
0000
,  // measure 7
0020
0030
1001
1001
0000
0000
0000
0000
,  // measure 8
0000
0000
0001
0000
0101
0000
0101
0000
0100
0000
0010
0000
0100
0010
1000
0001
,  // measure 9
0010
0100
1000
0010
0100
0000
0010
0000
0100
0000
0010
1000
0001
0000
0010
0000
,  // measure 10
0100
1000
0000
0001
0000
0100
0000
0010
,  // measure 11
2000
3100
1100
1100
0000
0100
0000
0100
,  // measure 12
0000
0000
0100
0000
0010
0000
0001
0000
1000
0000
0001
0000
0100
0010
1000
0001
,  // measure 13
0100
0010
1000
0001
0100
0000
0010
0000
0100
0000
0010
1000
0001
0000
0010
0000
,  // measure 14
0100
0010
0000
0001
0000
1000
0000
0010
,  // measure 15
0200
0310
0110
0110
0020
0000
2030
0000
,  // measure 16
3002
0000
0023
0000
0230
0000
0300
0000
2000
0000
0000
0000
3001
0100
0010
1000
,  // measure 17
0001
0100
0010
1000
0001
0000
0010
0000
0100
0000
0000
1000
0000
0010
0100
0000
,  // measure 18
0010
0000
0000
0100
0000
0010
0000
0000
1000
0000
0000
0100
0000
0010
0000
0000
,  // measure 19
0001
0000
0000
0001
1000
0000
1000
0000
0010
0000
0010
0000
0100
0000
0100
0000
,  // measure 20
0001
0000
0001
0000
0010
0000
0010
0000
0100
0000
0100
0000
1000
0010
0100
0001
,  // measure 21
0100
0010
1000
0010
0100
0010
0000
0000
0110
0000
0000
0010
0000
0100
0000
0000
,  // measure 22
0010
0000
0000
0010
0000
1000
0000
0000
1100
0000
0000
0100
0000
0010
0000
0000
,  // measure 23
0101
0000
0000
0001
0100
0000
0010
0000
1000
0000
0100
0000
0010
0000
0001
0000
,  // measure 24
0100
0000
0010
0000
1000
0000
0010
0000
1000
0000
0010
0000
0100
0001
0010
0100
,  // measure 25
1000
0010
0100
0001
0010
0100
0000
0000
1100
0000
0000
0010
0000
0001
0000
0000
,  // measure 26
0101
0000
0000
0100
0000
0010
0000
0000
1010
0000
0000
0010
0000
1000
0000
0000
,  // measure 27
1100
0000
0000
0100
0010
0000
0010
0000
0001
0000
0001
0000
1000
0000
1000
0000
,  // measure 28
0010
0000
0010
0000
0100
0000
0100
0000
0010
0000
0010
0000
1000
0100
0010
0001
,  // measure 29
1000
0010
0100
0001
0010
0100
0000
0000
1100
0000
1000
0100
0000
0010
0000
0000
,  // measure 30
0011
0000
0001
0100
0000
0010
0000
0000
0110
0000
0010
0100
0000
0010
0000
0000
,  // measure 31
1010
0000
1000
0100
1000
0000
1000
0000
0010
0000
0010
0000
0100
0000
0100
0000
,  // measure 32
0001
0000
0001
0000
0010
0000
0010
0000
0100
0000
0100
0000
1000
0100
0010
0001
,  // measure 33
1000
0010
0100
0001
1000
0000
0010
0100
0001
0000
0010
0100
1000
0000
0001
0000
,  // measure 34
0001
1000
0100
1000
0010
0000
0010
0100
0010
0000
0100
0001
0010
0000
0100
0000
,  // measure 35
0010
0100
1000
0001
1000
0000
0010
0100
0001
0000
1000
0001
0100
0000
0010
0000
,  // measure 36
0100
0001
0010
0100
1000
0000
0001
0000
1000
0000
0001
0000
0100
0010
1000
0001
,  // measure 37
0100
0010
1000
0001
0100
0000
0010
0100
0010
0000
1000
0100
1000
0000
0010
0000
,  // measure 38
0100
0001
0010
0100
1000
0000
0001
0100
0001
0000
0100
0010
0100
0000
0010
0000
,  // measure 39
0100
0001
0010
0100
0010
0000
0001
0010
0100
0000
1000
0001
0100
0000
0010
0000
,  // measure 40
0100
0001
0010
0100
2000
0000
3010
0000
0200
0000
0301
0000
0010
0100
1000
0001
,  // measure 41
0100
0010
0100
0001
1000
0000
0001
0010
0100
0000
0010
0001
1000
0000
0010
0000
,  // measure 42
0100
0001
0010
0100
1000
0000
0010
1000
0001
0000
0100
0010
1000
0000
0001
0000
,  // measure 43
0010
0100
1000
0001
0100
0000
0010
1000
0001
0000
0010
0100
0010
0000
0001
0000
,  // measure 44
1000
0010
1000
0001
2000
0000
3100
0000
0020
0000
0031
0000
0200
0000
0310
0000
,  // measure 45
1000
0100
0010
0001
1000
0000
0001
0100
0001
0000
1000
0100
1000
0000
0001
0000
,  // measure 46
0100
0010
1000
0001
0100
0000
0010
0100
0010
0000
1000
0100
1000
0000
0001
0000
,  // measure 47
0100
0010
0100
0001
0010
0000
0100
1000
0001
0000
0100
0010
0100
0000
0010
0000
,  // measure 48
1000
0100
0010
0100
1000
0000
0001
0000
0100
0000
0010
0000
1000
0100
0010
0001
,  // measure 49
0010
0100
1000
0001
1000
0000
0001
0000
0100
0000
0010
0000
1000
0000
0100
0000
,  // measure 50
0010
0001
0010
0100
1000
0010
0100
0001
,  // measure 51
0010
0100
1000
0001
0100
0010
0100
0001
,  // measure 52
0010
0000
0100
0000
1000
0000
0001
0000
0100
0000
0010
0000
0100
0010
1000
0001
,  // measure 53
0010
0100
0010
0001
1000
0000
0100
0000
0010
0000
0001
0000
1000
0000
0010
0000
,  // measure 54
0100
0001
1000
0100
0010
0001
0100
0010
,  // measure 55
1000
0001
0010
0001
0100
0010
1000
0100
,  // measure 56
0010
0000
0001
0000
0100
0000
0010
0000
1000
0000
0100
0000
1000
0100
0010
0001
,  // measure 57
0010
0100
1000
0100
1000
0000
0010
0000
0100
0000
0001
0000
1000
0000
0001
0000
,  // measure 58
0010
0100
1000
0001
0100
0010
1000
0001
,  // measure 59
0010
0001
1000
0100
0010
0001
1000
0010
,  // measure 60
0100
0000
0010
0000
1000
0000
0001
0000
0100
0000
0010
0000
0100
0001
0100
0010
,  // measure 61
1000
0010
0100
0001
1000
0000
0010
0000
0100
0000
0001
0000
0010
0000
0001
0000
,  // measure 62
1000
0100
1000
0010
0100
0001
0010
0100
,  // measure 63
0010
0001
1000
0001
1000
0010
1000
0100
,  // measure 64
1000
0000
0001
0000
1001
0000
1000
0000
0000
1000
0000
0000
1000
0000
0001
0000
,  // measure 65
0000
2000
3000
0000
1000
0000
0000
0000
0000
0000
0000
0000
0100
0000
0010
0000
,  // measure 66
0001
0100
0010
0000
0000
0000
0000
0000
,  // measure 67
0000
0000
1010
0000
0000
0000
0010
0100
,  // measure 68
0001
0010
0100
0000
0000
0000
0000
0000
,  // measure 69
0000
0000
1100
0000
0000
0000
0100
1000
,  // measure 70
0010
0100
0001
0000
0000
0000
1001
0000
,  // measure 71
0000
0000
1010
0000
0100
0000
0001
1000
,  // measure 72
0010
0101
0000
0000
,  // measure 73
0000
0000
1010
0000
0000
0000
0010
1000
,  // measure 74
0100
1000
0001
0000
0000
0000
0000
0000
,  // measure 75
0000
0000
0101
0000
0000
0000
0001
0100
,  // measure 76
0010
1000
0100
0000
0000
0000
0000
0000
,  // measure 77
0000
0000
1100
0000
0000
0000
0100
0010
,  // measure 78
0001
0100
0010
0000
0000
0000
0110
0000
,  // measure 79
0000
0000
1010
0000
1000
0000
0010
0100
,  // measure 80
0001
1001
0000
0000
,  // measure 81
0000
0000
1001
1000
0100
0010
0001
1000
,  // measure 82
0010
0100
0001
0010
0001
1000
0100
1000
,  // measure 83
0010
0100
0001
0010
0001
1000
0100
1000
,  // measure 84
0001
0100
0001
0010
0001
1000
0100
1000
,  // measure 85
0010
0100
0001
0010
0001
1000
0010
0100
,  // measure 86
0001
1000
0010
0010
1000
0010
1000
0100
,  // measure 87
0010
0001
1000
0010
0100
0001
1000
0010
,  // measure 88
0100
0001
1000
0100
1000
0010
0100
0001
,  // measure 89
0010
0001
1000
0100
1000
0010
0100
0001
,  // measure 90
0010
0001
1000
0100
1000
0010
0100
0001
,  // measure 91
1000
0100
0010
0001
1000
0010
0100
0001
,  // measure 92
1000
0001
0010
0001
1000
0100
1000
0001
,  // measure 93
0100
0010
1000
0001
1000
0001
0100
0010
,  // measure 94
1000
0001
1000
0000
0000
0000
0001
0000
,  // measure 95
1000
0000
1000
0000
0010
0000
0100
0001
,  // measure 96
1000
0000
1100
0000
0000
0000
0001
1000
,  // measure 97
0100
0000
0010
0000
0001
0100
0010
0100
0001
0010
0100
1000
0001
0100
0010
1000
,  // measure 98
0100
0010
0100
1000
0001
0100
0010
1000
0001
0100
0010
0100
0001
0010
0100
0010
,  // measure 99
0001
1000
0010
0100
0001
0010
0100
1000
0100
0010
0001
0010
0100
1000
0010
0100
,  // measure 100
0001
0010
0100
0010
0001
0100
0001
0010
0100
1000
0100
0010
0100
1000
0010
0100
,  // measure 101
0001
0100
0010
0100
0001
1000
0010
0100
0001
0010
0100
0010
0001
0100
0010
1000
,  // measure 102
0100
0010
0100
1000
0001
0100
0010
0100
0001
0010
0100
1000
0100
0010
0100
1000
,  // measure 103
0001
0100
0010
0100
0010
1000
0100
0010
0001
1000
0100
0010
0001
0100
0001
0100
,  // measure 104
0010
1000
0010
1000
0100
0010
0001
0010
0100
1000
0010
0100
0001
1000
0001
1000
,  // measure 105
0100
0010
0100
0010
0002
0013
0002
0103
0010
1000
0002
0013
0100
1000
0002
0013
,  // measure 106
0002
1003
0002
0103
0020
0130
0020
1030
0001
0100
0020
1030
0001
1000
0020
0130
,  // measure 107
0020
1030
0020
0130
0001
0010
0200
1300
0001
0010
0200
1300
0001
1000
0200
0310
,  // measure 108
0200
1300
0200
1300
0002
0013
0002
1003
0100
0010
0002
0013
0100
1000
0002
0013
,  // measure 109
0002
0103
0002
1003
0200
0310
0200
1300
0001
0010
0200
0310
0001
0100
0020
1030
,  // measure 110
0020
0130
0020
1030
0002
1003
0002
0013
0001
0100
0020
1030
0100
1000
0200
0310
,  // measure 111
0002
0013
0200
1300
0200
0310
0200
0310
0001
0100
0020
1030
0001
0010
0200
1300
,  // measure 112
0200
0310
0200
1300
0001
0010
0100
0010
0001
0010
0100
0010
0001
0010
0100
0010
,  // measure 113
0001
0010
0100
0010
0001
0100
0010
1000
0100
0010
0001
0100
0010
0100
0010
1000
,  // measure 114
0100
0010
0100
0010
0001
0100
0010
0100
0001
0010
0001
0010
0100
1000
0100
1000
,  // measure 115
0001
0100
0001
0100
0001
1000
0001
1000
0100
0010
0100
0010
0001
0010
0100
1000
,  // measure 116
0001
0100
0001
0010
0100
0010
0100
0010
0001
0010
0001
1000
0100
1000
0100
0010
,  // measure 117
0001
0100
0010
1000
0100
1000
0100
0010
0001
0010
0001
1000
0010
1000
0010
0100
,  // measure 118
0001
0010
0100
1000
0100
1000
0010
0100
0010
0100
0001
1000
0001
1000
0100
0010
,  // measure 119
0001
1000
0100
0010
0100
1000
0100
1000
0001
1000
0001
1000
0010
1000
0010
0100
,  // measure 120
0010
1000
0100
0010
0001
0010
0001
0100
0001
0010
0001
0100
0001
0010
0001
0100
,  // measure 121
0010
1000
0001
1000
0100
0010
0100
0010
0001
1000
0001
1000
0010
1000
0100
0010
,  // measure 122
0001
0010
0100
0010
0001
0100
0001
0100
0010
1000
0010
1000
0100
0010
0100
0010
,  // measure 123
0001
1000
0100
0010
0001
0100
0001
0100
0010
1000
0010
1000
0100
0010
0100
0010
,  // measure 124
0001
1000
0010
0100
0001
0010
0001
0100
0010
0100
0001
1000
0001
0010
0100
0010
,  // measure 125
0001
1000
0010
0100
0010
1000
0010
1000
0001
0010
0001
0010
0100
1000
0100
0010
,  // measure 126
0001
0100
0010
1000
0100
0010
0100
0010
0001
0100
0010
1000
0100
0010
0100
0010
,  // measure 127
0001
0100
0010
1000
0001
0010
0001
0010
0100
1000
0100
1000
0001
0100
0001
0010
,  // measure 128
0100
1000
0100
1000
0010
1000
0100
1000
0010
1000
0100
1000
0010
1000
0100
1000
,  // measure 129
0010
1000
0100
1000
0100
0010
0001
0100
0010
0100
0001
0010
0100
1000
0100
0010
,  // measure 130
0100
1000
0001
0100
0010
0100
0001
0010
0100
1000
0001
0100
0010
0100
0001
0010
,  // measure 131
0100
1000
0001
0010
0100
1000
0100
0010
0001
1000
0100
0010
0100
1000
0001
0100
,  // measure 132
0010
1000
0010
0100
0001
0010
0001
0010
0100
1000
0100
1000
0001
1000
0001
1000
,  // measure 133
0010
1000
0010
1000
0100
0010
0001
0100
0010
1000
0010
1000
0010
1000
0100
0010
,  // measure 134
0001
0100
0001
0100
0001
1000
0100
0010
0100
1000
0001
0100
0010
0100
0010
1000
,  // measure 135
0100
1000
0100
0010
0001
0010
0001
1000
0010
0100
0010
1000
0100
0010
0001
0100
,  // measure 136
0010
0100
0001
0010
0100
1000
0100
1000
0100
1000
0100
1000
0001
0100
0001
0100
,  // measure 137
0010
1000
0100
0010
0001
0010
0001
0010
0100
1000
0100
1000
0001
0100
0001
0100
,  // measure 138
0010
1000
0010
1000
0100
0010
0100
0010
0001
1000
0001
1000
0001
0010
0001
0010
,  // measure 139
0100
1000
0100
1000
0010
1000
0010
1000
0001
0100
0001
0100
0010
1000
0010
1000
,  // measure 140
0100
0010
0100
0010
0001
0010
0100
1000
0001
0010
0100
1000
0001
0010
0100
1000
,  // measure 141
0100
0010
0001
1000
0010
0100
0010
0100
0001
1000
0001
1000
0100
0010
0001
0010
,  // measure 142
0100
1000
0001
0100
0010
1000
0010
1000
0001
0100
0001
0100
0010
0100
0010
0100
,  // measure 143
0001
0010
0001
0010
0100
1000
0100
1000
0010
1000
0010
1000
0001
1000
0001
1000
,  // measure 144
0001
0010
0100
1000
0002
0000
0000
0000
0000
0000
0000
0000
0000
0000
0000
0000
,  // measure 145
0003
0000
0000
0000
;
