#TITLE:Damaged Lady;
#SUBTITLE:;
#ARTIST:Kara;
#TITLETRANSLIT:;
#SUBTITLETRANSLIT:;
#ARTISTTRANSLIT:;
#CREDIT:;
#BANNER:Damaged Lady.png;
#BACKGROUND:Damaged Lady-bg.png;
#LYRICSPATH:;
#CDTITLE:;
#MUSIC:Damaged Lady.ogg;
#OFFSET:-0.076;
#SAMPLESTART:67.330;
#SAMPLELENGTH:13.120;
#SELECTABLE:YES;
#BPMS:0.000=93.000,30.000=186.000,78.000=46.500,80.000=93.000,112.000=186.000,136.000=93.000,140.000=186.000,196.000=93.000,198.000=186.000,200.000=93.000,232.000=186.000,320.000=93.000,356.000=46.500,358.000=186.000,414.000=93.000,416.000=186.000,441.000=93.000;
#STOPS:198.000=0.323
,198.500=0.323
,416.000=0.323
,416.500=0.645
;
#BGCHANGES:;

//---------------dance-single - HF 14/14/14-6----------------
#NOTES:
     dance-single:
     HF 14/14/14-6:
     Challenge:
     14:
     1.000,0.922,0.241,0.136,1.000: // measure 1
0000
0000
0000
0000
0000
0000
0000
0000
1000
0000
0000
0001
0000
0000
0000
0000
,  // measure 2
1000
0000
0000
0010
0000
0000
0000
0000
0100
0000
0000
0001
0000
0000
0000
0000
,  // measure 3
1000
0000
0000
0010
0000
0000
0000
0000
2000
0000
3020
0000
0230
0000
0320
0000
,  // measure 4
2030
0000
3200
0000
0320
0000
0032
0000
1003
0000
0000
0010
0000
0000
1000
0100
,  // measure 5
1000
0010
0100
0001
0010
0100
1000
0100
1000
0000
0000
0001
0001
0100
0010
0000
,  // measure 6
1000
0000
0000
0100
0000
0000
0000
0000
1010
0010
0100
0101
1000
0000
1100
1000
,  // measure 7
0001
1000
0000
0010
0000
0100
0010
0000
0110
0000
0000
1001
0000
0000
1000
0100
,  // measure 8
0010
0001
0100
0010
0100
0001
0010
0100
1001
0000
0000
0000
0000
0000
1000
0000
,  // measure 9
0100
0010
0001
0010
0100
0000
0000
0010
,  // measure 10
0001
0100
0010
1000
0001
0000
0000
0010
,  // measure 11
0100
0010
0001
0100
0010
0000
0000
0100
,  // measure 12
0010
1000
0001
1000
0100
0000
0000
0010
,  // measure 13
0001
0100
0010
1000
0100
0000
0000
1000
,  // measure 14
0100
0010
0001
0100
0200
0000
0000
0320
,  // measure 15
1000
0100
2030
0100
0100
3002
0000
0100
,  // measure 16
0203
0010
1000
0310
0101
1000
0100
1000
,  // measure 17
0010
1000
0100
1100
0000
1000
0010
1000
,  // measure 18
0010
0000
1000
0000
0101
0001
0100
0010
,  // measure 19
1000
0001
0100
0101
0000
1000
0000
0100
,  // measure 20
0010
0000
0000
0000
0000
0000
0000
0000
0001
0000
0000
0000
0000
0000
0000
0000
2001
0000
0000
0001
0001
0001
0000
0000
0010
0000
0000
0100
0000
0000
3100
0000
,  // measure 21
1000
0000
0010
0100
0001
1000
0100
0000
1100
0000
0100
1000
0010
0100
0001
0000
,  // measure 22
1001
0000
0001
0100
0010
1000
0001
0010
0001
0000
1000
0010
0000
0100
0001
0000
,  // measure 23
0001
0000
0001
0100
0100
1000
0010
0010
0001
0010
0100
0100
1000
0001
0100
0000
,  // measure 24
0001
0000
0100
0010
1000
0001
0100
0010
0100
0000
0100
0010
0000
0100
0001
0000
,  // measure 25
0001
0000
1000
0010
0100
0010
0100
0000
0100
0000
0010
1000
0001
0010
0001
0000
,  // measure 26
0001
0000
0001
0010
0010
1000
0100
0100
0001
0000
0100
0001
0000
1000
0001
0000
,  // measure 27
1000
0000
0001
1000
0010
0010
0001
1000
0100
0100
0001
1000
0100
1000
0001
0000
,  // measure 28
0100
0000
0001
0100
0010
1000
0001
0010
0001
0010
0100
1000
0001
0010
0001
1000
,  // measure 29
1001
1000
0100
0010
0001
1000
0001
1001
,  // measure 30
0000
0001
1000
0100
0010
0000
0011
0000
,  // measure 31
0001
1000
0010
0100
0001
0100
0010
1000
,  // measure 32
0000
0010
1000
0010
1010
0000
0101
0000
,  // measure 33
0001
0100
0010
0100
0001
0100
0010
1000
,  // measure 34
0000
0010
1000
0010
1010
0000
1001
0000
,  // measure 35
2020
0000
0000
0000
0030
0010
0010
0010
,  // measure 36
3010
1000
0010
1000
0001
0010
0100
1000
0100
1000
0001
0100
0001
1000
0010
0100
,  // measure 37
0010
1000
0010
0100
0010
0100
0001
1000
0001
1000
0001
1000
0100
1000
0010
0100
,  // measure 38
0010
0100
0010
0100
0001
0100
0010
1000
0001
0100
0010
1000
0100
0010
0001
1000
,  // measure 39
0001
0010
0001
1000
0010
0100
0010
0100
0001
0010
0001
0010
0100
1000
0100
1000
,  // measure 40
0100
0010
0100
0010
0100
1000
0001
0100
0010
0100
0001
1000
0001
1000
0010
0100
,  // measure 41
0010
1000
0010
0100
0001
0010
0100
1000
0001
1000
0010
1000
0010
0100
0001
1000
,  // measure 42
0001
0010
0001
1000
0001
0010
0100
1000
0100
1000
0100
1000
0001
0100
0001
1000
,  // measure 43
0001
0100
0001
1000
0001
0100
0001
0100
0010
1000
0010
1000
0100
1000
0100
1000
,  // measure 44
0001
0010
0100
1000
0001
0010
0001
0100
0010
1000
0001
0100
0001
0100
0010
1000
,  // measure 45
0001
1000
0100
1000
0001
1000
0010
1000
0001
1000
0100
1000
0001
0100
0001
0100
,  // measure 46
0010
1000
0010
1000
0001
0100
0010
1000
0010
1000
0001
0010
0001
0010
0001
0010
,  // measure 47
0001
0010
0100
1000
0001
0010
0100
0010
0001
1000
0100
0010
0001
1000
0100
0010
,  // measure 48
0001
0100
0001
0100
0010
1000
0001
0100
0001
0100
0010
0100
0010
0100
0001
0010
,  // measure 49
0001
0010
0001
0010
0100
1000
0010
0100
0010
0100
0010
0100
0002
0000
2000
0000
,  // measure 50
0000
0000
0000
3003
0010
0020
0000
0030
,  // measure 51
1010
1000
0010
0100
0010
1000
0001
1000
0000
0001
1000
0010
1000
0100
0000
1001
,  // measure 52
0000
0001
0100
0010
1000
0001
0100
0010
1000
0000
0010
1000
0000
1000
0100
1000
,  // measure 53
1100
0000
1000
0100
0000
1000
0001
1000
0001
0000
1000
0010
0000
0000
0010
1000
,  // measure 54
0100
0010
0001
1000
0001
0010
0100
0010
0001
1000
0010
0100
0000
0010
1000
0000
,  // measure 55
0010
1000
0100
1000
0100
0100
0001
0000
0001
0000
0001
1000
0010
0010
0001
0000
,  // measure 56
0001
0000
0001
1000
0100
0100
0001
1000
0100
0000
1000
0001
0000
0100
0001
0000
,  // measure 57
0001
0000
0001
0100
0100
1000
0010
0010
0001
1000
0100
0100
0001
1000
0100
0000
,  // measure 58
1000
0000
0100
1000
0001
0100
0010
1000
0010
0000
1000
0010
0000
1000
0001
1000
,  // measure 59
1001
0001
0100
0010
1000
0010
1000
1100
,  // measure 60
0000
0001
1000
0010
0110
0000
0110
0000
,  // measure 61
0001
1000
0010
0100
0001
1000
0001
1000
,  // measure 62
0000
0100
1000
0100
1001
0000
0101
0000
,  // measure 63
0001
0100
0010
1000
0010
1000
0001
0010
,  // measure 64
0000
0001
0010
0100
0010
0000
0001
0000
,  // measure 65
0110
0001
0100
0010
1000
0001
1000
0010
,  // measure 66
1010
1000
1100
1000
1001
1000
0101
1000
,  // measure 67
0001
1000
0001
1000
0100
0010
0001
0100
0001
0100
0010
1000
0010
1000
0100
0010
,  // measure 68
0001
1000
0100
0010
0001
0100
0010
1000
0001
1000
0100
1000
0001
0100
0010
1000
,  // measure 69
0001
1000
0010
1000
0001
0100
0010
0100
0001
1000
0100
1000
0001
0100
0010
1000
,  // measure 70
0010
1000
0010
1000
0001
0010
0001
0010
0001
0100
0001
0100
0010
1000
0010
1000
,  // measure 71
0001
0010
0100
1000
0001
0100
0010
1000
0010
1000
0100
0010
0100
0010
0100
1000
,  // measure 72
0100
1000
0100
1000
0001
0100
0010
1000
0001
1000
0010
1000
0001
0010
0100
1000
,  // measure 73
0010
0100
0010
0100
0010
0100
0001
1000
0001
1000
0001
1000
0001
0010
0001
0010
,  // measure 74
0001
0010
0001
0010
0001
0100
0010
1000
0100
1000
0010
0100
0010
1000
0100
0010
,  // measure 75
0100
1000
0010
0100
0010
0100
0001
0010
0001
0010
0100
1000
0100
1000
0010
0100
,  // measure 76
0001
1000
0010
0100
0001
1000
0010
0100
0001
1000
0001
0100
0010
1000
0010
1000
,  // measure 77
0100
1000
0100
0010
0001
0100
0010
1000
0010
1000
0100
1000
0100
1000
0100
1000
,  // measure 78
0001
0010
0100
1000
0001
0010
0100
0010
0001
1000
0100
0010
0001
1000
0100
0010
,  // measure 79
0001
0100
0001
0100
0010
1000
0100
1000
0100
1000
0001
0100
0001
0100
0001
0010
,  // measure 80
0001
1000
0001
0100
0001
0100
0010
1000
0010
0100
0010
1000
0100
0000
0010
0000
,  // measure 81
2002
0000
0000
0000
0000
0000
3003
0000
1100
0000
0000
0202
0000
0000
0303
0000
,  // measure 82
0001
0000
0001
0100
0010
1000
0100
0000
1001
0000
0001
0100
0001
0010
0100
0000
,  // measure 83
1100
0000
0100
0010
0001
0100
0010
1000
0001
0010
0001
1000
0100
1000
0010
0000
,  // measure 84
0100
0000
0010
1000
0001
0010
0001
1000
0100
1000
0001
0100
0010
1000
0001
0000
,  // measure 85
1010
0000
0010
1000
0001
0010
0100
1000
0001
0100
0010
1000
0001
0010
0001
0000
,  // measure 86
1010
0000
0001
0010
0001
0010
0001
0000
1010
0000
0010
1000
0010
1000
0010
0000
,  // measure 87
0110
0000
0001
0100
0001
0100
0001
0100
0001
1000
0100
1000
0100
1000
0010
0000
,  // measure 88
0100
0000
0010
0100
0001
1000
0010
0100
0001
1000
0001
0010
0100
1000
0100
0000
,  // measure 89
1000
0000
0100
0010
0001
0100
0010
1000
0100
0010
0001
1000
0001
1000
0010
0000
,  // measure 90
2001
0000
0000
0000
0000
0000
0000
0000
0000
0000
0000
0000
0000
0000
0000
0010
0000
0000
0000
0000
0000
0000
0000
0000
0000
0000
0000
0000
0100
0000
0000
0000
0000
0000
0000
0000
0000
0000
0000
0000
0001
0000
0000
0000
0000
0000
0000
0000
0000
0000
0000
0000
0001
0000
0000
0000
0000
3000
0000
0000
0001
0000
0000
0000
0000
0000
0000
0000
0000
0000
0000
0000
0001
0000
0000
0000
0000
0000
0000
0000
0000
0000
0000
0000
0001
0000
0000
0000
0000
0000
0000
0000
0000
0000
0000
0000
0001
0000
0000
0000
0000
0000
0000
0000
0000
0000
0000
0000
0010
0000
0000
0000
0000
0000
0000
0000
0000
0000
0000
0000
0001
0000
0000
0000
0000
0000
0000
0000
0000
0000
0000
0000
0010
0000
0000
0000
0000
0000
0000
0000
0000
0000
0000
0000
0001
0000
0000
0000
0000
0000
0000
0000
0000
0000
0000
0000
0100
0000
0000
0000
0000
0000
0000
0000
0000
0000
0000
0000
0010
0000
0000
0000
0000
0000
0000
0000
0000
0000
0000
0000
1000
0000
0000
0000
0000
0000
0000
0000
0000
0000
0000
0000
,  // measure 91
0010
1000
0100
1000
0001
1000
0010
0100
0001
0100
0010
0100
0001
0010
0100
1000
,  // measure 92
0100
1000
0100
1000
0010
0100
0001
1000
0100
1000
0001
0100
0001
1000
0100
0010
,  // measure 93
0001
0100
0010
0100
0001
0100
0010
1000
0010
1000
0010
1000
0001
0100
0010
1000
,  // measure 94
0001
0010
0100
1000
0001
0100
0010
1000
0001
0010
0001
0010
0001
1000
0010
0100
,  // measure 95
0010
0100
0001
0010
0001
0010
0100
1000
0100
0010
0100
1000
0010
1000
0001
0100
,  // measure 96
0001
0100
0001
0100
0010
0100
0001
1000
0001
0010
0100
1000
0001
0010
0100
0010
,  // measure 97
0001
0010
0100
0010
0001
0100
0010
0100
0001
0100
0010
0100
0001
0100
0010
1000
,  // measure 98
0001
0010
0001
0010
0100
1000
0100
1000
0010
0100
0010
0100
0001
0100
0001
1000
,  // measure 99
0100
1000
0010
1000
0010
1000
0001
0100
0010
1000
0001
0100
0010
1000
0001
0100
,  // measure 100
0010
1000
0001
0100
0001
0010
0001
0010
0100
1000
0100
1000
0010
0100
0001
0100
,  // measure 101
0001
0100
0010
1000
0001
1000
0010
1000
0100
0010
0001
1000
0100
0010
0100
1000
,  // measure 102
0001
0010
0100
1000
0001
0010
0100
1000
0010
0100
0010
0100
0010
1000
0001
0100
,  // measure 103
0001
0100
0010
1000
0010
0100
0001
0100
0010
0100
0001
0100
0010
1000
0100
1000
,  // measure 104
0100
1000
0100
1000
0100
0010
0001
0000
2000
0000
0000
0000
0000
0000
0000
0000
,  // measure 105
3001
0000
1000
0000
0001
0100
0010
0100
0001
1000
0010
1000
0001
1000
0010
0100
,  // measure 106
0001
1000
0001
0010
0100
1000
0001
1000
0010
0100
0001
0100
0001
1000
0010
1000
,  // measure 107
0001
0100
0001
0010
0001
1000
0001
1000
0100
1000
0001
0100
0010
0100
0001
1000
,  // measure 108
0010
1000
0001
0100
0010
0100
0001
0100
0010
1000
0001
1000
0010
0100
0001
0010
,  // measure 109
0001
1000
0100
1000
0001
0100
0010
0100
0001
1000
0001
0010
0001
1000
0100
1000
,  // measure 110
0001
0100
0001
0100
0001
1000
0100
1000
0001
1000
0010
0100
0001
1000
0010
1000
,  // measure 111
0001
0000
0000
0000
1001
0000
0000
0000
0000
0000
0000
0000
1001
0000
0000
0220
,  // measure 112
0000
0330
0000
0000
;
