#TITLE:Crescendolls;
#SUBTITLE:;
#ARTIST:Daft Punk;
#TITLETRANSLIT:;
#SUBTITLETRANSLIT:;
#ARTISTTRANSLIT:;
#CREDIT:;
#BANNER:Crescendolls.png;
#BACKGROUND:;
#LYRICSPATH:;
#CDTITLE:;
#MUSIC:Crescendolls.ogg;
#OFFSET:-0.196;
#SAMPLESTART:50.280;
#SAMPLELENGTH:15.000;
#SELECTABLE:YES;
#DISPLAYBPM:124.080;
#BPMS:0.000=124.080;
#STOPS:273.250=0.242
,274.500=0.363
,274.750=0.242
,275.000=0.242
,275.250=0.242
,275.500=0.242
,275.750=0.363
,277.250=0.242
,278.500=0.363
,279.000=0.121
,279.500=0.121
,280.000=0.121
,283.250=0.242
,284.500=0.363
,284.750=0.242
,285.000=0.242
,285.250=0.242
,288.500=0.242
,289.750=0.363
;
#BGCHANGES:;

//---------------dance-single - HF 64-32----------------
#NOTES:
     dance-single:
     HF 64-32:
     Challenge:
     12:
     1.000,0.818,0.019,0.000,1.000: // measure 1
0000
0000
0000
0000
,  // measure 2
0000
0000
0000
0000
,  // measure 3
1010
0000
0000
0000
0010
1000
0000
0000
1010
0000
0000
0000
1100
0000
0000
0000
,  // measure 4
1000
0000
0000
0010
0000
0000
0100
0000
0000
0010
0000
0000
1000
0000
0000
0000
,  // measure 5
1000
0010
1000
0010
1000
0010
1000
0010
1000
0001
0100
0001
0100
0001
0100
0001
,  // measure 6
0100
0010
1000
0010
1000
0010
1000
0010
1000
0100
1000
0100
1000
0100
1000
0100
,  // measure 7
1000
0100
0010
0100
0010
0100
0010
0100
0010
0001
0010
0001
0010
0001
0010
0001
,  // measure 8
1000
0001
1000
0001
1000
0001
1000
0001
1000
0010
1000
0010
1000
0010
1000
0010
,  // measure 9
0100
0010
0100
0010
0100
0010
0100
0010
1000
0010
1000
0010
1000
0010
1000
0010
,  // measure 10
1000
0100
1000
0100
1000
0100
1000
0100
1000
0010
0100
0001
1000
0010
1000
0010
,  // measure 11
1000
0100
0010
0001
1000
0010
0100
0010
1000
0010
1000
0100
1000
0010
0100
0001
,  // measure 12
1000
0010
1000
0001
1000
0010
0100
0001
1000
0010
1000
0001
1000
0010
1000
0001
,  // measure 13
1000
0100
0010
0001
1000
0100
0010
0001
1000
0100
0010
0001
1000
0100
0010
0001
,  // measure 14
1000
0100
0010
0001
1000
0100
0010
0001
1000
0100
0010
0001
1000
0100
0010
0001
,  // measure 15
0100
0010
1000
0001
0100
0010
1000
0001
0100
0010
1000
0001
0100
0010
1000
0001
,  // measure 16
0100
0010
1000
0001
0100
0010
1000
0001
0100
0010
1000
0001
0100
0010
1000
0001
,  // measure 17
0010
0100
0010
0001
0010
0100
0010
0001
0010
0100
0010
0001
0010
0100
0010
0001
,  // measure 18
0010
0100
0010
0001
0010
0100
0010
0001
0010
0100
0010
0001
0010
0100
0010
0001
,  // measure 19
1000
0010
1000
0001
0010
0001
1000
0010
1000
0001
0010
0001
1000
0010
1000
0001
,  // measure 20
0010
0001
1000
0010
1000
0001
0010
0001
1000
0010
1000
0001
0010
0001
1000
0010
,  // measure 21
1000
0100
0010
0100
1000
0100
0010
0100
1000
0100
0010
0100
1000
0100
0010
0100
,  // measure 22
1000
0100
0010
0100
1000
0100
0010
0100
1000
0100
0010
0100
1000
0100
0010
0100
,  // measure 23
1000
0001
0100
0001
1000
0100
1000
0001
0100
0001
1000
0001
0100
0001
1000
0100
,  // measure 24
1000
0001
0100
0001
1000
0100
1000
0001
0100
0001
1000
0100
1000
0001
0100
0001
,  // measure 25
0010
0100
1000
0001
0010
0100
1000
0001
0010
0100
1000
0001
0010
0100
1000
0001
,  // measure 26
0010
0100
1000
0001
0010
0100
1000
0001
0010
0100
1000
0001
0010
0100
1000
0001
,  // measure 27
0010
0001
0010
0100
1000
0001
0010
0100
1000
0001
0010
0100
1000
0001
0010
0100
,  // measure 28
1000
0001
0010
0100
1000
0001
0010
0100
1000
0001
0010
0100
1000
0001
0010
0100
,  // measure 29
1000
0100
0010
0001
1000
0100
0010
0001
1000
0100
0010
0001
1000
0100
0010
0001
,  // measure 30
1000
0100
0010
0001
1000
0100
0010
0001
1000
0100
0010
0001
1000
0100
0010
0001
,  // measure 31
0100
0010
0100
0010
1000
0001
1000
0001
0100
0010
0100
0010
1000
0001
1000
0001
,  // measure 32
0010
0100
0010
0100
1000
0001
1000
0001
0100
0010
0100
0010
1000
0001
1000
0001
,  // measure 33
0010
0100
0010
0001
0100
0010
0100
0001
0010
0100
0010
0001
0100
0010
0100
0001
,  // measure 34
0010
0100
0010
0001
0100
0010
0100
0001
0010
0100
0010
0001
0100
0010
0100
0001
,  // measure 35
0100
0010
1000
0001
0100
0010
1000
0001
0100
0010
1000
0001
0100
0010
1000
0001
,  // measure 36
0100
0010
1000
0001
0100
0010
1000
0001
0100
0010
1000
0001
0100
0010
1000
0001
,  // measure 37
0010
0100
1000
0100
0010
0001
0010
0100
1000
0100
0010
0001
0010
0100
1000
0100
,  // measure 38
0010
0001
0010
0100
1000
0100
0010
0001
0010
0100
1000
0100
0010
0001
0010
0100
,  // measure 39
1000
0010
0100
0001
0010
0100
1000
0010
0100
0001
0010
0100
1000
0010
0100
0001
,  // measure 40
1000
0100
0010
0001
0100
0010
1000
0100
0010
0001
0100
0010
1000
0100
0010
0001
,  // measure 41
0010
0100
0010
0100
1000
0100
1000
0100
0010
0001
0010
0001
0100
0001
0100
0001
,  // measure 42
1000
0100
1000
0100
0010
0100
0010
0100
1000
0001
1000
0001
0100
0010
0100
0010
,  // measure 43
1000
0100
1000
0100
1000
0100
1000
0100
0010
0001
0010
0001
0010
0001
0010
0001
,  // measure 44
0100
0010
0100
0010
0100
0010
0100
0010
1000
0001
1000
0001
1000
0001
1000
0001
,  // measure 45
1000
0010
1000
0010
1000
0010
1000
0010
1000
0001
0100
0001
0100
0001
0100
0001
,  // measure 46
0100
0010
1000
0010
1000
0010
1000
0010
1000
0100
1000
0100
1000
0100
1000
0100
,  // measure 47
1000
0100
0010
0100
0010
0100
0010
0100
0010
0001
0010
0001
0010
0001
0010
0001
,  // measure 48
1000
0001
1000
0001
1000
0001
1000
0001
1000
0010
1000
0010
1000
0010
1000
0010
,  // measure 49
0100
0010
0100
0010
0100
0010
0100
0010
1000
0010
1000
0010
1000
0010
1000
0010
,  // measure 50
1000
0100
1000
0100
1000
0100
1000
0100
1000
0010
0100
0001
1000
0010
1000
0010
,  // measure 51
1000
0100
0010
0001
1000
0010
0100
0010
1000
0010
1000
0100
1000
0010
0100
0001
,  // measure 52
1000
0010
1000
0001
1000
0010
0100
0001
1000
0010
1000
0001
1000
0010
1000
0001
,  // measure 53
1000
0100
0010
0001
1000
0100
0010
0001
1000
0100
0010
0001
1000
0100
0010
0001
,  // measure 54
1000
0100
0010
0001
1000
0100
0010
0001
1000
0100
0010
0001
1000
0100
0010
0001
,  // measure 55
0100
0010
1000
0001
0100
0010
1000
0001
0100
0010
1000
0001
0100
0010
1000
0001
,  // measure 56
0100
0010
1000
0001
0100
0010
1000
0001
0100
0010
1000
0001
0100
0010
1000
0001
,  // measure 57
0010
0100
0010
0001
0010
0100
0010
0001
0010
0100
0010
0001
0010
0100
0010
0001
,  // measure 58
0010
0100
0010
0001
0010
0100
0010
0001
0010
0100
0010
0001
0010
0100
0010
0001
,  // measure 59
1000
0010
1000
0001
0010
0001
1000
0010
1000
0001
0010
0001
1000
0010
1000
0001
,  // measure 60
0010
0001
1000
0010
1000
0001
0010
0001
1000
0010
1000
0001
0010
0001
1000
0010
,  // measure 61
1000
0100
0010
0100
1000
0100
0010
0100
1000
0100
0010
0100
1000
0100
0010
0100
,  // measure 62
1000
0100
0010
0100
1000
0100
0010
0100
1000
0100
0010
0100
1000
0100
0010
0100
,  // measure 63
1000
0001
0100
0001
1000
0100
1000
0001
0100
0001
1000
0001
0100
0001
1000
0100
,  // measure 64
1000
0001
0100
0001
1000
0100
1000
0001
0100
0001
1000
0100
1000
0001
0100
0001
,  // measure 65
0010
0100
1000
0001
0010
0100
1000
0001
0010
0100
1000
0001
0010
0100
1000
0001
,  // measure 66
0010
0100
1000
0001
0010
0100
1000
0001
0010
0100
1000
0001
0010
0100
1000
0001
,  // measure 67
0010
0001
0010
0100
1000
0001
0010
0100
1000
0001
0010
0100
1000
0001
0010
0100
,  // measure 68
1000
0001
0010
0100
1000
0001
0010
0100
1000
0001
0010
0100
1000
0001
0010
0100
,  // measure 69
1000
0000
0010
0000
0100
0010
1000
0100
1000
0100
1000
0001
0100
0010
1000
0010
,  // measure 70
1010
0000
0010
0000
1000
0100
1000
0010
1000
0010
1000
0001
0100
0001
0100
0001
,  // measure 71
0100
0001
0100
0010
1000
0100
0010
0001
1000
0000
0100
0000
1000
0100
0010
0100
,  // measure 72
0010
0100
0010
0001
1000
0010
0000
0010
0000
0010
1000
0000
1000
0100
0000
0010
,  // measure 73
0000
0001
0100
0010
0100
0010
0100
0010
1000
0100
0010
0001
1000
0100
0010
0001
,  // measure 74
1000
0100
0010
0001
1000
0100
0010
0001
1000
0010
1000
0010
1000
0010
1000
0010
,  // measure 75
1000
0001
0100
0001
0100
0001
0100
0001
0100
0010
1000
0010
1000
0010
1000
0010
,  // measure 76
1000
0100
1000
0100
1000
0100
1000
0100
1000
0100
0010
0100
0010
0100
0010
0100
,  // measure 77
0010
0001
0010
0001
0010
0001
0010
0001
1000
0001
1000
0001
1000
0001
1000
0001
,  // measure 78
1000
0010
1000
0010
1000
0010
1000
0010
0100
0010
0100
0010
0100
0010
0100
0010
,  // measure 79
1000
0010
1000
0010
1000
0010
1000
0010
1000
0100
1000
0100
1000
0100
1000
0100
,  // measure 80
1000
0010
0100
0001
1000
0010
1000
0010
1000
0100
0010
0001
1000
0010
0100
0010
,  // measure 81
1000
0010
1000
0100
1000
0010
0100
0001
1000
0010
1000
0001
1000
0010
0100
0001
,  // measure 82
1000
0010
1000
0001
1000
0010
1000
0001
1000
0100
0010
0001
1000
0100
0010
0001
,  // measure 83
1000
0100
0010
0001
1000
0100
0010
0001
1000
0100
0010
0001
1000
0100
0010
0001
,  // measure 84
1000
0100
0010
0001
1000
0100
0010
0001
0100
0010
1000
0001
0100
0010
1000
0001
,  // measure 85
0100
0010
1000
0001
0100
0010
1000
0001
0100
0010
1000
0001
0100
0010
1000
0001
,  // measure 86
0100
0010
1000
0001
0100
0010
1000
0001
0010
0100
0010
0001
0010
0100
0010
0001
,  // measure 87
0010
0100
0010
0001
0010
0100
0010
0001
0010
0100
0010
0001
0010
0100
0010
0001
,  // measure 88
0010
0100
0010
0001
0010
0100
0010
0001
1000
0010
1000
0001
0010
0001
1000
0010
,  // measure 89
1000
0001
0010
0001
1000
0010
1000
0001
0010
0001
1000
0010
1000
0001
0010
0001
,  // measure 90
1000
0010
1000
0001
0010
0001
1000
0010
1000
0100
0010
0100
1000
0100
0010
0100
,  // measure 91
1000
0100
0010
0100
1000
0100
0010
0100
1000
0100
0010
0100
1000
0100
0010
0100
,  // measure 92
1000
0100
0010
0100
1000
0100
0010
0100
1000
0001
0100
0001
1000
0100
1000
0001
,  // measure 93
0100
0001
1000
0001
0100
0001
1000
0100
1000
0001
0100
0001
1000
0100
1000
0001
,  // measure 94
0100
0001
1000
0100
1000
0001
0100
0001
0010
0100
1000
0001
0010
0100
1000
0001
,  // measure 95
0010
0100
1000
0001
0010
0100
1000
0001
0010
0100
1000
0001
0010
0100
1000
0001
,  // measure 96
0010
0100
1000
0001
0010
0100
1000
0001
0010
0001
0010
0100
1000
0001
0010
0100
,  // measure 97
1000
0001
0010
0100
1000
0001
0010
0100
1000
0001
0010
0100
1000
0001
0010
0100
,  // measure 98
1000
0001
0010
0100
1000
0001
0010
0100
1000
0100
0010
0001
1000
0100
0010
0001
,  // measure 99
1000
0100
0010
0001
1000
0100
0010
0001
1000
0100
0010
0001
1000
0100
0010
0001
,  // measure 100
1000
0100
0010
0001
1000
0100
0010
0001
0100
0010
0100
0010
1000
0001
1000
0001
,  // measure 101
0100
0010
0100
0010
1000
0001
1000
0001
0010
0100
0010
0100
1000
0001
1000
0001
,  // measure 102
0100
0010
0100
0010
1000
0001
1000
0001
0010
0100
0010
0001
0100
0010
0100
0001
,  // measure 103
0010
0100
0010
0001
0100
0010
0100
0001
0010
0100
0010
0001
0100
0010
0100
0001
,  // measure 104
0010
0100
0010
0001
0100
0010
0100
0001
0100
0010
1000
0001
0100
0010
1000
0001
,  // measure 105
0100
0010
1000
0001
0100
0010
1000
0001
0100
0010
1000
0001
0100
0010
1000
0001
,  // measure 106
0100
0000
0000
0000
;
