#TITLE:Crasher-Vania;
#SUBTITLE:;
#ARTIST:Starbomb;
#TITLETRANSLIT:;
#SUBTITLETRANSLIT:;
#ARTISTTRANSLIT:;
#CREDIT:;
#BANNER:Crasher-Vania.png;
#BACKGROUND:;
#LYRICSPATH:;
#CDTITLE:;
#MUSIC:Crasher-Vania.ogg;
#OFFSET:2.019;
#SAMPLESTART:77.770;
#SAMPLELENGTH:12.160;
#SELECTABLE:YES;
#DISPLAYBPM:160.000;
#BPMS:0.000=160.000,351.750=-160.000,355.750=160.000;
#STOPS:;
#BGCHANGES:;

//---------------dance-single - HF 5-7/5-3-3----------------
#NOTES:
     dance-single:
     HF 5-7/5-3-3:
     Challenge:
     11:
     0.849,1.000,0.260,0.161,0.740: // measure 1
0000
0000
0000
0000
,  // measure 2
0000
0000
0000
0000
,  // measure 3
0000
0000
0000
0000
,  // measure 4
0000
0000
0000
0000
,  // measure 5
0000
0000
0000
0000
,  // measure 6
0000
0000
0000
0000
1000
0000
0001
0100
,  // measure 7
0000
0010
0000
1001
0000
0100
1000
0000
,  // measure 8
1001
0000
0001
0100
0000
1010
0000
0010
,  // measure 9
1000
0000
0100
0010
0001
0100
0010
1000
,  // measure 10
0000
0010
0010
1000
0001
1000
0002
0000
,  // measure 11
0003
0000
0001
0100
0010
1000
0100
1000
,  // measure 12
0000
0000
0001
1000
0001
0100
0010
0000
,  // measure 13
1000
0100
0000
0100
1000
0000
0010
0100
,  // measure 14
0001
0001
1001
1100
,  // measure 15
0001
1000
0010
0100
0001
1000
0100
1100
,  // measure 16
0000
0000
0100
1000
1000
0010
0100
0001
,  // measure 17
0010
0001
1000
0100
1000
0001
1000
1001
,  // measure 18
0000
1000
0001
0100
0010
1000
0100
0000
,  // measure 19
1000
0000
1000
0100
1000
0010
1000
0001
,  // measure 20
0000
0001
0100
0000
0010
1000
0100
1000
,  // measure 21
1000
0000
0001
0000
0000
0000
0000
0000
1001
0000
0000
0000
0001
0000
0100
0010
,  // measure 22
1000
0000
0000
0000
0110
0000
1001
0000
0000
0000
0000
0000
1000
0100
1000
0100
,  // measure 23
0010
0001
0010
0001
0100
0010
1000
0001
0100
0010
1000
0100
0010
0001
0100
0010
,  // measure 24
0100
0010
1000
0001
0100
0010
0100
0001
0010
0100
1000
0100
0010
0100
1000
0001
,  // measure 25
0100
0010
0100
0001
0010
0100
1000
0100
0010
0001
0010
0001
1000
0010
1000
0010
,  // measure 26
0100
0001
0100
0001
0100
0010
0100
0010
1000
0001
1000
0001
0100
0010
1000
0001
,  // measure 27
0100
0010
1000
0001
0100
0010
0100
0001
0010
0100
1000
0001
0100
0010
1000
0001
,  // measure 28
0010
0100
2000
0000
0000
0000
0000
0000
3001
0000
0100
0000
0100
0000
0000
0000
,  // measure 29
0010
0000
0010
1000
0100
0010
0001
0101
,  // measure 30
0200
0000
0000
0000
0000
0000
0301
0000
0001
0010
0001
0010
0001
0010
0100
1000
,  // measure 31
0100
1000
0100
1000
0001
0100
0010
1000
0010
1000
0010
1000
0100
0010
0001
0100
,  // measure 32
0001
0100
0001
0100
0010
1000
0100
0010
0001
0100
0010
1000
0100
0010
0001
0100
,  // measure 33
0010
1000
0001
0100
0010
0100
0001
0010
0100
1000
0001
0010
0001
0100
0010
0100
,  // measure 34
0001
0010
0001
1000
0001
0010
0001
1000
0001
0100
0001
0100
0010
0100
0010
1000
,  // measure 35
0010
1000
0010
0100
0001
0010
0100
1000
0100
0010
0001
1000
0010
0100
0001
0010
,  // measure 36
0001
1000
0001
0100
0001
1000
0010
1000
0100
0010
0100
0010
0001
1000
0001
1000
,  // measure 37
0100
0010
0001
0100
0010
1000
0001
0100
0010
1000
0001
0100
0001
1000
0001
1000
,  // measure 38
0020
0000
0000
0000
0130
0010
1000
0100
0010
0000
0001
0000
0100
0000
0020
0000
,  // measure 39
0000
0030
1000
1000
0010
1000
0010
0100
,  // measure 40
0001
0100
0001
1000
0010
1000
0000
1001
,  // measure 41
0000
0001
0100
0010
1000
0100
0010
0001
,  // measure 42
0001
0000
0001
1000
0010
1000
0100
0001
,  // measure 43
0100
0000
1000
0010
0001
0000
1010
0000
,  // measure 44
1001
0000
0000
0001
0010
0001
1000
0100
,  // measure 45
1000
0010
0100
0001
1000
1000
0001
0100
,  // measure 46
0101
0000
0001
0000
1000
0001
1000
0010
,  // measure 47
0000
0100
0000
1001
0000
1010
0000
0101
,  // measure 48
0001
0000
0010
0001
0000
0001
1000
0000
,  // measure 49
0001
1000
0010
1000
0000
0010
0000
1000
,  // measure 50
0001
0000
0001
0010
0100
1000
0001
1010
,  // measure 51
1001
0000
0000
0000
0001
0000
0100
0010
1000
0000
0100
0000
0010
0000
1001
0000
,  // measure 52
0000
0000
0001
0100
0110
1000
0100
0010
,  // measure 53
0001
1000
0010
0100
0001
1000
0001
MMMM
,  // measure 54
MMMM
0000
MMMM
0000
0110
0000
1001
0000
0000
0000
0000
0000
0001
0010
0001
0010
,  // measure 55
0100
1000
0100
1000
0010
0100
0001
1000
0010
0100
0001
0010
0100
1000
0010
0100
,  // measure 56
0010
0100
0001
1000
0010
0100
0010
1000
0100
0010
0001
0010
0100
0010
0001
1000
,  // measure 57
0010
0100
0010
1000
0100
0010
0001
0010
0100
1000
0100
1000
0001
0100
0001
0100
,  // measure 58
0010
1000
0010
1000
0010
0100
0010
0100
0001
1000
0001
1000
0010
0100
0001
1000
,  // measure 59
0010
0100
0001
1000
0010
0100
0010
1000
0100
0010
0001
1000
0010
0100
0001
1000
,  // measure 60
0100
0010
0001
0000
1000
0000
0010
0000
0001
0000
0000
0000
1000
0000
0100
0000
,  // measure 61
0001
0100
0000
0001
0011
1100
1010
0101
,  // measure 62
0001
0010
0001
1000
0100
0010
0002
0000
0000
0000
1003
0100
0010
0001
1000
0001
,  // measure 63
0100
0001
1000
0010
0100
0001
1000
0010
0100
0001
0010
0100
1000
0010
1000
0001
,  // measure 64
0100
0001
0100
0001
1000
0100
0010
0001
0010
0100
1000
0001
0100
0010
1000
0001
,  // measure 65
0010
0001
1000
0100
1000
0001
0100
0001
1000
0010
1000
0001
0100
0010
0100
0010
,  // measure 66
1000
0001
1000
0001
0100
0000
0001
0000
1000
0000
0100
0000
0010
0000
0001
0000
,  // measure 67
2002
0003
0000
0000
3001
0010
0100
1000
0001
1000
0001
0100
0001
0010
0001
0010
,  // measure 68
0100
1000
0100
1000
0001
0100
0001
0100
0010
1000
0100
0010
0001
0100
0010
1000
,  // measure 69
0100
1000
0010
0100
0001
1000
0010
0100
0010
1000
0001
0100
0010
1000
0001
0100
,  // measure 70
0010
1000
0010
1000
0010
0000
1000
0000
0001
0000
1000
0000
1100
0000
0000
0000
,  // measure 71
0001
0100
0001
1000
1001
1000
0001
1000
,  // measure 72
0000
0000
1000
0000
0100
0000
0010
0000
0001
0000
0100
0000
0010
1000
0001
1000
,  // measure 73
0001
0000
1000
0000
0000
0000
0001
0100
0010
0000
1000
0000
0100
0000
0010
0000
,  // measure 74
0000
0000
0000
0000
0000
0000
0100
0000
0010
0000
0001
0000
0100
0000
0010
1000
,  // measure 75
0001
0000
0000
0001
1000
0010
0100
1001
,  // measure 76
0000
0000
0001
0010
0001
1000
0100
1000
,  // measure 77
0000
0000
0000
0000
0020
0030
0000
0000
0000
0000
0000
0000
0000
0000
0110
0000
,  // measure 78
0000
0000
0000
0010
0010
1000
0100
1000
,  // measure 79
0000
0001
0000
0100
0000
0010
0000
1000
,  // measure 80
0100
0000
0010
0001
0110
0010
1000
0001
,  // measure 81
0000
0000
1000
0000
0001
0000
1000
0000
0000
0000
0010
0000
0000
0100
0000
0000
,  // measure 82
0001
0000
0000
1000
0001
0010
0100
0010
,  // measure 83
0001
1000
0010
0000
0010
0000
0100
0001
,  // measure 84
0000
0001
0010
0000
0100
1000
0010
0100
,  // measure 85
0001
1000
0100
0000
0100
1000
0010
0100
,  // measure 86
0001
1000
1001
0110
0200
0000
0320
0000
,  // measure 87
0030
1000
0000
0100
0000
0010
0000
0001
,  // measure 88
0100
0010
0100
0001
,  // measure 89
0002
0003
0000
0000
0002
0003
0200
0300
0000
0000
0020
0030
0000
0000
2000
3000
,  // measure 90
0200
0300
0000
0000
0000
0000
0000
0000
0000
0000
0000
0000
0000
0000
0000
0000
,  // measure 91
000M
0000
0000
0000
0002
0003
0200
0300
0000
0000
0020
0030
0000
0000
2000
3000
,  // measure 92
0100
0010
0001
0200
,  // measure 93
0000
0310
0000
1000
0000
0100
0000
0010
,  // measure 94
0001
0000
1010
0000
1000
0100
0010
0001
,  // measure 95
1000
0100
0010
0001
0100
0100
0010
0010
,  // measure 96
1000
1000
0001
0001
0020
0000
0030
0000
,  // measure 97
0000
0000
0000
0000
,  // measure 98
0000
0000
0000
0000
,  // measure 99
00M0
0000
0000
0000
;

//---------------dance-double - Couples----------------
#NOTES:
     dance-double:
     Couples:
     Challenge:
     11:
     0.914,1.000,0.484,0.309,0.842:
00000000
00000000
00000000
00000000
,
00000000
00000000
00000000
00000000
,
00000000
00000000
00000000
00000000
,
00000000
00000000
00000000
00000000
,
00000000
00000000
00000000
00000000
,
00000000
00000000
00000000
00000000
10000000
00000000
00010000
01000000
,
00000000
00100000
00000000
10010000
00000000
01000000
10000000
00000000
,
10010000
00000000
00010000
01000000
00000000
10100000
00000000
00100000
,
10000000
00000000
01000000
00100000
00010000
01000000
00100000
10000000
,
00000000
00100000
00100000
10000000
00010000
10000000
00020000
00000000
,
00030000
00000000
00010000
01000000
00100000
10000000
01000000
10000000
,
00000000
00000000
00010000
10000000
00010000
01000000
00100000
00000000
,
10000000
01000000
00000000
01000000
10000000
00000000
00100000
01000000
,
00010000
00010000
10010000
11000000
,
00010000
10000000
00100000
01000000
00010000
10000000
01000000
11000000
,
00000000
00000000
00000000
00000000
01000000
00000000
10000000
00000000
10000000
00000000
00100000
00000000
0100MMMM
00000MM0
00010MM0
00000MM0
,
00100MM0
00000MM0
00010MM0
00000MM0
10000MM0
00000000
01000000
00000000
1000MMMM
00000MM0
00010MM0
00000MM0
10000MM0
00000MM0
10010MM0
00000MM0
,
0000MMMM
00000000
10000000
00000000
00010MMM
0000M000
0100M000
0000M000
00100MM0
0000000M
1000000M
0000000M
0100MMMM
00000000
00000000
00000000
,
10000000
00000000
00000000
00000000
1000MMMM
00000MM0
01000MM0
00000MM0
10000MM0
00000MM0
00100MM0
00000MM0
10000MM0
00000MM0
00010MM0
00000MM0
,
0000MMMM
00000000
00010000
00000000
01000M00
00000M00
00000M00
00000M00
00100M00
00000M00
10000M00
00000M00
01000M00
00000000
10000000
00000000
,
10000M00
00000000
00010001
00000000
00000000
00000000
00000000
00000000
10010000
00000000
00000000
00000000
00011000
00000000
01000010
00100100
,
10000001
00000000
00000000
00000000
00000110
00000000
00001001
00000000
00000000
00000000
00000000
00000000
00000001
00000010
00000001
00000010
,
00000100
00001000
00000100
00001000
00000010
00000100
00000001
00001000
00000010
00000100
00000001
00000010
00000100
00001000
00000010
00000100
,
00000010
00000100
00000001
00001000
00000010
00000100
00000010
00001000
00000100
00000010
00000001
00000010
00000100
00000010
00000001
00001000
,
00000010
00000100
00000010
00001000
00000100
00000010
00000001
00000010
00000100
00001000
00000100
00001000
00000001
00000100
00000001
00000100
,
00000010
00001000
00000010
00001000
00000010
00000100
00000010
00000100
00000001
00001000
00000001
00001000
00000010
00000100
00000001
00001000
,
00000010
00000100
00000001
00001000
00000010
00000100
00000010
00001000
00000100
00000010
00000001
00001000
00000010
00000100
00000001
00001000
,
00000100
00000010
00000002
00000000
00000000
00000000
00000000
00000000
00010003
00000000
01000000
00000000
01000000
00000000
00000000
00000000
,
00100000
00000000
00100000
10000000
01000000
00100000
00010000
10010000
,
02000000
00000000
00000000
00000000
00000000
00000000
03001000
00000000
00001000
00000100
00001000
00000100
00001000
00000100
00000010
00000001
,
00000010
00000001
00000010
00000001
00001000
00000010
00000100
00000001
00000100
00000001
00000100
00000001
00000010
00000100
00001000
00000010
,
00001000
00000010
00001000
00000010
00000100
00000001
00000010
00000100
00001000
00000010
00000100
00000001
00000010
00000100
00001000
00000010
,
00000100
00000001
00001000
00000010
00000100
00000010
00001000
00000100
00000010
00000001
00001000
00000100
00001000
00000010
00000100
00000010
,
00001000
00000100
00001000
00000001
00001000
00000100
00001000
00000001
00001000
00000010
00001000
00000010
00000100
00000010
00000100
00000001
,
00000100
00000001
00000100
00000010
00001000
00000100
00000010
00000001
00000010
00000100
00001000
00000001
00000100
00000010
00001000
00000100
,
00001000
00000001
00001000
00000010
00001000
00000001
00000100
00000001
00000010
00000100
00000010
00000100
00001000
00000001
00001000
00000001
,
00000010
00000100
00001000
00000010
00000100
00000001
00001000
00000010
00000100
00000001
00001000
00000010
00001000
00000001
00000100
00000010
,
00002000
00000000
00000000
00003000
00011000
00100100
01000010
10000001
00011000
00000000
01000000
00000000
00100000
00000000
20000000
00000000
,
00000000
30000000
10000000
10000000
00100000
10000000
00100000
01000000
,
00010000
01000000
00010000
10000000
00100000
10000000
00000000
10010000
,
00000000
00010000
01000000
00100000
10000000
01000000
00100000
00010000
,
00010000
00000000
00010000
10000000
00100000
10000000
01000000
00010000
,
01000000
00000000
10000000
00100000
00010000
00000000
10100000
00000000
,
10010000
00000000
00000000
00010000
00100000
00010000
10000000
01000000
,
10000000
00100000
01000000
00010000
10000000
10000000
00010000
01000000
,
01010000
00000000
00010000
00000000
10000000
00010000
10000000
00100000
,
00000000
01000000
00000000
10010000
00000000
10100000
00000000
01010000
,
00010000
00000000
00100000
00010000
00000000
00010000
10000000
00000000
,
00010000
10000000
00100000
10000000
00000000
00100000
00000000
10000000
,
00010000
00000000
00010000
00100000
01000000
10000000
00010000
10100000
,
10010000
00000000
00000000
00000000
00010000
00000000
01000000
00100000
10000000
00000000
01000000
00000000
00100000
00000000
10010000
00000000
,
00000000
00000000
00000000
00000000
00010000
00000000
01000000
00000000
01100000
00000000
10000000
00000000
01000000
00000000
00100MM0
00000MM0
,
00010MM0
00000000
10000000
00000000
0010M000
00000M00
010000M0
0000000M
00010000
00000000
10000000
00000000
00010000
00001000
MMMM0000
00000001
,
MMMM0000
00001000
MMMM0000
00000000
00000110
00000000
00001001
00000000
00000000
00000000
00000000
00000000
00001000
00000100
00001000
00000100
,
00000010
00000001
00000010
00000001
00000100
00000010
00001000
00000001
00000100
00000010
00001000
00000100
00000010
00000001
00000100
00000010
,
02200100
00000010
03301000
00000001
00000100
00000010
00000100
00000001
00000010
00000100
00001000
00000100
00000010
00000100
00001000
00000001
,
00000100
00000010
00000100
00000001
00000010
00000100
00001000
00000100
00000010
00000001
00000010
00000001
00001000
00000010
00001000
00000010
,
00000100
00000001
00000100
00000001
00000100
00000010
00000100
00000010
00001000
00000001
00001000
00000001
00000100
00000010
00001000
00000001
,
00000100
00000010
00001000
00000001
00000100
00000010
00000100
00000001
00000010
00000100
00001000
00000001
00000100
00000010
00001000
00000001
,
00000010
00000100
00001000
00000010
20001000
00000000
00200000
30000000
00020000
00300000
00000000
00000000
20000000
00030000
02000000
30000000
,
00020000
03000000
02000000
00030000
00000000
03000000
00001000
00000000
00001100
00000000
00000011
00000000
00000101
00000000
00001010
00000000
,
20001000
00000100
30001000
00000001
02000010
00000100
03002000
00000000
00000000
00000000
00003001
00000010
00000100
00001000
00000001
00001000
,
00000010
00001000
00000001
00000100
00000010
00001000
00000001
00000100
00000010
00001000
00000100
00000010
00000001
00000100
00000001
00001000
,
00000010
00001000
00000010
00001000
00000001
00000010
00000100
00001000
00000100
00000010
00000001
00001000
00000010
00000100
00000001
00001000
,
00000100
00001000
00000001
00000010
00000001
00001000
00000010
00001000
00000001
00000100
00000001
00001000
00000010
00000100
00000010
00000100
,
00000001
00001000
00000001
00001000
00100010
00000000
00010000
00000000
10000000
00000000
01000000
00000000
00100000
00000000
00010000
00000000
,
20012002
00003000
00000000
00000000
30001003
00000100
00000010
00000001
00001000
00000001
00001000
00000010
00001000
00000100
00001000
00000100
,
00000010
00000001
00000010
00000001
00001000
00000010
00001000
00000010
00000100
00000001
00000010
00000100
00001000
00000010
00000100
00000001
,
00000010
00000001
00000100
00000010
00001000
00000001
00000100
00000010
00000100
00000001
00001000
00000010
00000100
00000001
00001000
00000010
,
00000100
00000001
00000100
00000001
00100100
00000000
10000000
00000000
00010000
00000000
10000000
00000000
11000000
00000000
00000000
00000000
,
00010000
01000000
00010000
10000000
10010000
10000000
00010000
10000000
,
00000000
00000000
00000001
00000000
00000010
00000000
00000100
00000000
00001000
00000000
00000010
00000000
00000100
00000001
00001000
00000001
,
00001000
00000000
00000001
00000000
00000000
00000000
00001000
00000010
00000100
00000000
00000001
00000000
00000010
00000000
00000100
00000000
,
00000000
00000000
00000000
00000000
00000000
00000000
00010000
00000000
00100000
00000000
00010000
00000000
01000000
00000000
00100000
10000000
,
00010000
00000000
00000000
00010000
10000000
00100000
01000000
10010000
,
00000000
00000000
00010000
00100000
00010000
10000000
01000000
10000000
,
00000000
00000000
00000000
00000000
00000200
00000300
00000000
00000000
00000000
00000000
00000000
00000000
00000000
00000000
00000110
00000000
,
00000000
00000000
00000000
00010000
10000000
10000000
01000000
10000000
,
00000000
00010000
00000000
01000000
00000000
00100000
00000000
10000000
,
01000000
00000000
00100000
00010000
01100000
00100000
10000000
00010000
,
00000000
00000000
10000000
00000000
00010000
00000000
10000000
00000000
00000000
00000000
00100000
00000000
00000000
01000000
00000000
00000000
,
00010000
00000000
00000000
10000000
00010000
00100000
01000000
00100000
,
00010000
10000000
00100000
00000000
00100000
00000000
01000000
00010000
,
00000000
00010000
00100000
00000000
01000000
10000000
00100000
01000000
,
00010000
10000000
01000000
00000000
01000000
10000000
00100000
01000000
,
00010000
10000000
10011001
01100110
02000020
00000000
03200230
00000000
,
00300300
10000001
00000000
01000010
00000000
00100100
00000000
00011000
,
01000010
00100100
01000010
00011000
,
00020002
00030003
00000000
00000000
00020002
00030003
02000200
03000300
00000000
00000000
00200020
00300030
00000000
00000000
20002000
30003000
,
02000200
03000300
00000000
00000000
00000000
00000000
00000000
00000000
00000000
00000000
00000000
00000000
00000000
00000000
00000000
00000000
,
000M0002
00000003
00000000
00000000
000M0002
00000003
0M000200
00000300
00000000
00000000
00M00020
00000030
00000000
00000000
M0002000
00003000
,
0M000100
00M00100
000M1000
0M000020
,
00000000
00M00130
00000000
M0000001
00000000
0M000010
00000000
00M00100
,
000M1000
00000000
M0M00101
00000000
M0000001
0M000010
00M00100
000M1000
,
M0000001
0M000010
00M00100
000M1000
0M000010
0M000010
00M00100
00M00100
,
M0000001
M0000001
000M1000
000M1000
00M00200
00000000
00000300
00000000
,
00000000
00000000
00000000
00000000
,
00000000
00000000
00000000
00000000
,
000M0000
00000000
00000000
00000000
;
