#TITLE:Can't Control Myself;
#SUBTITLE:;
#ARTIST:Krewella;
#TITLETRANSLIT:;
#SUBTITLETRANSLIT:;
#ARTISTTRANSLIT:;
#CREDIT:;
#BANNER:;
#BACKGROUND:;
#LYRICSPATH:;
#CDTITLE:;
#MUSIC:Can't Control Myself.ogg;
#OFFSET:-0.265;
#SAMPLESTART:62.760;
#SAMPLELENGTH:11.940;
#SELECTABLE:YES;
#DISPLAYBPM:100.000:200.000;
#BPMS:0.000=200.000,1.000=100.000,83.000=200.000,139.000=400.000,142.000=200.000,206.000=100.000,286.000=200.000,342.000=400.000,345.000=200.000;
#STOPS:139.000=1.650
,140.250=0.075
,140.750=0.075
,141.250=0.075
,141.750=0.075
,342.250=1.650
,343.250=0.075
,343.750=0.075
,344.250=0.075
,344.750=0.075
;
#BGCHANGES:;

//---------------pump-single - Highflyer----------------
#NOTES:
     pump-single:
     Highflyer:
     Hard:
     11:
     0.761,0.906,0.240,1.000,0.286:
00000
00000
00000
00000
,
00000
00000
00000
00000
,
00000
00000
00000
00000
,
00000
00000
00000
00000
,
00000
00000
00000
00000
00000
00000
00000
00000
00000
00000
00000
00000
10000
00000
00010
01000
,
00000
00001
10000
00000
00000
00000
00000
00000
00100
00000
10000
00000
00010
00000
00100
00000
,
00010
00000
01000
00000
00010
01000
00000
01100
00000
00000
00000
00000
01100
00000
00001
00100
,
00000
00001
10000
00000
00000
00000
00000
00000
00100
00000
10000
00000
01000
00000
00100
00010
,
00000
00000
01000
00000
00100
00000
01000
00001
00100
00000
00001
00000
10000
00000
00100
01000
,
00000
00010
00100
00000
00000
00000
00001
00000
10000
00000
00001
00000
00100
00000
00001
00000
,
00010
00000
00001
00000
01000
00000
10000
01000
00000
00000
00000
00000
00100
00000
01000
00010
,
00000
00100
00001
00000
10000
00000
00001
00000
10000
00000
00100
01000
00010
00000
00010
00000
,
00100
00000
00001
00000
00001
10000
00000
10100
00000
00000
00000
00000
02000
00000
00000
00000
,
00020
00000
03030
00010
01000
00100
02000
00000
,
00002
00000
03003
00001
10000
00100
00000
01000
,
00100
00000
10000
00010
00000
00000
00100
00000
00010
00000
01000
00000
00010
00000
00100
00000
,
00001
01000
00000
00100
00000
00000
10000
00000
00010
00000
00000
00000
00110
00000
00000
00000
,
02020
00000
03030
00100
01000
00001
00101
00000
,
20002
00000
30003
00100
10000
01000
00000
00100
,
00010
00000
01000
00100
00000
01000
10000
00000
01000
00000
00001
00000
00100
00000
00010
00000
,
10000
00000
00100
01000
00010
00000
00100
00000
00001
00000
10000
00000
10101
00000
00000
00000
,
10000
00000
00100
00000
10000
00000
00000
00000
00010
00000
00100
00000
00010
00000
01000
00100
,
01000
00010
00100
00001
00100
00001
10000
00000
,
00000
00000
10000
00000
00400
00000
10300
00100
,
10000
10000
00010
00010
,
01000
00000
10000
00000
01000
00000
00000
00000
00001
00000
00010
00000
00001
00000
10000
00010
,
01000
00010
00100
01000
10000
00001
00200
00320
,
20030
30002
00203
20300
30200
00302
20003
32000
,
03200
02300
03200
00320
00230
02300
03200
00000
,
00310
00100
00002
00000
10003
10000
00010
01000
,
00010
01000
00200
00300
10001
00000
20020
30030
,
00010
01000
00200
00300
01000
00001
20000
30200
,
00302
00003
00200
00300
20000
30000
20020
30030
,
00010
01000
00200
00300
01000
01000
00010
10000
,
00001
10000
00010
01000
00010
01000
10001
00000
,
10000
10000
10000
10000
10000
00000
00001
00010
,
00001
10000
00010
10000
00100
10000
00010
10000
00001
00000
10000
00000
00010
00000
00100
00000
,
01000
00000
00100
00000
00010
00000
00100
00000
00101
00000
00001
10000
00100
10000
00010
01000
,
00001
10000
00010
00100
00001
10000
00100
01000
00002
00000
02000
03000
00200
00303
02000
03000
,
00200
00300
20000
30000
00020
00030
20000
30000
00200
00300
00000
00000
02000
00000
03010
00000
,
00100
00000
00001
00000
00010
00000
00100
00000
01000
00000
00100
00000
10000
00010
00100
00010
,
10000
00002
02003
03020
20030
30200
02300
03200
,
20300
32000
03200
02300
23000
30200
02300
03020
,
02030
03002
00203
00320
00430
00300
01100
04000
,
03100
00000
20000
00000
30010
00000
00000
00000
00010
00000
10000
00001
10000
00000
00010
00000
,
20020
00000
30030
00000
10001
00000
00001
10000
,
00010
00000
00000
00000
00100
00010
00000
00000
00020
00000
00230
00000
02300
00000
03200
00000
,
00310
00200
02300
03200
00320
00030
000M0
01000
,
00200
00000
00300
00000
40000
30000
40000
30000
00001
00000
01000
00010
01000
00000
00001
00000
,
10000
00001
10000
00010
01010
00000
01100
00000
,
01001
00000
10001
00000
10100
00000
00100
01000
,
00000
01010
01100
00000
,
00000
00000
00000
00000
00000
00000
00001
10000
00100
01000
00010
00100
00010
01000
00100
01000
,
00001
00100
00001
10000
00100
10000
00010
01000
00010
00100
00010
01000
00100
01000
00001
00100
,
00001
10000
00100
10000
01000
00100
00010
01000
00010
01000
00100
01000
10000
01000
00001
00100
,
00001
10000
00100
10000
00010
00100
00010
01000
00010
00000
01000
00010
00000
01000
00100
00000
,
00000
00100
10000
00010
10000
00010
00100
00001
,
01000
00000
10000
00000
01000
00000
00000
00000
00001
00000
00100
00010
00000
01000
00010
00000
,
00000
00000
00000
00000
01000
00000
00100
00000
10000
00000
01000
00100
00010
00000
00010
00000
,
01000
00000
00100
00000
01000
00000
00000
00000
10000
00000
01000
00001
00000
00100
00010
00000
,
00000
00000
10000
00100
01000
00010
01000
00001
,
10000
00000
00100
00000
01000
00000
00000
00000
00010
00000
01000
00100
00000
01000
00010
00000
,
00000
00000
00000
00000
00010
00000
01000
00100
00000
00000
00100
00000
01000
00000
10000
00000
,
01000
00000
00001
00100
00000
00000
00010
00000
02000
00000
00000
00000
00020
00000
00000
00000
,
03030
00010
01000
00100
20000
00000
00002
00000
,
30003
00000
00001
00000
10000
00000
00100
00000
00000
00000
01000
00000
00010
00000
00100
00010
,
00000
00000
10000
00000
00100
00000
01000
00000
00010
00000
01000
00000
00001
00000
00100
00001
,
00000
10000
00001
00000
01001
00000
20020
00000
,
30030
00010
10000
00100
01100
00000
02020
00000
,
03030
00000
00010
00000
00100
00000
00001
00000
00000
00000
00100
00000
00001
00000
10000
00100
,
00000
00000
01000
00000
00010
00000
00100
00000
00010
00000
10000
00000
00100
00000
01000
00001
,
00000
10000
00001
00000
01110
00000
00010
01000
,
01100
00000
00000
00000
00200
00000
00300
00000
10000
00000
00001
01000
00010
00000
01000
00000
,
00100
10000
00010
01000
00200
00300
01000
00010
,
00200
00300
00010
00100
00020
20030
30002
00003
,
20000
00000
30002
00000
00203
00000
00310
01000
,
00002
00000
00000
00000
20003
00000
30200
00000
01300
00000
00010
10000
00001
00000
00010
00000
,
00001
00010
00001
10000
00200
02300
03020
00230
,
00320
20030
32000
03200
00320
00032
00023
00230
,
02300
23000
30200
02300
03002
00000
01003
00100
,
20000
00000
30004
00000
00103
00010
10000
00100
,
02000
00000
03001
00000
20100
00000
30010
10000
,
20001
00000
30400
04300
03020
02030
03200
00300
,
02000
00000
03002
00000
10103
00000
10000
00010
,
02000
00000
03100
00100
20000
30200
02300
03002
,
00203
00320
02030
03100
10001
00000
00100
00100
,
00100
00000
00100
00000
00100
00000
10000
00000
00001
00000
00010
10000
00100
01000
00010
01000
,
00100
01000
00001
00000
10000
00000
00100
01000
00010
00000
10000
00000
00010
00000
01000
00000
,
00001
00000
10000
00000
10010
00000
00010
00000
10000
00010
01000
00001
00100
00010
10000
00100
,
01000
00010
01000
00100
10000
00000
00004
00003
10000
00000
00020
00000
02030
00000
03200
00000
,
02300
00000
03002
00000
20003
00000
00000
00000
30200
00300
01000
00000
00002
00000
02003
00000
,
03200
00000
20300
00000
30002
00000
02003
03000
00001
10000
00001
00100
00001
00000
10000
00000
,
00100
01000
00020
02030
03200
02300
03002
20003
,
30200
02300
03020
00230
02300
23000
30200
02300
,
03020
00230
00301
00000
00100
00001
00000
10000
,
00100
00000
00000
00000
10000
00000
00010
01000
00100
00000
10000
00000
02002
00000
00000
00000
,
03003
00000
10001
00000
10000
00010
10010
00000
,
00010
01000
00020
00230
02300
03200
00320
00230
,
20300
30200
00302
00000
10003
00010
02000
00000
,
03010
00000
00010
00000
01000
00000
00010
10000
00010
00000
01000
00000
00001
00000
10000
00000
,
00010
00000
01000
00000
00200
00300
00000
00000
00200
00300
00000
00000
00200
00300
00000
00000
,
00200
00300
00000
00000
00200
00300
00000
00000
00100
00000
10000
00000
00000
00000
00000
00000
,
00001
10001
00000
00000
;

//---------------pump-single - Highflyer----------------
#NOTES:
     pump-single:
     Highflyer:
     Medium:
     7:
     0.439,0.468,0.189,0.029,0.043:
00000
00000
00000
00000
,
00000
00000
00000
00000
,
00000
00000
00000
00000
,
00000
00000
00000
00000
,
00000
00000
00000
00000
00000
00000
00100
10000
,
00010
00100
00000
00000
00010
01000
00100
00000
,
01000
00000
00001
00100
00001
00000
00001
10000
,
00100
01000
00000
00000
00100
01000
00010
00000
,
00110
00000
00010
01000
01010
00000
00010
00100
,
00001
10000
00000
00000
00001
10000
00100
00000
,
00100
01000
00010
00100
00110
00000
00010
01000
,
00100
01000
00000
00000
00100
01000
00001
00100
,
00001
00010
00001
10000
00100
00000
20100
00000
,
00200
00000
30300
00100
10000
00100
20100
00000
,
00200
00000
30300
00100
10000
00001
00000
00100
,
00001
00000
00000
00100
00000
00000
00001
00000
10000
00000
00100
00000
01000
00000
00010
00000
,
00100
00000
00000
00010
00000
00000
00100
00000
00010
00000
00000
00000
01010
00000
00000
00000
,
01100
00000
00000
00100
01000
00001
00101
00000
,
10001
00000
00000
00001
10000
00100
00000
01000
,
00010
00100
00010
00000
01000
00000
00010
01000
,
00100
10000
00001
00000
10000
00000
10001
00000
,
00000
00001
00000
10000
,
00100
00000
01000
00010
00100
00000
00001
00000
,
00000
00000
10001
00000
00000
00000
00001
10000
,
00100
10200
10300
10100
,
00000
00000
00100
00000
00000
00000
01000
00010
,
00100
00000
00010
00000
00100
00000
00001
10000
,
00000
00001
10000
00000
00100
10000
00000
01000
,
10000
00000
00010
00100
00010
00000
01000
00000
,
00000
00000
00010
00000
00000
00000
01000
00100
,
01000
00001
00000
00001
,
00000
00000
10000
00000
00000
00000
00100
10000
,
00100
10000
00100
10000
,
00000
00000
00010
00000
00000
00000
00100
00010
,
00100
00010
00100
00010
00100
00010
00100
00000
,
00010
00010
00010
00010
00010
00000
00010
10000
,
00000
00100
10000
00000
00001
01000
00001
00100
,
00010
00000
10000
00000
00100
00000
10000
00100
,
01000
00010
00100
00010
10000
00100
00000
10000
,
00100
00000
10000
00000
00001
00000
00000
00100
,
00001
00100
00001
01000
,
00010
00000
00100
00000
00010
10000
00100
00000
,
10000
00100
01000
00000
00010
00100
00010
00000
,
00100
00001
00100
00000
00001
00000
10000
00100
,
00000
10000
00010
00000
00100
00000
00010
00000
,
01010
00000
00000
00000
00010
00000
01000
00100
,
01000
00000
00001
00000
00100
00001
00100
00001
,
00100
00001
00100
00001
00100
00000
00000
00000
,
10001
00000
00000
00000
00100
10000
01000
10000
,
00010
00100
00010
00000
00100
00000
00010
00000
,
00100
00000
00010
00000
01000
00000
00010
01000
,
00000
01000
00110
00000
,
00000
00000
00010
01000
,
00100
01000
00001
10000
,
00100
00000
00000
00000
01000
00000
00000
00000
00010
00000
00100
00000
00010
00100
00000
00100
,
00000
00100
00000
00100
00100
00100
00100
00000
00010
00000
00000
00000
10000
00000
00000
00000
,
00100
00000
10000
00100
01000
00010
00100
00010
,
01000
00000
00100
00000
10000
00000
00000
00000
00100
00000
00000
10000
00000
00000
00100
00000
,
00000
00000
00000
00000
00100
00000
10000
00000
00001
00000
00000
00100
00000
00000
00001
00000
,
01000
00000
00010
00000
00100
00000
00000
00000
00010
00000
00000
01000
00000
00000
00010
00000
,
00000
00000
00010
00100
00001
00000
10000
00001
,
10000
00000
00100
00000
01000
00000
00000
00000
00010
00000
00000
00100
00000
00000
00001
00000
,
00000
00000
00001
10000
00100
00000
01000
00000
,
00010
00100
00010
00000
00110
00000
01010
00000
,
00000
00010
01000
00100
10100
00000
10001
00000
,
00000
00000
00001
00000
00100
00000
00010
00000
00000
00000
00010
00000
00100
00000
00000
00100
,
00000
00000
00010
00000
01000
00000
00100
00000
01000
00000
00001
00000
00100
00000
00000
00001
,
00000
10000
00001
00000
10001
00000
10100
00000
,
00000
00100
10000
00010
01010
00000
00110
00000
,
00000
00000
00010
00000
01000
00000
00100
00000
00000
00000
01000
00000
00100
00000
00000
01000
,
00000
00000
00001
00000
10000
00000
00100
00000
01000
00000
00010
00000
00100
00000
00000
00001
,
00000
10000
00100
00000
10100
00000
00100
10000
,
00100
00000
10000
00000
00001
00100
00001
00000
,
00100
00001
00100
00000
00010
00000
01000
00000
,
00010
00000
01000
00000
00100
10000
01000
00000
,
00100
00000
00010
00000
01000
00000
00100
01000
,
10000
00000
01000
00001
00100
00000
00001
00000
,
10000
00000
00100
00000
01000
00010
00100
00010
,
01000
00010
01000
00010
01000
00010
01000
00010
,
01000
00010
01000
00010
01000
00000
00000
00000
,
00100
00000
00000
00000
01000
00001
00100
00001
,
10000
00000
00001
00000
,
10000
00000
00000
00000
00100
10000
00100
00000
,
10100
10100
00100
00000
,
00100
00000
00000
00000
01000
00010
00100
00010
,
10000
00100
01000
00010
10000
00000
00100
00100
,
00100
00100
00100
00000
10000
00100
00000
10000
,
00001
00000
10000
00001
00100
00010
01000
00000
,
00100
00000
01000
00000
00100
01000
00100
01000
,
00100
01000
00100
01000
00000
00001
00100
00000
,
00001
00000
10000
00000
00000
00100
10000
00000
,
00010
00100
00010
01000
,
00100
00000
01000
10000
01000
00000
00001
00100
,
00001
00000
10000
00100
01000
00000
00010
00100
,
00010
00000
10000
00000
00100
10000
00000
10000
,
00100
00000
01000
00010
00100
00010
01000
00000
,
00000
00000
00010
00000
01000
00100
01000
00000
,
00001
00100
00001
00100
00001
00100
00001
00100
,
00001
00100
00001
00000
00000
00000
10001
00000
,
00000
00000
00100
10000
00100
01000
00010
00100
,
00010
01000
00010
00000
01010
00000
00110
00000
,
01010
00000
01100
00000
00100
01000
00000
00000
,
00100
01100
00000
00000
;

//---------------dance-single - Highflyer----------------
#NOTES:
     dance-single:
     Highflyer:
     Challenge:
     10:
     0.726,0.906,0.366,0.675,0.286: // measure 1
0000
0000
0000
0000
,  // measure 2
0000
0000
0000
0000
,  // measure 3
0000
0000
0000
0000
,  // measure 4
0000
0000
0000
0000
,  // measure 5
0000
0000
0000
0000
0000
0000
0000
0000
0000
0000
0000
0000
0001
0000
1000
0100
,  // measure 6
0000
1000
0001
0000
0000
0000
0000
0000
0001
0000
0100
0000
0010
0000
1000
0000
,  // measure 7
0001
0000
1000
0000
0100
1000
0000
1100
0000
0000
0000
0000
0100
0000
1000
0010
,  // measure 8
0000
0100
0001
0000
0000
0000
0000
0000
0001
0000
1000
0000
0010
0000
0100
0001
,  // measure 9
0100
0000
0001
0000
0010
0000
0100
0000
1100
0000
0000
0000
0100
0000
1000
0010
,  // measure 10
0000
0100
0001
0000
0000
0000
0000
0000
0001
0000
1000
0000
0010
0000
0010
0000
,  // measure 11
1000
0000
0001
0000
0100
0000
0001
0100
0000
0000
0000
0000
0001
0000
0100
0001
,  // measure 12
0000
1000
0100
0000
0000
0000
0000
0000
1000
0000
0010
0100
0000
0000
0100
0000
,  // measure 13
0001
0000
1000
0000
0100
1000
0000
1100
0000
0000
0000
0000
1001
0000
0000
0000
,  // measure 14
0220
0000
0330
1000
0010
0100
0101
0000
,  // measure 15
2002
0000
3003
0001
0100
0010
0000
1000
,  // measure 16
0010
0000
1000
0001
0000
0100
0001
0000
1000
0000
0100
0000
1000
0000
0010
0000
,  // measure 17
0100
0000
0001
1000
0000
0000
1000
0000
1100
0000
0000
0000
1001
0000
0000
0000
,  // measure 18
0220
0000
0330
0001
1000
0001
0011
0000
,  // measure 19
2200
0000
3300
0100
1000
0010
0000
0100
,  // measure 20
0010
0000
0100
0010
0000
1000
0001
0000
1000
0000
0100
0000
1000
0000
0010
0000
,  // measure 21
0100
0000
0001
1000
0000
0000
0100
0000
1100
0000
0000
0000
1001
0000
0000
0000
,  // measure 22
0001
0000
1000
0000
0100
0000
0000
0000
0100
0000
1000
0000
0010
0000
1000
0001
,  // measure 23
0100
0010
1000
0001
1000
0010
1010
0000
,  // measure 24
0010
1000
1001
0000
1000
0100
2000
3020
,  // measure 25
2030
3000
2002
3003
2020
3030
0101
0000
,  // measure 26
0100
0000
0001
0000
1000
0000
0000
0000
1000
0000
0001
0000
0100
0000
0010
1000
,  // measure 27
0001
0001
1000
0010
1000
0001
0020
0032
,  // measure 28
2003
3200
2300
3002
0023
2030
3020
0032
,  // measure 29
0023
2030
3020
0032
2003
3020
1030
0000
,  // measure 30
1000
0100
0001
0000
0001
0100
1000
0001
,  // measure 31
0010
0100
2200
0000
0000
3300
1100
0000
,  // measure 32
0001
1000
0010
0000
1000
0001
0200
2300
,  // measure 33
3200
0000
0302
0000
2003
3000
1100
0000
,  // measure 34
0100
1000
0010
0000
1000
0001
0100
0010
,  // measure 35
1000
0001
1000
0010
1000
0001
1001
0000
,  // measure 36
1000
0000
1000
0000
1000
0000
1000
0000
1000
0000
0001
0010
0100
1000
0100
0010
,  // measure 37
0100
1000
0001
0100
0010
1000
0001
1000
0001
0000
1000
0100
1000
0000
0001
0000
,  // measure 38
1000
0000
0100
0000
1000
0000
0001
0000
1000
0000
0010
0000
1000
0100
0010
0001
,  // measure 39
1000
0100
0010
0001
0100
0010
1000
0001
0100
0000
0002
0000
0003
0000
1000
0000
,  // measure 40
0001
1000
0100
1000
1001
0000
0000
0001
,  // measure 41
1000
0000
0010
0000
0100
0000
0001
0000
1000
0000
0010
0000
1000
0001
1000
0100
,  // measure 42
1000
0010
1000
0010
2000
3020
0032
2003
,  // measure 43
3200
0302
2003
3200
0302
2003
3020
0032
,  // measure 44
0023
0230
2300
3100
1100
0000
0001
1000
,  // measure 45
0000
0000
0010
0000
1000
0000
0000
0000
0010
0000
1000
0100
1000
0000
0001
0000
,  // measure 46
2020
0000
0000
3030
1001
0000
0000
0000
1100
0000
0000
0000
0100
0000
1000
0000
,  // measure 47
0001
0000
0100
0001
0010
0010
0010
0010
,  // measure 48
0010
0010
0010
0010
0011
0000
0001
1000
,  // measure 49
0100
0000
0000
0000
1000
0000
0010
0000
0100
0000
0001
1000
0010
0000
1000
0000
,  // measure 50
0001
1000
0010
0100
0010
0000
0010
0000
,  // measure 51
0010
0000
0010
0000
0010
0000
0010
1000
,  // measure 52
0000
0001
1001
0000
,  // measure 53
0000
0000
0000
0000
0000
0000
0000
0000
0001
1000
0010
1000
0001
0100
0010
1000
,  // measure 54
0001
0010
0100
1000
0001
0100
0010
0100
1000
0100
0001
0100
0010
1000
0100
0010
,  // measure 55
0001
0010
1000
0010
0001
1000
0010
0100
0001
0000
1000
0000
0010
1000
0000
0001
,  // measure 56
0000
0100
0000
0010
1000
0100
1000
0001
1000
0000
0001
1000
0000
0100
1000
0000
,  // measure 57
0000
0000
0010
0100
0001
0001
1000
0010
,  // measure 58
1000
0000
0100
0000
1100
0000
0000
0000
0100
0000
1000
0100
0000
1000
0010
0000
,  // measure 59
0000
0000
0000
0000
0100
0000
0010
0000
1010
0000
0010
0100
0000
0100
0001
0000
,  // measure 60
0010
0000
0001
0000
0011
0000
0000
0000
0001
0000
1000
0100
0000
1000
0010
0000
,  // measure 61
0000
0000
0010
0100
0110
0010
1000
0001
,  // measure 62
1001
0000
1100
0000
0101
0000
0000
0000
0001
0000
1000
0010
0000
0100
0001
0000
,  // measure 63
0000
0000
0000
0000
0001
0000
1000
0010
0000
0000
0100
0000
0010
0000
1000
0000
,  // measure 64
0100
0000
1000
0100
0000
0000
0000
0000
1001
0000
0000
0000
0220
0000
0000
0000
,  // measure 65
0330
0001
1000
0100
1100
0000
0202
0000
,  // measure 66
0303
0000
0001
0000
1000
0000
0010
0000
0000
0000
0010
0000
0100
0000
0001
1000
,  // measure 67
0000
1000
0010
0000
0100
0000
0001
0000
1000
0000
0100
0000
0010
0000
0001
1000
,  // measure 68
0000
1000
1001
0000
1100
0000
0202
0000
,  // measure 69
0303
0001
0010
0100
1100
0000
0202
0000
,  // measure 70
0303
0000
0001
0000
0100
0000
0010
0000
0000
0000
0010
0000
1000
0000
0100
1000
,  // measure 71
0000
1000
0001
0000
0100
0000
0010
0000
1000
0000
0001
0000
0010
0000
0001
1000
,  // measure 72
0000
0100
1001
0000
1001
0000
0001
1000
,  // measure 73
0100
0000
0000
0000
1000
0000
0001
0000
0100
0000
0010
0100
0010
0000
1000
0000
,  // measure 74
0010
1000
0010
1000
1100
0000
0100
1000
,  // measure 75
0001
0000
1000
0001
1000
1000
0001
0000
,  // measure 76
1001
0000
1001
0000
1100
0000
0100
1000
,  // measure 77
0010
0000
0000
0000
0100
0000
0001
0000
1000
0000
0001
1000
0100
0000
0100
0000
,  // measure 78
1000
0010
0100
0001
0020
2030
3020
0032
,  // measure 79
0203
0320
0230
0302
0203
0320
0230
0320
,  // measure 80
2030
3200
2300
3002
0103
0000
0001
1000
,  // measure 81
0100
0000
1000
0100
1000
0010
0100
0001
,  // measure 82
2002
0000
0000
3003
1100
0000
0000
0000
0101
0000
0000
0000
0001
0000
1000
0000
,  // measure 83
0100
0000
1000
0001
0200
0320
2030
3000
,  // measure 84
2200
3300
0202
0303
1010
0000
0010
1000
,  // measure 85
0001
0000
0100
0001
1000
0010
1000
0001
,  // measure 86
1000
0010
1000
0001
1000
0000
0001
0001
,  // measure 87
0001
0000
0001
0000
0001
0000
1000
0100
1000
0100
0010
0001
0010
0001
0100
0010
,  // measure 88
1000
0001
0100
0010
1000
0000
0100
0010
0001
0000
1000
0000
0010
0000
0100
0000
,  // measure 89
0001
0000
0010
0000
0100
0000
1000
0000
0100
0010
0001
1000
0100
0010
0001
1000
,  // measure 90
0010
0100
0001
1000
0100
0000
0220
0000
0330
0000
0010
0000
0001
0000
0100
0000
,  // measure 91
0010
1000
1100
0000
0200
0310
0001
0100
,  // measure 92
1000
0000
0100
0000
0001
0000
1000
0000
0100
0010
0001
0000
1000
0000
0010
0000
,  // measure 93
0100
0010
2000
3200
0302
0203
2300
3200
,  // measure 94
0302
0203
2300
3020
0032
0023
2030
3020
,  // measure 95
0032
0023
1030
0000
0100
1000
0000
1000
,  // measure 96
0001
0000
0000
0000
1000
0000
0001
0100
0010
0000
1000
0000
2002
0000
0000
0000
,  // measure 97
3003
0000
1100
0000
1000
0001
0100
0000
,  // measure 98
0001
1000
0020
0230
0320
0230
0320
0230
,  // measure 99
0320
0230
0310
0000
1000
0010
1000
0000
,  // measure 100
0001
0000
0010
0000
0001
0000
1000
0100
0010
0000
0001
0000
1000
0000
0010
0000
,  // measure 101
1000
0010
1000
0000
0100
0000
0010
0000
,  // measure 102
0100
0000
0010
0000
0100
0010
0000
0000
,  // measure 103
0011
1001
0000
0000
;
