#TITLE:Boomerang;
#SUBTITLE:;
#ARTIST:Rinat Arinos;
#TITLETRANSLIT:;
#SUBTITLETRANSLIT:;
#ARTISTTRANSLIT:;
#CREDIT:;
#BANNER:Boomerang.png;
#BACKGROUND:;
#LYRICSPATH:;
#CDTITLE:;
#MUSIC:Boomerang.ogg;
#OFFSET:0.664;
#SAMPLESTART:68.640;
#SAMPLELENGTH:14.960;
#SELECTABLE:YES;
#DISPLAYBPM:136.000;
#BPMS:0.000=136.000,48.500=272.000,50.000=136.000,129.000=68.000,129.500=136.000,260.750=272.000,261.500=136.000,276.000=272.000,277.000=136.000,413.500=68.000;
#STOPS:48.500=0.110
,49.000=0.110
,49.500=0.110
,260.750=0.055
,261.000=0.055
,261.250=0.055
,276.000=0.110
,276.500=0.110
;
#BGCHANGES:;

//---------------dance-single - HF 16/16/34----------------
#NOTES:
     dance-single:
     HF 16/16/34:
     Challenge:
     12:
     1.000,0.913,0.037,0.223,1.000: // measure 1
0000
0000
0000
0000
,  // measure 2
1000
0010
0100
0002
2000
0000
3003
0000
,  // measure 3
1000
0100
0010
0002
2000
0000
3003
0000
,  // measure 4
0000
0000
0000
1000
0010
0200
0000
0002
,  // measure 5
0000
0020
0000
0333
0000
0000
0000
0000
,  // measure 6
0001
0100
0001
0020
0200
0000
0330
0100
,  // measure 7
1000
0010
0100
0002
0200
0000
0303
0000
,  // measure 8
0000
2001
0000
3001
0100
0020
0000
2000
,  // measure 9
0000
0000
0200
0000
0000
0000
3330
0000
1001
0000
1000
0100
1000
0000
0010
0100
,  // measure 10
0010
0000
0100
0001
1000
0000
0001
0100
0010
0000
0100
0001
0010
0000
0100
1000
,  // measure 11
0001
0000
0100
0010
1000
0000
0001
0100
0010
0000
0100
0010
1000
0000
0100
0010
,  // measure 12
0100
0000
1000
0010
1000
0000
0001
0100
0010
0000
0100
0001
0010
0000
0100
1000
,  // measure 13
0001
0000
1000
0000
0010
0000
1000
0000
0001
0010
0001
1000
0001
0010
0100
1000
,  // measure 14
0100
0010
0100
1000
0100
0010
0100
0010
0001
0100
0001
1000
0001
0100
0010
1000
,  // measure 15
0001
1000
0010
1000
0010
0100
0010
0100
0001
0100
0010
1000
0100
0010
0001
0100
,  // measure 16
0001
1000
0001
0010
0001
1000
0001
0100
0001
1000
0001
0010
0001
1000
0001
0100
,  // measure 17
0001
1000
0001
0010
0100
1000
0100
1000
0010
0100
0010
0100
0001
0100
0010
1000
,  // measure 18
0001
0100
0010
1000
0001
0100
0010
1000
0100
0010
0001
1000
0100
0010
0001
0100
,  // measure 19
0010
1000
0001
1000
0001
0100
0001
0010
0100
1000
0100
0010
0001
0010
0100
1000
,  // measure 20
0100
1000
0001
1000
0010
1000
0001
1000
0100
1000
0001
1000
0010
1000
0001
1000
,  // measure 21
0100
1000
0001
1000
0010
0100
0001
0010
0100
0010
0001
0010
0100
0010
0001
0010
,  // measure 22
0100
0010
0001
0100
0010
1000
0010
0100
0010
0100
0001
1000
0001
1000
0100
0010
,  // measure 23
0100
0010
0001
1000
0001
1000
0100
0010
0001
0010
0100
1000
0100
0010
0001
0010
,  // measure 24
0100
1000
0100
0010
0001
0100
0010
1000
0010
0100
0001
0100
0010
1000
0010
0100
,  // measure 25
0001
0100
0010
1000
0010
0100
0001
0100
0010
1000
0010
1000
0010
1000
0001
0100
,  // measure 26
0001
1000
0001
0100
0001
1000
0001
0100
0010
0100
0010
1000
0010
0100
0010
0100
,  // measure 27
0001
0100
0010
1000
0100
0010
0001
0100
0010
1000
0100
0010
0001
1000
0001
0010
,  // measure 28
0001
1000
0001
0100
0001
1000
0001
0010
0001
1000
0001
0100
0001
1000
0001
0010
,  // measure 29
0001
1000
0001
0100
0001
1000
0001
0010
0100
0000
0000
0000
0000
0000
0000
0000
,  // measure 30
1000
0010
0100
0200
0002
0000
0303
0000
,  // measure 31
0001
0010
0001
0200
0020
0000
0330
0000
,  // measure 32
0000
0000
0000
0010
1000
0002
0000
2000
,  // measure 33
0000
0000
0020
0000
0000
3033
1001
0000
0000
0000
0000
0000
0001
0000
0100
0000
,  // measure 34
0010
1000
0200
0020
0000
0330
0000
0001
,  // measure 35
0100
0010
2000
0200
0000
3300
0000
0000
,  // measure 36
0000
1000
0001
1000
0002
0000
2000
0000
,  // measure 37
0200
0000
0000
0000
3303
0000
1001
0000
1000
0100
1000
0000
0001
0100
0010
1000
,  // measure 38
0100
0010
0001
0000
0100
0010
0100
0000
0010
1000
0001
0000
0010
0100
0010
0001
,  // measure 39
0100
0010
0100
0000
0010
1000
0001
0000
0010
0100
1000
0000
0100
0010
0001
1000
,  // measure 40
0010
0100
0010
0000
1000
0100
1000
0000
0001
0100
0010
1000
0100
0010
0001
0000
,  // measure 41
1000
0100
0010
0001
1000
0001
1000
0100
1000
0001
1000
0100
0010
0001
0010
0100
,  // measure 42
0010
0001
0010
0100
0010
0100
1000
0010
1000
0001
1000
0010
0100
0001
1000
0001
,  // measure 43
0100
0001
0100
0010
0100
0010
1000
0010
0100
0001
0010
0100
1000
0010
1000
0001
,  // measure 44
1000
0100
1000
0001
1000
0010
1000
0001
1000
0100
1000
0001
1000
0010
1000
0001
,  // measure 45
1000
0100
0010
0001
0010
0001
0100
0010
0100
0010
1000
0010
0100
0001
1000
0010
,  // measure 46
0100
0001
1000
0010
0100
0001
0010
0100
1000
0001
0010
0100
1000
0010
0100
0001
,  // measure 47
1000
0001
1000
0010
1000
0100
0010
0001
0010
0100
1000
0100
0010
0001
0010
0001
,  // measure 48
1000
0001
0100
0001
1000
0001
0010
0001
1000
0001
0100
0001
1000
0001
0010
0001
,  // measure 49
1000
0001
0100
0010
1000
0100
0010
0100
1000
0100
0010
0100
1000
0100
0010
0100
,  // measure 50
1000
0010
0100
0001
0100
0010
0100
0010
1000
0001
1000
0001
0010
0100
0010
0100
,  // measure 51
1000
0001
1000
0001
0010
0100
1000
0100
0010
0001
0010
0100
1000
0100
0010
0001
,  // measure 52
0010
0100
1000
0010
0100
0001
0100
0010
1000
0010
0100
0001
0100
0010
1000
0010
,  // measure 53
0100
0001
0100
0010
1000
0010
0100
0001
0100
0001
0100
0001
1000
0010
1000
0001
,  // measure 54
1000
0010
1000
0001
1000
0010
0100
0010
0100
0001
0100
0010
0100
0010
1000
0010
,  // measure 55
0100
0001
0010
0100
1000
0010
0100
0001
0010
0100
1000
0001
1000
0100
1000
0001
,  // measure 56
1000
0010
1000
0001
1000
0100
1000
0001
1000
0010
1000
0001
1000
0100
1000
0001
,  // measure 57
1000
0010
1000
0001
1000
0100
0010
0000
0000
0000
0001
0000
1000
0000
1000
0000
,  // measure 58
1000
1000
1000
0100
0020
0031
1000
0020
,  // measure 59
0130
0000
0001
0000
0010
0000
0100
0010
0001
0100
0010
1000
0100
0010
0001
0100
,  // measure 60
0010
1000
0010
0100
0001
1000
0100
1000
0100
0000
1100
0000
1000
0010
1000
0000
,  // measure 61
1001
0000
0001
0010
0100
1000
0001
0000
1000
0100
1000
0000
0001
0100
0001
0010
,  // measure 62
0100
1000
0001
0100
0010
1000
0001
0010
0100
1000
0000
0010
0100
0010
1000
0000
,  // measure 63
0100
0010
0001
0100
0010
1000
0001
0010
0100
1000
0000
0100
0010
0001
0100
0010
,  // measure 64
1000
0100
1000
0010
1000
0001
0010
0000
0100
1000
0100
0000
0010
0001
0010
0000
,  // measure 65
0001
0100
0001
0000
1000
0100
1000
0000
0010
0100
0010
0000
1000
0001
1000
0000
,  // measure 66
0010
0100
0001
0010
0001
0010
0002
0000
0000
0000
0000
0000
2000
0000
0000
0000
,  // measure 67
3003
0000
0000
1020
0000
0230
0002
0000
,  // measure 68
0300
2003
0000
3200
0000
2300
0200
0000
,  // measure 69
0000
0000
0000
0000
0000
0000
0000
0000
0000
0000
0000
0000
0000
0000
0000
3300
0000
0000
0000
0000
0000
0000
0100
1000
,  // measure 70
0100
0000
0100
0000
0100
0000
1000
0100
1000
0001
1000
0100
0010
0001
0010
0100
,  // measure 71
0010
0001
0010
0100
0010
0100
1000
0010
1000
0001
1000
0010
0100
0001
1000
0001
,  // measure 72
0100
0001
0100
0010
0100
0010
1000
0010
0100
0001
0010
0100
1000
0010
1000
0001
,  // measure 73
1000
0100
1000
0001
1000
0010
1000
0001
1000
0100
1000
0001
1000
0010
1000
0001
,  // measure 74
1000
0100
0010
0001
0010
0001
0100
0010
0100
0010
1000
0010
0100
0001
1000
0010
,  // measure 75
0100
0001
1000
0010
0100
0001
0010
0100
1000
0001
0010
0100
1000
0010
0100
0001
,  // measure 76
1000
0001
1000
0010
1000
0100
0010
0001
0010
0100
1000
0100
0010
0001
0010
0001
,  // measure 77
1000
0001
0100
0001
1000
0001
0010
0001
1000
0001
0100
0001
1000
0001
0010
0001
,  // measure 78
1000
0001
0100
0010
1000
0100
0010
0100
1000
0100
0010
0100
1000
0100
0010
0100
,  // measure 79
1000
0010
0100
0001
0100
0010
0100
0010
1000
0001
1000
0001
0010
0100
0010
0100
,  // measure 80
1000
0001
1000
0001
0010
0100
1000
0100
0010
0001
0010
0100
1000
0100
0010
0001
,  // measure 81
0010
0100
1000
0010
0100
0001
0100
0010
1000
0010
0100
0001
0100
0010
1000
0010
,  // measure 82
0100
0001
0100
0010
1000
0010
0100
0001
0100
0001
0100
0001
1000
0010
1000
0001
,  // measure 83
1000
0010
1000
0001
1000
0010
0100
0010
0100
0001
0100
0010
0100
0010
1000
0010
,  // measure 84
0100
0001
0010
0100
1000
0010
0100
0001
0010
0100
1000
0001
1000
0100
1000
0001
,  // measure 85
1000
0010
1000
0001
1000
0100
1000
0001
1000
0010
1000
0001
1000
0100
1000
0001
,  // measure 86
1000
0010
1000
0001
1000
0001
1000
0100
1000
0001
1000
0100
0010
0001
0010
0100
,  // measure 87
0010
0001
0010
0100
0010
0100
1000
0010
1000
0001
1000
0010
0100
0001
1000
0001
,  // measure 88
0100
0001
0100
0010
0100
0010
1000
0010
0100
0001
0010
0100
1000
0010
1000
0001
,  // measure 89
1000
0100
1000
0001
1000
0010
1000
0001
1000
0100
1000
0001
1000
0010
1000
0001
,  // measure 90
1000
0100
0010
0001
0010
0001
0100
0010
0100
0010
1000
0010
0100
0001
1000
0010
,  // measure 91
0100
0001
1000
0010
0100
0001
0010
0100
1000
0001
0010
0100
1000
0010
0100
0001
,  // measure 92
1000
0001
1000
0010
1000
0100
0010
0001
0010
0100
1000
0100
0010
0001
0010
0001
,  // measure 93
1000
0001
0100
0001
1000
0001
0010
0001
1000
0001
0100
0001
1000
0001
0010
0001
,  // measure 94
1000
0001
0100
0010
1000
0100
0010
0100
1000
0100
0010
0100
1000
0100
0010
0100
,  // measure 95
1000
0010
0100
0001
0100
0010
0100
0010
1000
0001
1000
0001
0010
0100
0010
0100
,  // measure 96
1000
0001
1000
0001
0010
0100
1000
0100
0010
0001
0010
0100
1000
0100
0010
0001
,  // measure 97
0010
0100
1000
0010
0100
0001
0100
0010
1000
0010
0100
0001
0100
0010
1000
0010
,  // measure 98
0100
0001
0100
0010
1000
0010
0100
0001
0100
0001
0100
0001
1000
0010
1000
0001
,  // measure 99
1000
0010
1000
0001
1000
0010
0100
0010
0100
0001
0100
0010
0100
0010
1000
0010
,  // measure 100
0100
0001
0010
0100
1000
0010
0100
0001
0010
0100
1000
0001
1000
0100
1000
0001
,  // measure 101
1000
0010
1000
0001
1000
0100
1000
0001
1000
0010
1000
0001
1000
0100
1000
0001
,  // measure 102
1000
0010
1000
0001
1000
0100
0010
0001
0100
0010
1000
0100
0010
0001
0100
0010
,  // measure 103
1000
0100
0010
0001
0100
0010
1000
0001
0100
0010
1000
0100
0010
0001
1000
0100
,  // measure 104
0010
0001
1000
0010
0100
0001
1000
0000
0002
0200
0000
0000
0000
0000
0000
0000
,  // measure 105
0303
0000
0000
0000
;
