#TITLE:Alone Together;
#SUBTITLE:-Krewella Remix-;
#ARTIST:Fall Out Boy feat. Krewella;
#TITLETRANSLIT:;
#SUBTITLETRANSLIT:;
#ARTISTTRANSLIT:;
#CREDIT:;
#BANNER:;
#BACKGROUND:;
#LYRICSPATH:;
#CDTITLE:;
#MUSIC:Alone Together -Krewella Remix-.ogg;
#OFFSET:0.560;
#SAMPLESTART:68.640;
#SAMPLELENGTH:14.940;
#SELECTABLE:YES;
#DISPLAYBPM:174.000;
#BPMS:0.000=174.000;
#STOPS:;
#BGCHANGES:;

//---------------dance-single - Highflyer----------------
#NOTES:
     dance-single:
     Highflyer:
     Challenge:
     11:
     0.690,1.000,0.556,0.050,0.258: // measure 1
0000
0000
0000
0000
,  // measure 2
0000
0000
0000
0000
,  // measure 3
0000
0000
0000
1000
,  // measure 4
0000
0001
0000
0000
0100
0000
0010
0100
,  // measure 5
0001
0010
0000
0000
0000
0000
0100
0000
,  // measure 6
0000
1000
0000
0000
0010
0000
0100
0001
,  // measure 7
0010
0100
1000
0001
0000
0000
1000
0000
,  // measure 8
0000
0001
0000
0000
0100
0000
0010
0100
,  // measure 9
0010
1000
0000
0000
0000
0000
0100
0000
,  // measure 10
0000
0010
0000
0000
0001
0000
0100
0010
,  // measure 11
1000
0001
0010
0100
1000
0000
0010
0000
,  // measure 12
0000
1000
0010
0000
0000
0000
0010
0000
,  // measure 13
1000
0000
0001
0010
0011
0000
2200
0000
,  // measure 14
0300
3100
1000
0000
0010
0000
0100
0000
,  // measure 15
0010
0000
1000
0010
0100
0000
0001
0000
,  // measure 16
0010
0000
0100
1000
0010
0000
0100
0000
,  // measure 17
0001
0010
0001
1000
0001
0000
0001
1000
,  // measure 18
0100
0000
0100
0000
1000
0000
0001
0000
1000
0100
0010
0001
0100
0010
0100
0001
,  // measure 19
0010
0100
1000
0010
0200
0000
0000
0000
0320
0000
0000
0000
1000
0000
0030
0000
,  // measure 20
1000
0100
0010
0001
0010
0001
0100
0010
,  // measure 21
1000
0000
0010
0100
1001
0001
0100
0001
,  // measure 22
0011
0100
1000
0001
0110
0010
1000
0001
,  // measure 23
1010
0000
0001
1000
0011
0000
0001
1000
,  // measure 24
1100
0000
0100
1000
1010
0000
1001
0000
,  // measure 25
0101
0000
0000
0000
0001
0000
0010
0000
0110
0000
0100
0000
1000
0000
0100
0010
,  // measure 26
0001
1000
0010
1000
0001
0000
1000
0000
0010
0100
0001
0010
0100
1000
0001
1000
,  // measure 27
0002
0000
0000
0003
1001
0000
0000
0000
,  // measure 28
0110
0000
0000
0000
0001
0000
0001
1001
,  // measure 29
0000
0010
0110
0000
1001
0000
0000
0000
,  // measure 30
1100
0000
0000
0000
0100
0000
0100
1010
,  // measure 31
0000
0010
1001
0010
0101
0000
0000
0000
,  // measure 32
1001
0000
0000
0000
0100
0000
0100
1010
,  // measure 33
0000
0010
0110
0000
1001
0000
0001
1000
,  // measure 34
1100
0100
0010
0001
1001
1000
0001
0100
,  // measure 35
0010
1000
0001
0010
0001
0100
0001
1000
0100
0000
0000
0000
0000
0000
0000
0000
,  // measure 36
1001
0000
0000
0000
1001
0000
0001
0011
,  // measure 37
0000
0010
0110
1000
1001
0000
0000
0000
,  // measure 38
1001
0000
0000
0000
1010
0000
0010
0110
,  // measure 39
0000
0010
1010
1000
0011
0000
0000
0000
,  // measure 40
1100
0000
0000
0000
1001
0000
0001
0101
,  // measure 41
0000
0001
0110
1000
1100
0000
0100
0000
,  // measure 42
0100
0010
0001
0100
0010
0000
1000
0000
,  // measure 43
1001
0000
0000
0000
1001
0000
0000
1000
,  // measure 44
0000
0000
1010
0000
0110
0000
0100
1010
,  // measure 45
0000
0000
0110
0000
1001
0000
0001
1100
,  // measure 46
0000
0000
0100
0000
1010
0000
0100
1010
,  // measure 47
0000
0010
1001
1000
0001
0010
0100
1000
,  // measure 48
0001
0100
0010
1000
0001
0100
0010
0100
,  // measure 49
0001
0000
0010
0000
0100
0000
1000
0000
0001
1000
0100
0010
0001
0100
0010
1000
,  // measure 50
0100
0010
0100
1000
0001
0100
0010
0100
0001
0010
0100
1000
0001
0100
0010
1000
,  // measure 51
0002
0000
0000
0003
1001
0000
0001
1000
,  // measure 52
0010
0000
0010
0010
0000
0010
0100
0001
,  // measure 53
0010
0100
1000
0001
1000
0000
1000
1000
,  // measure 54
1000
0000
1000
1000
0000
0001
1000
0010
,  // measure 55
0100
0000
0001
0010
0001
0000
0010
0000
0100
0000
0000
0000
0010
0000
0010
0000
,  // measure 56
0010
0000
0010
0010
0000
0010
0001
1000
,  // measure 57
0010
0000
0100
0000
0001
0000
1000
0000
0001
0000
0100
0000
0000
0000
0100
0001
,  // measure 58
1000
0000
0100
0000
0000
0000
0100
0010
0001
0000
1000
0000
0100
0000
1000
0000
,  // measure 59
0100
0010
0001
0100
0010
1000
0010
0100
0001
0000
0000
0000
0001
0000
0100
0000
,  // measure 60
0010
0000
0010
0010
0000
0010
1000
0100
,  // measure 61
0010
0001
1000
0010
0100
0000
0100
0100
,  // measure 62
0100
0000
0100
0100
0000
0010
1000
0001
,  // measure 63
0010
0000
0001
1000
0100
0000
1000
0000
0001
0000
0000
0000
1000
0000
1000
0000
,  // measure 64
1000
0000
1000
1000
0000
1000
0001
0100
,  // measure 65
0010
1000
0001
0010
0001
0010
0000
0001
,  // measure 66
0010
0001
0000
0001
1000
0100
0000
1000
,  // measure 67
0010
0100
0010
1000
0100
0010
0001
0010
0100
0000
0000
0000
1000
0000
0000
0000
,  // measure 68
0001
0000
0010
0001
1000
0000
1000
0000
,  // measure 69
0100
0000
1000
0010
0100
0001
0000
0001
,  // measure 70
0010
0000
0000
1100
0000
0000
1000
0000
,  // measure 71
1010
0010
1000
0001
1001
0000
0001
0100
,  // measure 72
0001
0010
0001
1000
1001
0000
0001
1000
,  // measure 73
0010
0100
0001
1000
1001
0100
0000
0001
,  // measure 74
1000
0000
0100
0000
0000
0000
0100
0000
0010
0001
0100
0010
1000
0001
0100
0010
,  // measure 75
0100
0001
0010
0100
1000
0100
0010
0001
1000
0000
0000
0000
1001
0000
0000
0000
,  // measure 76
0110
1010
1001
1100
,  // measure 77
0101
0000
0001
0001
0010
0001
0000
0001
,  // measure 78
1000
0000
0100
1000
0010
0000
0010
0000
,  // measure 79
1000
0000
0001
0000
0101
0000
0001
1000
,  // measure 80
0100
1000
0001
0100
0101
0000
0001
1000
,  // measure 81
0010
1000
0100
1000
1100
0000
0000
0100
,  // measure 82
1000
0010
0000
0010
0100
0001
1000
0010
,  // measure 83
1000
0001
1000
0000
0110
0000
0000
0000
,  // measure 84
1001
0000
0000
0000
0001
0000
0100
0010
,  // measure 85
1000
0000
1000
0010
1000
0100
0000
0000
,  // measure 86
1001
0000
0000
0000
0001
0100
0010
0000
,  // measure 87
1000
0000
0100
1000
0010
0100
0000
0000
,  // measure 88
1001
0000
0000
0000
0001
0100
0010
1000
,  // measure 89
0100
1000
0001
0100
0010
0000
0000
0010
,  // measure 90
0100
0000
0000
0010
1000
0000
0000
0000
,  // measure 91
1001
0000
0000
0000
0000
0000
0000
0000
1100
0000
0100
0000
0010
0000
0001
0100
,  // measure 92
0010
0000
1000
0000
0100
0000
0010
0001
1000
0000
0010
0000
0100
0000
0010
1000
,  // measure 93
0001
0000
0010
0000
0100
0000
1000
0100
0010
0000
0001
0000
0100
0000
0010
0100
,  // measure 94
0001
0000
0010
0000
0100
0000
1000
0100
0010
0000
0001
0000
0100
0000
0010
0100
,  // measure 95
0010
0000
0100
0000
0010
0000
1000
0100
0010
0001
0100
0010
1000
0100
0010
0100
,  // measure 96
1000
0001
0100
0010
0100
0001
0010
0100
1000
0100
0010
0001
0100
0010
1000
0100
,  // measure 97
0010
0001
0100
0010
1000
0001
0100
0010
1000
0100
0010
0001
1000
0100
0010
0001
,  // measure 98
0100
0010
0100
0001
0010
0100
1000
0100
0010
0100
1000
0010
0100
0001
1000
0100
,  // measure 99
2000
0000
0000
0000
3010
0000
0010
1000
,  // measure 100
0100
0000
0010
0001
0000
0010
0001
1000
,  // measure 101
0010
0100
0001
1000
0100
0000
0100
0100
,  // measure 102
0100
0000
0100
0100
0000
0100
1000
0010
,  // measure 103
0100
0001
0010
0001
1000
0000
1000
1000
,  // measure 104
1000
0000
1000
1000
0000
1000
0001
0100
,  // measure 105
0010
1000
0001
0010
0001
0010
0000
0001
,  // measure 106
0010
0000
0100
0000
0000
0000
0100
0000
1000
0000
0010
1000
0001
0010
0100
1000
,  // measure 107
0001
0100
0010
1000
0100
0010
0001
0000
1000
0000
0000
0000
0001
0000
0100
0000
,  // measure 108
0010
0000
0010
0010
0000
0010
1000
0100
,  // measure 109
0010
0001
0100
0010
1000
0000
1000
1000
,  // measure 110
1000
0000
1000
1000
0000
1000
0001
0100
,  // measure 111
0010
0000
0100
0010
0100
0000
0001
0000
0100
0000
0000
0000
0100
0000
0100
0000
,  // measure 112
0100
0000
0100
0100
0000
0100
0010
1000
,  // measure 113
0001
0000
0010
0000
0100
0000
1000
0000
0001
0010
0100
0010
0001
0100
0010
1000
,  // measure 114
0100
0010
0001
0010
0100
1000
0100
0010
0100
1000
0010
0100
0001
0010
0100
1000
,  // measure 115
0002
0000
0000
0003
0101
0000
1010
0000
,  // measure 116
0000
1100
0000
0000
1001
0000
0001
1000
,  // measure 117
0100
0010
0000
0000
0110
0000
1001
0000
,  // measure 118
0000
0101
0000
0000
1010
0000
0010
1000
,  // measure 119
0100
0010
0001
1000
0010
0000
1010
0000
,  // measure 120
0000
0011
0000
0000
1010
0000
0010
0100
,  // measure 121
0001
0010
0000
0000
0000
0000
0011
0000
,  // measure 122
0000
0101
0000
0000
0011
0000
0001
0010
,  // measure 123
0100
1000
0010
0100
1001
0000
1001
0000
,  // measure 124
0010
1001
0000
0000
1010
0000
0010
1000
,  // measure 125
0001
1000
0100
0010
1001
0000
0011
0000
,  // measure 126
0000
0101
0000
0000
1001
0000
0001
0010
,  // measure 127
0100
1000
0010
0100
0001
0000
0001
0000
,  // measure 128
0000
0001
0000
0000
0001
0000
0001
1000
,  // measure 129
0010
0100
0000
0000
0000
0000
1010
0000
,  // measure 130
0000
1001
0000
0000
1100
0000
0001
0100
,  // measure 131
0010
1000
0001
1000
0100
0000
0110
0000
,  // measure 132
0000
1001
0000
0000
1100
0000
0100
1000
,  // measure 133
0010
0100
0000
0000
0000
0000
1001
0000
,  // measure 134
0000
1010
0000
0000
0101
0000
0001
0010
,  // measure 135
0100
1000
0001
0100
0000
0000
0101
0000
,  // measure 136
0000
1010
0000
0000
1100
0000
0100
0010
,  // measure 137
0001
0100
0000
0000
0000
0000
0101
0000
,  // measure 138
0000
1010
0000
0000
1100
0000
0100
1000
,  // measure 139
0010
1000
0100
0010
2002
0000
0000
0000
,  // measure 140
0000
0000
0000
3003
;
