#TITLE:Ai~n!;
#SUBTITLE:Dance no Uta;
#ARTIST:Mini Moni;
#TITLETRANSLIT:;
#SUBTITLETRANSLIT:;
#ARTISTTRANSLIT:;
#CREDIT:;
#BANNER:Ai-N.png;
#BACKGROUND:Ai-N-bg.png;
#LYRICSPATH:;
#CDTITLE:;
#MUSIC:Ai~N -Dance No Uta-.ogg;
#OFFSET:0.494;
#SAMPLESTART:69.240;
#SAMPLELENGTH:14.920;
#SELECTABLE:YES;
#DISPLAYBPM:160.000;
#BPMS:0.000=160.000;
#STOPS:;
#BGCHANGES:;

//---------------dance-single - Highflyer----------------
#NOTES:
     dance-single:
     Highflyer:
     Challenge:
     12:
     1.000,1.000,0.419,0.146,1.000: // measure 1
0000
0000
0002
0000
,  // measure 2
2003
0000
3002
0000
,  // measure 3
2003
0000
0000
0000
,  // measure 4
0000
0000
0000
0000
0000
0000
0000
0000
3010
1000
0001
0100
0010
1000
0001
0010
,  // measure 5
0200
0000
0000
0000
0000
0000
0000
0000
1300
0001
0000
1000
0001
0000
0100
0000
,  // measure 6
0010
0000
1000
0000
0001
0010
0100
1000
0001
0100
0010
1000
0001
0000
0010
0100
,  // measure 7
0000
1000
0001
0000
0100
0000
0010
0100
0002
0000
0000
0000
0000
0000
0000
0000
,  // measure 8
1003
0010
0000
0010
0100
0000
0001
0000
0010
0100
1000
0000
0001
0000
0100
0010
,  // measure 9
1000
0000
0001
0100
0001
0000
0010
0100
2000
0000
0000
0000
3001
0000
0100
0000
,  // measure 10
0010
0000
0100
0000
0010
0000
1000
0100
1000
0010
0100
0010
0100
0000
0010
0100
,  // measure 11
0000
0100
0001
0000
0010
0000
0100
1000
0001
0000
0100
0000
0010
0000
0100
0001
,  // measure 12
1000
0000
0100
0010
0001
0000
1000
0000
1000
0010
0100
0001
0010
0000
0100
1000
,  // measure 13
0000
1000
0001
0000
1000
0000
0001
0100
0010
0100
0001
0010
0100
1000
0001
0100
,  // measure 14
0010
0100
0001
0010
0100
1000
0100
0010
0001
0100
0010
1000
0001
0100
0010
1000
,  // measure 15
0001
0000
0100
0000
0000
0000
0000
0000
0001
0100
0001
0100
0001
1000
0010
0100
,  // measure 16
0010
0100
0010
1000
0001
0010
0001
0010
0001
0100
0010
1000
0010
1000
0010
0100
,  // measure 17
0001
0000
0010
0000
0000
0000
0000
0000
0100
1000
0100
1000
0100
0010
0001
0100
,  // measure 18
0001
0100
0001
1000
0100
0010
0100
0010
0100
1000
0001
0100
0001
0100
0001
1000
,  // measure 19
0010
0000
1000
0000
0000
0000
0000
0000
1000
0010
1000
0100
0010
0001
0100
0010
,  // measure 20
0100
0001
0010
0100
1000
0010
1000
0000
0010
0000
0010
0000
1000
0000
1000
0000
,  // measure 21
0100
0100
1000
1000
0010
2000
3010
0000
,  // measure 22
1100
0000
0000
1001
0000
0000
0001
0100
0010
0000
1000
0000
0010
0000
0100
0000
,  // measure 23
1001
0110
0000
0000
0000
0110
1001
0000
,  // measure 24
1000
0100
0010
0001
0000
0000
2000
0000
0002
0000
3003
0000
1000
0000
0000
0000
,  // measure 25
0001
0000
0000
0100
0000
0000
0110
0000
0010
0100
0001
0010
0100
1000
0001
0100
,  // measure 26
0010
0100
0001
0010
0100
1000
0100
0010
0001
0100
0010
1000
0001
0100
0010
1000
,  // measure 27
0001
0000
1000
0000
0000
0000
0000
0000
0001
1000
0001
0100
0010
0000
0000
0000
,  // measure 28
0110
0000
0000
1001
0000
0000
0001
0000
1000
0010
1000
0010
1000
0001
1000
0001
,  // measure 29
1000
0100
1000
0100
0020
0000
0000
0000
0031
0010
0001
0100
0010
1000
0010
0100
,  // measure 30
0010
1000
0100
0010
0001
0100
0001
0010
0100
1000
0100
0010
0001
0100
0010
0100
,  // measure 31
0010
0000
1000
0000
0000
0000
0000
0000
0010
1000
0010
0100
0001
0010
0100
0010
,  // measure 32
0100
1000
0010
0100
0001
0010
0001
1000
0001
0000
0001
0000
1000
0000
1000
0000
,  // measure 33
0010
0000
0010
0000
0100
0000
0100
0000
0001
0010
0001
0010
0100
1000
0100
1000
,  // measure 34
0010
0000
0010
0000
0010
0000
0000
0000
0100
0001
0100
0001
1000
0010
1000
0010
,  // measure 35
0100
0000
0100
0000
0100
0000
0000
0000
0100
0010
0100
0010
1000
0001
1000
0001
,  // measure 36
0010
0000
0010
0000
0010
0000
0000
0000
0010
0001
0010
0001
1000
0010
1000
0010
,  // measure 37
0100
0100
0100
0000
1001
0100
0101
0100
,  // measure 38
0110
0010
1010
1000
1100
0100
0110
0001
,  // measure 39
0011
0010
0110
0100
1100
1001
0101
0110
,  // measure 40
1010
1100
0110
0011
0101
2020
0000
0000
,  // measure 41
0000
0000
0000
0000
3030
0000
0000
0000
0010
0100
0001
0010
0100
1000
0001
0100
,  // measure 42
0010
0100
0001
0010
0100
1000
0100
0010
0001
0100
0010
1000
0001
0100
0010
1000
,  // measure 43
0001
0000
0100
0000
0000
0000
0000
0000
0001
0100
0001
0100
0001
1000
0010
0100
,  // measure 44
0010
0100
0010
1000
0001
0010
0001
0010
0001
0100
0010
1000
0010
1000
0010
0100
,  // measure 45
0001
0000
0010
0000
0000
0000
0000
0000
0100
1000
0100
1000
0100
0010
0001
0100
,  // measure 46
0001
0100
0001
1000
0100
0010
0100
0010
0100
1000
0001
0100
0001
0100
0001
1000
,  // measure 47
0010
0000
1000
0000
0000
0000
0000
0000
1000
0010
1000
0100
0010
0001
0100
0010
,  // measure 48
0100
0001
0010
0100
1000
0010
1000
0000
0010
0000
0010
0000
1000
0000
1000
0000
,  // measure 49
0001
0000
0001
0000
0100
0000
0100
0000
0100
0001
0000
0001
0100
0000
0010
0000
,  // measure 50
1000
0000
0100
0000
0010
0001
0100
0010
0100
0010
0100
0010
0100
0000
0010
0100
,  // measure 51
0000
0100
0001
0000
1000
0000
0100
1000
0020
0000
0000
0000
0000
0000
0000
0000
,  // measure 52
0130
0010
0000
0100
0001
0000
0010
0000
0100
1000
0001
0000
0100
0000
0010
1000
,  // measure 53
0001
0010
0100
0010
0001
0000
1000
0100
0020
0000
0000
0000
0031
0000
0001
0000
,  // measure 54
1000
0000
1000
0000
0010
0100
0001
0010
0001
0010
0001
0010
0001
0000
1000
0100
,  // measure 55
0000
0100
1000
0000
0010
0000
0100
0001
0010
0000
0100
1000
0001
0000
0100
0000
,  // measure 56
0010
0100
0001
0010
0100
0000
1000
0000
0100
0010
0000
0001
1000
0000
0010
0100
,  // measure 57
0010
0000
1001
0000
0000
0000
0000
0000
0001
0100
0010
1000
0001
0000
0000
0000
,  // measure 58
0001
0000
0000
0000
1000
0000
0001
0000
1000
0000
0000
0000
0100
0000
0000
0010
0000
0000
0001
0000
0000
0100
0000
0000
,  // measure 59
0110
0000
1001
0000
0000
0000
0000
0000
1000
0100
0010
0001
1000
0000
0000
0000
,  // measure 60
0010
0100
0010
1000
0000
0000
1001
0000
0110
0000
0000
0000
1000
0000
0000
0000
,  // measure 61
0010
0000
0000
0100
0000
0000
0011
0000
0010
0100
1000
0001
0100
0010
0100
0001
,  // measure 62
0010
0100
1000
0001
0100
0010
0100
0001
0010
0100
1000
0001
0100
0010
0100
0001
,  // measure 63
0010
0100
0000
0000
0000
0110
1001
0000
,  // measure 64
0001
0100
0010
0100
0000
0000
0100
0000
0101
0000
0000
0000
1010
0000
0000
0000
,  // measure 65
0011
0000
0000
0000
1100
0000
0000
0000
0100
1000
0100
1000
0100
0010
0001
0100
,  // measure 66
0001
0100
0001
1000
0100
0010
0100
0010
0100
1000
0001
0100
0001
0100
0001
1000
,  // measure 67
0010
0000
1000
0000
0000
0000
0000
0000
1000
0010
1000
0100
0010
0001
0100
0010
,  // measure 68
0100
0001
0010
0100
1000
0010
1000
0000
0001
0000
0001
0000
0100
0000
0100
0000
,  // measure 69
0010
0000
0010
0000
1000
0000
1000
0000
0100
1000
0100
1000
0001
0100
0001
0100
,  // measure 70
0010
0000
0010
0000
0010
0000
0000
0000
0100
0010
0100
0010
1000
0100
1000
0100
,  // measure 71
0010
0000
0010
0000
0010
0000
0000
0000
0001
1000
0001
1000
0100
0010
0100
0010
,  // measure 72
0001
0000
0001
0000
0001
0000
0000
0000
1000
0010
1000
0010
0100
0001
0100
0001
,  // measure 73
0010
0010
0010
0000
0011
0001
1001
1000
,  // measure 74
1100
0100
0110
0010
0011
0001
1001
1000
,  // measure 75
1010
0010
0110
0100
0101
1001
1010
0110
,  // measure 76
0101
0011
0110
1000
0020
0200
0000
0000
,  // measure 77
0000
0000
0000
0000
0330
0000
0000
0000
0010
0100
0001
0010
0100
1000
0001
0100
,  // measure 78
0010
0100
0001
0010
0100
1000
0100
0010
0001
0100
0010
1000
0001
0100
0010
1000
,  // measure 79
0001
0000
0100
0000
0000
0000
0000
0000
0001
0100
0001
0100
0001
1000
0010
0100
,  // measure 80
0010
0100
0010
1000
0001
0010
0001
0010
0001
0100
0010
1000
0010
1000
0010
0100
,  // measure 81
0001
0000
0010
0000
0000
0000
0000
0000
0100
1000
0100
1000
0100
0010
0001
0100
,  // measure 82
0001
0100
0001
1000
0100
0010
0100
0010
0100
1000
0001
0100
0001
0100
0001
1000
,  // measure 83
0010
0000
1000
0000
0000
0000
0000
0000
1000
0010
1000
0100
0010
0001
0100
0010
,  // measure 84
0100
0001
0010
0100
1000
0100
1000
0000
0100
0000
0100
0000
0010
0000
0010
0000
,  // measure 85
0100
0000
0100
0000
0010
0000
0010
0000
0100
1000
0000
0100
1000
0000
1000
0001
,  // measure 86
0000
0100
0001
0000
0010
0000
0010
0000
0100
1000
0000
1000
0001
0000
0001
0100
,  // measure 87
0000
0100
0010
0000
1000
0010
1000
0100
0010
0001
0000
0100
0010
0000
0100
0010
,  // measure 88
0000
1000
0010
0000
0100
0000
0100
0000
0010
0100
0000
0010
1000
0001
0000
0010
,  // measure 89
0100
1000
0000
0001
0100
0010
0000
0100
0010
1000
0000
1000
0001
0000
0010
0100
,  // measure 90
0000
0100
1000
0000
0001
0000
0001
0000
0100
0010
0000
0010
1000
0000
1000
0001
,  // measure 91
0000
0010
0100
0000
1000
0010
0100
0001
1000
0010
0000
0100
0001
0000
0010
0100
,  // measure 92
0000
1000
0001
0000
1000
0000
1000
0000
1001
0000
0000
0000
1001
0000
0000
0000
,  // measure 93
1001
1001
0110
0110
,  // measure 94
0110
0000
0110
0000
1000
0100
0010
0001
,  // measure 95
1000
0000
0100
0000
0010
0000
0001
0000
0100
0010
1000
0100
0010
0001
0100
0010
,  // measure 96
1000
0000
0000
0100
0000
0000
0010
0000
0000
0001
0000
0000
1000
0000
0010
0000
1000
0000
0010
0000
1000
0000
0010
0000
1000
0000
0000
0000
0000
0000
1000
0000
0000
0000
0000
0000
0100
0000
0000
0000
0000
0000
0010
0000
0000
0000
0000
0000
,  // measure 97
0010
0000
0001
0000
0100
0000
0100
0000
0010
1000
0010
1000
0010
0000
0100
0010
,  // measure 98
0000
0100
0010
0000
0100
0000
0001
0100
0001
0010
0001
0010
0100
1000
0100
1000
,  // measure 99
0001
0000
0001
0000
0001
0000
0000
0000
0001
0100
0001
0100
0010
1000
0010
1000
,  // measure 100
0001
0000
0001
0000
0001
0000
0000
0000
0010
0100
0010
0100
1000
0001
1000
0001
,  // measure 101
0100
0000
0100
0000
0100
0000
0000
0000
0010
0100
0010
0100
0001
0010
0001
0010
,  // measure 102
0100
0100
0100
0000
1100
1000
1010
0010
,  // measure 103
0110
0100
0101
0001
0011
0010
0110
0100
,  // measure 104
1100
1000
1001
0001
0101
0110
1010
1100
,  // measure 105
0110
0011
0101
0110
1010
0202
0000
0000
,  // measure 106
0000
0000
0000
0000
,  // measure 107
0303
0000
0000
0000
1010
0000
0000
0000
0010
0100
0001
0010
0100
1000
0001
0100
,  // measure 108
0010
0100
0001
0010
0100
1000
0100
0010
0001
0100
0010
1000
0001
0100
0010
1000
,  // measure 109
0001
0000
0100
0000
0000
0000
0000
0000
0001
0100
0001
0100
0001
1000
0010
0100
,  // measure 110
0010
0100
0010
1000
0001
0010
0001
0010
0001
0100
0010
1000
0010
1000
0010
0100
,  // measure 111
0001
0000
0010
0000
0000
0000
0000
0000
0100
1000
0100
1000
0100
0010
0001
0100
,  // measure 112
0001
0100
0001
1000
0100
0010
0100
0010
0100
1000
0001
0100
0001
0100
0001
1000
,  // measure 113
0010
0000
1000
0000
0000
0000
0000
0000
1000
0010
1000
0100
0010
0001
0100
0010
,  // measure 114
0100
0001
0010
0100
1000
0010
1000
0000
0010
0000
0010
0000
0100
0000
0100
0000
,  // measure 115
0001
0000
0001
0000
1000
0000
1000
0000
0001
0100
0000
0001
0100
0000
0010
0000
,  // measure 116
0010
0000
0010
0000
0010
1000
0100
0010
0100
0010
0100
0010
0100
0000
0010
0001
,  // measure 117
0000
0001
0100
0000
0010
0000
0100
0001
0020
0230
2300
3000
0002
0000
0203
0000
,  // measure 118
0310
0100
0000
0100
0010
0000
1000
0000
0100
0010
0001
0000
1000
0000
0010
0100
,  // measure 119
0001
0010
0100
1000
0001
0000
1000
0100
0020
0000
0000
0000
0030
0000
0010
0000
,  // measure 120
0010
0000
0010
0000
0010
0001
1000
0100
1000
0100
1000
0100
1000
0000
0010
0100
,  // measure 121
0000
0100
0001
0000
0010
0000
0100
1000
0001
0000
0100
0000
0010
0000
1000
0100
,  // measure 122
0010
0001
0100
0010
0100
0000
0010
0100
0010
1000
0000
0100
0010
0000
0001
0100
,  // measure 123
0000
0010
1000
0000
0100
0010
0001
1000
0010
0100
0000
0010
0100
0000
0010
1000
,  // measure 124
0000
1000
0100
0000
0010
0001
0100
0010
1000
0100
0000
0010
0001
0000
0100
0010
,  // measure 125
0000
0100
0001
0000
0010
0100
1000
0001
0100
0010
0000
0100
0001
0000
0010
0001
,  // measure 126
0000
0100
0010
0000
1000
0000
0010
0000
2002
0000
0000
0000
0000
0000
0000
0000
,  // measure 127
0000
0000
0000
0000
,  // measure 128
0000
0000
0000
0000
3003
0000
1000
0001
,  // measure 129
0000
0000
2002
0000
,  // measure 130
0000
0000
3003
0000
;
