#TITLE:Aerodynamic;
#SUBTITLE:;
#ARTIST:Daft Punk;
#TITLETRANSLIT:;
#SUBTITLETRANSLIT:;
#ARTISTTRANSLIT:;
#CREDIT:;
#BANNER:Aerodynamic-bn.png;
#BACKGROUND:Aerodynamic-bg.png;
#LYRICSPATH:;
#CDTITLE:;
#MUSIC:Aerodynamic.ogg;
#OFFSET:0.176;
#SAMPLESTART:50.280;
#SAMPLELENGTH:15.000;
#SELECTABLE:YES;
#DISPLAYBPM:122.870;
#BPMS:0.000=122.880,289.000=61.435,297.000=122.880,409.000=61.435;
#STOPS:;
#BGCHANGES:;

//---------------dance-single - HF 40/16----------------
#NOTES:
     dance-single:
     HF 40/16:
     Challenge:
     11:
     0.880,0.807,0.179,0.019,1.000: // measure 1
0000
0000
0000
0000
,  // measure 2
0000
0000
0000
0000
,  // measure 3
0000
0000
0000
0000
,  // measure 4
0000
0000
0000
0000
,  // measure 5
0000
0000
0000
0000
,  // measure 6
0000
0000
0000
0000
,  // measure 7
0000
0000
0000
0000
,  // measure 8
0000
0000
0000
0000
,  // measure 9
0000
0000
0000
0000
1001
0000
0001
0000
0100
0000
0001
0000
0100
0010
0100
0000
,  // measure 10
0010
0000
1010
0000
1100
0000
0100
0000
0010
0000
0001
0000
0100
0010
0100
0000
,  // measure 11
0010
0000
1000
0000
1100
0000
0100
0000
0010
0000
0011
0000
0001
0100
0001
0000
,  // measure 12
0101
0000
0100
0000
0100
0000
0010
0000
1000
0100
0000
1000
0100
0010
0001
0000
,  // measure 13
0100
0000
0010
0000
1010
0000
0010
1000
0100
0000
0110
0000
0010
0001
0100
0010
,  // measure 14
1000
0000
0100
0000
1100
0000
0010
0000
0001
0000
1001
0000
1000
0010
1000
0000
,  // measure 15
0001
0000
0010
0000
1100
0000
1000
0010
1000
0000
1100
0000
0100
1000
0010
0000
,  // measure 16
0010
0000
0110
0000
0101
0000
0001
1000
0000
1000
0001
0100
0010
1000
0100
0000
,  // measure 17
0110
0000
0010
0000
0011
0000
0010
0100
0000
0100
1000
0000
0010
0100
0001
0000
,  // measure 18
0001
0000
0110
0000
1001
0000
1000
0100
1000
0000
0010
0000
0100
0001
0100
0000
,  // measure 19
0010
0000
1000
0000
0101
0000
0010
0001
0M00
0000
0101
0000
0100
0010
1000
0000
,  // measure 20
0010
0000
0100
0000
0110
0010
1000
0100
0010
0001
0010
0100
1000
0001
0100
0000
,  // measure 21
0010
0000
1000
0000
1100
0000
0010
0100
0010
0000
0101
0000
0001
1000
0010
0000
,  // measure 22
0010
0000
1100
0000
1010
0000
0010
0100
00M0
0000
0010
0000
1000
0100
1000
0000
,  // measure 23
0010
0000
0100
0000
1001
0001
0100
0010
1000
0100
0010
0000
0100
1000
0001
0000
,  // measure 24
0100
0000
0110
0000
1001
0000
0100
1000
0000
0100
1000
0000
0010
0100
0001
0000
,  // measure 25
1000
0000
0001
0000
1000
0100
0010
0001
1000
0100
0010
0000
0001
0100
0001
0000
,  // measure 26
0100
0000
0010
0000
1000
0000
0010
1000
0000
0010
1000
0000
0010
1000
0010
0000
,  // measure 27
0100
0000
0010
0000
1001
0000
0001
0100
0001
1000
0001
0000
1000
0010
0100
0000
,  // measure 28
0110
0000
0010
0000
0100
0010
1000
0100
0010
0001
0010
0000
0100
1000
0010
0000
,  // measure 29
1010
0000
0010
0000
0110
0000
0010
1000
0000
1000
0100
0000
0010
0001
1000
0000
,  // measure 30
0101
0000
0100
0000
0100
0000
0010
1000
000M
0000
1010
0000
0010
0100
0010
0000
,  // measure 31
1000
0000
0001
0000
0010
0001
0100
0001
0010
0100
1000
0000
0001
1000
0001
0000
,  // measure 32
1001
0000
0001
0000
0100
0001
0100
0010
1000
0100
0010
0000
0001
0100
0001
0000
,  // measure 33
1001
0000
1000
0000
0001
1000
0001
1000
0010
0100
0010
0100
0001
0010
0001
0010
,  // measure 34
0100
1000
0100
1000
0010
0100
0010
0100
0001
0100
0001
0100
0010
0100
0010
0100
,  // measure 35
0010
1000
0010
1000
0100
1000
0100
1000
0001
0100
0001
0100
0001
1000
0001
1000
,  // measure 36
0100
0010
0100
0010
0001
0100
0001
0100
0010
1000
0010
1000
0100
0010
0100
0010
,  // measure 37
0001
1000
0001
1000
0100
0010
0100
0010
0001
0100
0001
0100
0010
1000
0010
1000
,  // measure 38
0001
1000
0001
1000
0010
0100
0010
0100
0001
0010
0001
0010
0100
1000
0100
1000
,  // measure 39
0010
0100
0010
0100
0001
0100
0001
0100
0010
0100
0010
0100
0010
1000
0010
1000
,  // measure 40
0100
1000
0100
1000
0001
0100
0001
0100
0001
1000
0001
1000
0100
0010
0100
0010
,  // measure 41
0001
0100
0001
0100
0010
1000
0010
1000
0100
0010
0100
0010
0001
1000
0001
1000
,  // measure 42
0100
0010
0100
0010
0001
0100
0001
0100
0010
1000
0010
1000
0001
1000
0001
1000
,  // measure 43
0010
0100
0010
0100
0001
0010
0001
0010
0100
1000
0100
1000
0010
0100
0010
0100
,  // measure 44
0001
0100
0001
0100
0010
0100
0010
0100
0010
1000
0010
1000
0100
1000
0100
1000
,  // measure 45
0001
0100
0001
0100
0001
1000
0001
1000
0100
0010
0100
0010
0001
0100
0001
0100
,  // measure 46
0010
1000
0010
1000
0100
0010
0100
0010
0001
1000
0001
1000
0100
0010
0100
0010
,  // measure 47
0001
0100
0001
0100
0010
1000
0010
1000
0010
0100
0010
0100
0001
0010
0001
0010
,  // measure 48
0100
1000
0100
1000
0001
1000
0001
1000
0100
0010
0100
0010
0001
0100
0001
0100
,  // measure 49
0010
1000
0010
1000
0001
0100
0010
1000
0001
0100
0010
1000
0001
0100
0010
1000
,  // measure 50
0001
0100
0010
1000
0100
0010
0100
1000
0100
0010
0100
1000
0100
0010
0100
1000
,  // measure 51
0100
0010
0100
1000
0010
0100
0001
1000
0010
0100
0001
1000
0010
0100
0001
1000
,  // measure 52
0010
0100
0001
1000
0001
0010
0100
1000
0001
0010
0100
1000
0001
0010
0100
1000
,  // measure 53
0001
0010
0100
1000
0001
1000
0001
0010
0001
1000
0001
0100
0001
1000
0001
0010
,  // measure 54
0001
1000
0001
0100
0010
1000
0001
1000
0100
1000
0001
1000
0010
1000
0001
1000
,  // measure 55
0100
1000
0001
1000
0010
0100
0001
0100
0010
0100
0001
0100
0010
0100
0001
0100
,  // measure 56
0010
0100
0001
0100
0010
1000
0100
1000
0010
1000
0100
1000
0010
1000
0100
1000
,  // measure 57
0010
1000
0100
1000
0001
1000
0100
0010
0100
1000
0010
0100
0010
1000
0100
0010
,  // measure 58
0100
1000
0010
0100
0001
0010
0100
0010
0001
0100
0010
0100
0001
0010
0100
0010
,  // measure 59
0001
0100
0010
0100
0010
1000
0001
0010
0001
1000
0010
1000
0001
0010
0001
1000
,  // measure 60
0010
1000
0001
0010
0001
1000
0100
1000
0001
0100
0001
1000
0100
1000
0001
0100
,  // measure 61
0001
1000
0100
1000
0100
0010
0100
0010
0100
0010
0100
0010
0100
0010
0100
0010
,  // measure 62
0100
0010
0100
0010
0001
1000
0001
1000
0001
1000
0001
1000
0001
1000
0001
1000
,  // measure 63
0001
1000
0001
1000
0010
0100
0001
1000
0010
0100
0001
1000
0010
0100
0001
1000
,  // measure 64
0010
0100
0001
1000
0010
0100
0001
0010
0100
1000
0010
0100
0001
0010
0100
1000
,  // measure 65
0010
0100
0001
0010
0001
0100
0010
1000
0100
0010
0001
0100
0010
1000
0100
0010
,  // measure 66
0001
0100
0010
1000
0001
0010
0100
1000
0001
0010
0100
1000
0001
0010
0100
1000
,  // measure 67
0001
0010
0100
1000
0100
1000
0100
1000
0100
1000
0100
1000
0100
1000
0100
1000
,  // measure 68
0100
1000
0100
1000
0010
0100
0010
1000
0001
1000
0100
0010
0100
1000
0001
1000
,  // measure 69
0010
0100
0010
1000
0100
0010
0001
0010
0001
0100
0010
0100
0010
1000
0010
1000
,  // measure 70
0100
0010
0100
0010
0001
0100
0010
1000
0001
0100
0010
1000
0001
0100
0010
1000
,  // measure 71
0001
0100
0010
1000
0001
0010
0100
1000
0001
0010
0100
1000
0001
0010
0100
1000
,  // measure 72
0001
0010
0100
1000
0100
0010
0100
0010
0100
0010
0100
0010
0100
0010
0100
0010
,  // measure 73
0100
0010
0100
0010
2002
0000
0000
0000
0000
0000
0000
0000
0000
0000
0000
0000
,  // measure 74
0000
0000
0000
0000
,  // measure 75
0000
0000
0000
0000
0000
0000
0000
3003
0001
0000
0000
0000
0001
0000
0000
0000
1000
0000
0000
0000
1000
0000
0000
0000
0010
0000
0000
0000
0010
0000
0000
0000
,  // measure 76
0100
0010
0100
0010
0100
0000
0100
0000
0001
0000
0001
0000
0010
0000
0010
0000
,  // measure 77
0100
1000
0100
1000
0100
0000
0100
0000
1000
0000
1000
0000
0010
0000
0010
0000
,  // measure 78
0100
0010
0100
0010
0100
0000
0001
0000
0001
0000
0010
0000
0010
0000
0100
0000
,  // measure 79
0100
1000
0010
1000
0010
0000
1000
0000
0010
0000
1000
0000
0010
0000
1000
0000
,  // measure 80
0010
0100
0010
0100
0001
0000
0100
0000
0001
0000
1000
0000
0010
0000
1000
0000
,  // measure 81
0010
1000
0001
0100
0001
0000
0010
0000
0001
0000
1000
0000
0100
0000
1000
0000
,  // measure 82
0010
0100
0001
1000
0001
0000
1000
0000
0100
0000
1000
0000
0010
0000
0100
0000
,  // measure 83
0001
1000
0001
1000
0010
0000
0010
0000
1000
0000
0010
0000
1000
0000
0100
0000
,  // measure 84
1000
0010
0100
0001
1000
0000
0100
0000
1000
0000
0001
0000
0010
0000
0001
0000
,  // measure 85
1000
0100
1000
0010
1000
0000
0001
0000
0100
0000
0001
0000
0010
0000
0001
0000
,  // measure 86
0010
0001
0100
0001
0100
0000
0001
0000
1000
0000
0010
0000
1000
0000
0100
0000
,  // measure 87
1000
0100
0010
0001
1000
0001
1000
0001
0010
0100
0010
0100
1000
0010
1000
0010
,  // measure 88
0100
0001
0100
0001
1000
0010
0100
0001
1000
0010
0100
0001
1000
0010
0100
0001
,  // measure 89
1000
0010
0100
0001
0010
0100
0010
0001
0010
0100
0010
0001
0010
0100
0010
0001
,  // measure 90
0010
0100
0010
0001
0100
0010
1000
0001
0100
0010
1000
0001
0100
0010
1000
0001
,  // measure 91
0100
0010
1000
0001
1000
0100
0010
0001
1000
0100
0010
0001
1000
0100
0010
0001
,  // measure 92
1000
0100
0010
0001
1000
0001
1000
0100
1000
0001
1000
0010
1000
0001
1000
0100
,  // measure 93
1000
0001
1000
0010
0100
0001
1000
0001
0010
0001
1000
0001
0100
0001
1000
0001
,  // measure 94
0010
0001
1000
0001
0100
0010
1000
0010
0100
0010
1000
0010
0100
0010
1000
0010
,  // measure 95
0100
0010
1000
0010
0100
0001
0010
0001
0100
0001
0010
0001
0100
0001
0010
0001
,  // measure 96
0100
0001
0010
0001
1000
0001
0010
0100
0010
0001
0100
0010
0100
0001
0010
0100
,  // measure 97
0010
0001
0100
0010
1000
0100
0010
0100
1000
0010
0100
0010
1000
0100
0010
0100
,  // measure 98
1000
0010
0100
0010
0100
0001
1000
0100
1000
0001
0100
0001
1000
0100
1000
0001
,  // measure 99
0100
0001
1000
0100
1000
0001
0010
0001
1000
0010
1000
0001
0010
0001
1000
0010
,  // measure 100
1000
0001
0010
0001
0010
0100
0010
0100
0010
0100
0010
0100
0010
0100
0010
0100
,  // measure 101
0010
0100
0010
0100
1000
0001
1000
0001
1000
0001
1000
0001
1000
0001
1000
0001
,  // measure 102
1000
0001
1000
0001
0100
0010
0100
0010
0100
0010
0100
0010
0100
0010
0100
0010
,  // measure 103
0100
0010
0100
0010
2002
0000
0000
0000
0000
0000
0000
0000
0000
0000
0000
0000
,  // measure 104
0000
0000
0000
0000
,  // measure 105
3003
0000
0000
0000
;
