#TITLE:WORK IT;
#ARTIST:Chester See feat. Toby Turner with Wayne Brady;
#BANNER:Work It.png;
#BACKGROUND:Work Itbg.PNG;
#CDTITLE:.\CDTITLES\HellRazoR.png;
#MUSIC:Work It.mp3;
#OFFSET:-0.103;
#SAMPLESTART:68.5;
#SAMPLELENGTH:12;
#BPMS:0=128,411=128.130;
#STOPS:411=0.175;
#BGCHANGES:0=Work It.avi=1=1=0=0,542.75=Boop.avi=1=0=0=1,551.5=Work Itbg.PNG=1=0=0=1,999=-=1=0=0=0;

//---------------dance-single - Hard----------------
#NOTES:
     dance-single:
     Hard:
     Hard:
     8:
     0.511,0.558,0.158,0.170,0.297:
0000
0000
0000
0000
,
0000
0000
0000
0000
,
0000
0000
0000
0000
,
0000
0000
0000
0000
,
0000
0000
0000
0000
,
0000
0000
0000
0000
,
0000
0000
0000
0000
,
1000
0000
0000
0001
0000
0000
0010
0000
0001
0000
0000
1000
0000
0000
0100
0000
,
0010
0000
0000
0100
0000
0000
0010
0000
0001
0000
0100
0000
0001
0000
0100
0000
,
0010
0000
0000
1000
0000
0000
0001
0000
1000
0000
0000
0100
0000
0000
0010
0000
,
0100
0000
0000
0010
0000
0000
0001
0000
1000
0000
0010
0000
0100
0000
0010
0000
,
1000
0000
0000
0100
0000
0000
0010
0000
0100
0000
0000
0010
0000
0000
0001
0000
,
0100
0000
0000
0010
0000
0000
1000
0000
0001
0000
1000
0000
0100
0000
0010
0000
,
0100
0000
0000
0010
0000
0000
0001
0000
0100
0000
0000
0010
0000
0000
0100
0000
,
0001
0000
0000
1000
0000
0000
0001
0000
0100
0000
0010
0000
0100
0000
0001
0000
,
1000
0000
0000
0100
0000
0000
0100
0000
1000
0000
0000
0010
0000
0000
0010
0000
,
1000
0000
0000
0001
0000
0000
0001
0000
0100
0000
0001
0000
1000
0000
0010
0000
,
1000
0000
0000
1000
0000
0000
0001
0000
1000
0000
0000
1000
0000
0000
0100
0000
,
0100
0000
0000
0010
0000
0000
0010
0000
0100
0000
0010
0000
0100
0000
0010
0000
,
0100
0000
0000
1000
0000
0000
0001
0000
0100
0000
0000
0010
0000
0000
0100
0000
,
0001
0000
0000
1000
0000
0000
0100
0000
0010
0000
0100
0000
0010
0000
0001
0000
,
0100
0000
0000
0100
0000
0000
0010
0000
1000
0000
0000
1000
0000
0000
0001
0000
,
1000
0000
0000
1000
0000
0000
0010
0000
0100
0000
0010
0000
1000
0000
0001
0000
,
1001
0000
0000
1000
0000
0000
0100
0000
0110
0000
0000
0100
0000
0000
0010
0000
,
0011
0000
0000
0001
0000
0000
0100
0000
0010
0000
0100
0000
0001
0000
1000
0000
,
0001
1000
0100
0010
0100
0100
0010
0001
,
0100
0010
0100
0001
1001
0000
1000
0100
,
0010
0100
1000
0100
0010
0010
0100
0010
,
0100
1000
0010
0010
0110
0000
0010
1000
,
0001
0001
1000
0100
0010
0100
1000
0010
,
0010
0010
0100
0010
0101
0000
1000
0010
,
1000
0010
1000
0001
1000
0000
1000
0100
,
0010
0100
0010
0100
1010
0000
0002
0000
,
0100
0000
0100
0000
1000
1000
1003
0000
,
2000
0000
0100
0000
0010
0010
3010
0000
,
0002
0000
0100
0000
0010
0010
0013
0000
,
0220
0000
0000
0330
,
0200
0000
0010
0000
0010
0010
0310
0000
,
0002
0000
1000
0000
1000
1000
1003
0000
,
2000
0000
0100
0000
0100
0100
3100
0000
,
0220
0000
0330
0010
0001
1000
1000
0001
,
1001
0000
0000
0100
0000
0000
1000
0001
1000
0000
0001
0000
0100
0000
0001
0000
,
0101
0000
0000
0001
0000
0000
0100
0000
0010
0000
0100
0010
0000
0000
1000
0000
,
0001
0000
0000
1000
0000
0000
0001
1000
0001
0000
1000
0000
0100
0000
0010
0000
,
0100
0000
0000
0010
0000
0000
0010
0000
0001
0000
0100
0010
0000
0000
0100
0000
,
0110
0000
0000
0100
0000
0000
0001
1000
0001
0000
1000
0100
0000
0000
0010
0000
,
0100
0000
0000
0010
0000
0000
0010
0001
0010
0000
0000
0100
0000
0000
0100
0000
,
0010
0000
0000
0001
0000
0000
0001
1000
0001
0000
1000
0000
0100
0000
0010
0000
,
0100
0000
0000
0100
0000
0000
0010
0000
0001
0000
0000
0000
0100
0000
0000
0000
,
0010
1000
0001
0000
1000
0100
0010
0000
,
0100
0010
0001
0000
0100
0001
0100
0000
,
0001
0000
0000
0001
0000
0000
0001
0000
1000
0000
0000
1000
0000
0000
1000
0000
,
0100
0000
0000
0100
0000
0000
0100
0000
0010
0000
0001
0000
0010
0000
0001
0000
,
0100
0000
0000
0100
0000
0000
0010
0000
1000
0000
0000
0001
0000
0000
1000
0000
,
0100
0000
0000
0010
0000
0000
0100
0000
0010
0000
0001
0000
0100
0000
0010
0000
,
1000
0000
0000
1000
0000
0000
0001
0000
1000
0000
0000
0100
0000
0000
0010
0000
,
0100
0000
0000
0100
0000
0000
0010
0000
0001
0000
1000
0000
0001
0000
0100
0000
,
0001
0000
0000
1000
0000
0000
0100
0000
0010
0000
0000
0100
0000
0000
0010
0000
,
0001
0000
0000
0010
0000
0000
0100
0000
0010
0000
0001
0000
0100
0000
0010
0000
,
0100
0000
0000
0001
0000
0000
1000
0000
0100
0000
0000
0100
0000
0000
1000
0000
,
0010
0000
0000
0010
0000
0000
1000
0000
0010
0000
0100
0000
0010
0000
1000
0000
,
0100
0000
0000
0100
0000
0000
0010
0000
0001
0000
0000
0100
0000
0000
0001
0000
,
0001
0000
0000
1000
0000
0000
1000
0000
0100
0000
0010
0000
0100
0000
0010
0000
,
0100
0000
0000
0100
0000
0000
0100
0000
1000
0000
0000
1000
0000
0000
1000
0000
,
0010
0000
0000
0010
0000
0000
0010
0000
0100
0000
0001
0000
0100
0000
0010
0000
,
1000
0010
1000
0010
1000
0001
1000
0001
,
1000
0100
1000
0100
1010
0000
0010
0100
,
0010
0100
0001
0100
0010
0100
0001
0010
,
0100
0010
0010
0010
0110
0000
0100
0000
,
1000
1000
0001
0100
0001
0100
0010
0100
,
0010
0100
0001
1000
1100
0000
0100
0010
,
0100
1000
0100
0010
0100
1000
0001
0100
,
0010
0100
0001
0100
1010
0000
2000
0000
,
0010
0000
0010
0000
0001
0001
3001
0000
,
0002
0000
0010
0000
0100
0100
0103
0000
,
2000
0000
0010
0000
0100
0100
3100
0000
,
0220
0000
0000
0330
,
0020
0000
0100
0000
0100
0100
0130
0000
,
2000
0000
0001
0000
0001
0001
3001
0000
,
0002
0000
0010
0000
0010
0010
0013
0000
,
0220
0000
0330
0100
1000
1000
0001
1000
,
1001
0000
0000
0010
0000
0000
0010
1000
0001
0000
1000
0000
0010
0000
1000
0000
,
1010
0000
0000
1000
0000
0000
0010
0000
0100
0000
0010
0100
0000
0000
0001
0000
,
1000
0000
0000
0001
0000
0000
1000
0001
1000
0000
0001
0000
0010
0000
0100
0000
,
0010
0000
0000
0100
0000
0000
0100
0000
1000
0000
0010
0100
0000
0000
0010
0000
,
0110
0000
0000
0010
0000
0000
1000
0001
1000
0000
0001
0010
0000
0000
0100
0000
,
0010
0000
0000
0100
0000
0000
0100
1000
0100
0000
0000
0010
0000
0000
0010
0000
,
0100
0000
0000
1000
0000
0000
1000
0001
1000
0000
0001
0000
0010
0000
0100
0000
,
0010
0000
0000
0010
0000
0000
0100
0000
1000
0000
0000
0000
0010
0000
0000
0000
,
1000
0001
0010
0000
1001
0000
0010
0000
0100
0010
0100
0000
0110
0000
0001
0000
,
0100
0001
0100
0000
0001
0000
1000
0000
0001
1000
0001
0000
1100
0000
0000
0000
,
0100
0010
0100
0000
0010
0001
0010
0000
0001
1000
0100
0000
1000
0000
0000
0001
,
0000
1000
0001
0000
1000
0000
0000
0100
0000
0010
0100
0000
0100
0000
0000
0000
,
0010
0100
1000
0000
0100
0000
0000
0000
0101
0000
0000
0110
0000
0000
0010
0000
,
1000
0000
1000
0000
0010
0000
0000
0000
1010
0000
0000
0110
0000
0000
0000
0000
,
0100
0010
0100
0010
0100
0000
0000
0000
0010
0000
1000
0000
0001
0000
0000
0000
,
0001
0100
0001
0100
0001
0000
1000
0000
0001
0000
0001
0100
0000
0000
0100
0000
,
0010
0000
0000
0000
0010
0100
0010
0100
0001
1000
0000
0001
0000
0000
0000
0000
,
0001
0000
1000
0000
0100
0010
0100
0010
0100
0000
0010
0100
0000
0000
0010
0000
,
0001
0000
0100
0000
0010
0000
1000
0000
1000
0001
0000
1000
0000
0000
1000
0100
,
0010
0100
0010
0001
0100
0000
0010
0000
0100
0001
0100
0001
0000
0000
0000
0000
,
0100
0001
0100
0100
0010
0010
1010
0000
,
0001
1000
0001
1000
0001
0000
1000
0000
1000
0001
1000
0000
2002
0000
0000
0000
,
3003
0000
0001
1000
0001
1000
0001
1000
0000
0000
0000
0000
0020
0000
0000
0000
,
0001
0000
0001
0000
0100
0100
0130
0000
,
0200
0000
0001
0000
1000
1000
1300
0000
,
0020
0000
0001
0000
1000
1000
1030
0000
,
2002
0000
0000
3003
,
0002
0000
1000
0000
1000
1000
1003
0000
,
0020
0000
0100
0000
0100
0100
0130
0000
,
0200
0000
0001
0000
0001
0001
0301
0000
,
2002
0000
3003
0002
,
0100
0000
0100
0000
1000
1000
1003
0000
,
2000
0000
0100
0000
0010
0010
3010
0000
,
0002
0000
0100
0000
0010
0010
0013
0000
,
0220
0000
0330
0200
,
1000
0000
1000
0000
0010
0010
0310
0000
,
0020
0000
1000
0000
0001
0001
0031
0000
,
0200
0000
1000
0000
0001
0001
0301
0000
,
2002
0000
3003
0001
0010
0100
0010
0100
,
0110
0000
0000
1000
0000
0000
0010
0100
0010
0000
0100
0000
0001
0000
1000
0000
,
1100
0000
0000
0100
0000
0000
1000
0000
0001
0000
1000
0001
0000
0000
0010
0000
,
0100
0000
0000
0010
0000
0000
0100
0010
0100
0000
0010
0000
0001
0000
1000
0000
,
0010
0000
0000
1000
0000
0000
0001
0000
0100
0000
0001
1000
0000
0000
1000
0000
,
1001
0000
0000
1000
0000
0000
0100
0010
0100
0000
0010
0001
0000
0000
0001
0000
,
1000
0000
0000
0001
0000
0000
0001
0100
0001
0000
0000
1000
0000
0000
1000
0000
,
0001
0000
0000
0010
0000
0000
0100
0010
0100
0000
0010
0000
0001
0000
1000
0000
,
0001
0000
0000
1000
0000
0000
0100
0000
1000
0000
1000
0000
0001
0000
1000
0000
,
1001
0000
0000
0010
0000
0000
1000
0001
1000
0000
1000
0000
0010
0000
1000
0000
,
1010
0000
0000
1000
0000
0000
0010
0000
0100
0000
0010
0100
0000
0000
0001
0000
,
1000
0000
0000
0001
0000
0000
1000
0001
1000
0000
0001
0000
0010
0000
0100
0000
,
0010
0000
0000
0100
0000
0000
0100
0000
1000
0000
0010
0100
0000
0000
0010
0000
,
0110
0000
0000
0010
0000
0000
1000
0001
1000
0000
0001
0010
0000
0000
0100
0000
,
0010
0000
0000
0100
0000
0000
0100
1000
0100
0000
0000
0010
0000
0000
0010
0000
,
0100
0000
0000
0010
0000
0000
0100
0010
0100
0000
0010
0000
0001
0000
1000
0000
,
0010
0220
0000
0000
,
0000
0000
0000
0000
,
0000
0000
0330
0000
;

//---------------dance-single - Medium----------------
#NOTES:
     dance-single:
     Medium:
     Medium:
     6:
     0.329,0.392,0.039,0.008,0.000:
0000
0000
0000
0000
,
0000
0000
0000
0000
,
0000
0000
0000
0000
,
0000
0000
0000
0000
,
0000
0000
0000
0000
,
0000
0000
0000
0000
,
0000
0000
0000
0000
,
1000
0000
0001
0000
,
0010
0000
0001
1000
,
0100
0100
1000
0001
,
1000
1000
0010
0100
,
0010
0000
1000
0000
,
0001
0000
1000
0000
,
0100
0100
1000
0001
,
1000
0010
0010
1000
,
0001
0000
0100
0000
,
0001
0000
1000
0000
,
0100
0100
0010
0001
,
0100
0001
0001
1000
,
0001
0000
0100
0001
0100
0000
0010
0100
,
0010
0000
1000
0010
1000
0000
0001
0000
,
1000
1000
0100
0100
,
0010
0010
0100
0100
,
0010
0000
0001
0100
0001
0000
0100
0010
,
1000
0000
0010
0100
0010
0000
1000
0000
,
0010
1000
0010
1000
0010
0000
0100
0010
,
0100
0010
0100
0010
0100
0000
0001
0100
,
0001
0100
0001
0100
0001
0000
1000
0001
,
1000
0001
1000
0001
1000
0000
0100
0000
,
0010
0010
0100
0100
,
1000
0000
1000
0000
0001
0000
0100
0010
,
0100
0000
0001
0100
0001
0000
1000
0100
,
1000
0000
1000
0001
0100
0000
0010
0000
,
0100
0000
0100
0000
0001
0001
0001
0000
,
1000
0000
1000
0000
0001
0001
0001
0000
,
1000
0000
1000
0000
0100
0100
0100
0000
,
1000
0000
0000
0000
,
0010
0000
0010
0000
0100
0100
0100
0000
,
0001
0000
0001
0000
0100
0100
0100
0000
,
0010
0000
1000
0000
0001
0001
0001
0000
,
1000
0000
0000
0000
,
1000
0100
1000
1000
,
0010
0100
0010
0010
,
1000
0000
0001
1000
0100
1000
0100
1000
,
0010
0100
0010
0010
,
1000
0000
0001
1000
0100
0010
0100
0010
,
0100
0100
0010
0010
,
0001
0000
0001
0000
0100
0001
0100
0010
,
0100
0010
0010
1000
,
0001
0001
1000
1000
,
0100
0100
0010
0010
,
0100
0000
1000
0001
0100
0000
0010
0100
,
0001
0000
1000
0001
0100
0000
1010
0000
,
1000
1000
0001
0001
,
1000
1000
0001
0001
,
0100
0000
0010
1000
0001
0000
1000
0100
,
0010
0000
0100
0010
0001
0000
0001
0000
,
0100
0100
0001
0001
,
1000
0100
0010
0100
,
1000
0000
1000
1000
0001
0000
0001
0001
,
0010
0000
0010
0010
0001
0000
1000
0001
,
1000
1000
0100
0100
,
0010
0010
0100
0100
,
1000
0000
0001
0100
0010
0000
0100
0010
,
0100
0001
0001
1000
,
0100
1000
0100
1000
0100
0000
0010
0000
,
0100
0010
0100
0010
0100
0000
0010
0000
,
0001
0100
0001
0100
0001
0000
0100
0000
,
0010
1000
0010
1000
0010
0000
1000
0000
,
0001
1000
0001
1000
0001
0000
1000
0000
,
0100
0010
0100
0010
0100
0000
0010
0000
,
0001
0100
0001
0000
1000
0100
1000
0000
,
0010
0100
0010
0000
1000
0000
1000
0000
,
0001
0000
0001
0000
1000
1000
1000
0000
,
0100
0000
0100
0000
0010
0010
0010
0000
,
0100
0000
0100
0000
1000
1000
1000
0000
,
0001
0000
0000
0000
,
0100
0000
0010
0000
1000
1000
1000
0000
,
0001
0000
1000
0000
0100
0100
0100
0000
,
0010
0000
0100
0000
1000
1000
1000
0000
,
0001
0000
0000
0000
,
1000
0000
0100
1000
0100
0000
1000
0000
,
0001
0001
0100
0100
,
0010
0000
0010
0000
1000
0010
1000
0000
,
0010
0100
0010
1000
,
0001
0000
0001
0000
1000
0100
1000
0000
,
0001
0001
0100
0100
,
0010
0000
0010
0000
1000
0010
1000
0000
,
0010
1000
0001
0000
,
1000
0100
1000
0000
0100
0000
0100
0000
,
1000
0010
0100
0000
0010
0000
0010
0000
,
0100
0001
0100
0000
0001
1000
0001
0000
,
1000
0100
0010
0000
0100
0010
0100
0000
,
1000
1000
1001
1001
,
1000
0001
1000
0000
0100
0000
0100
0000
,
0010
0100
0010
0000
0100
0000
0100
0000
,
1000
0001
1000
0000
0100
0000
0100
0000
,
0010
0000
0100
1000
0100
1000
0100
0000
,
1000
0000
1000
0000
0010
0100
0010
0000
,
1000
1000
0001
0000
0001
0001
1000
0000
,
0100
0010
0100
0000
0010
0010
0100
0000
,
1000
1000
0001
0001
,
0100
0010
0100
0000
0001
0100
0001
0000
,
0000
0000
1000
0100
,
0100
0000
0100
0000
1000
1000
1000
0000
,
0100
0000
0100
0000
1000
1000
1000
0000
,
0100
0000
0100
0000
1000
1000
1000
0000
,
0001
0000
0000
0000
,
0100
0000
0100
0000
0010
0010
0010
0000
,
0100
0000
0100
0000
0010
0010
0010
0000
,
0100
0000
0100
0000
0001
0001
0001
0000
,
1000
0000
0000
0000
,
0100
0000
0100
0000
0010
0010
0010
0000
,
0100
0000
0100
0000
1000
1000
1000
0000
,
0100
0000
0100
0000
0010
0010
0010
0000
,
0001
0000
0000
0000
,
0100
0000
0100
0000
0010
0010
0010
0000
,
0100
0000
0100
0000
0001
0001
0001
0000
,
1000
0000
1000
0000
0100
0100
0100
0000
,
0010
0000
0000
0000
,
0100
0000
0100
0000
1000
0001
1000
0000
,
0001
0001
0100
0100
,
0010
0000
0010
0000
0100
0010
0100
0000
,
0010
0010
1000
1000
,
1001
0000
0001
0000
1000
0100
1000
0000
,
0100
0100
1000
1000
,
1001
0000
0001
0000
0100
0010
0100
0000
,
0100
0100
0010
0010
,
1001
0001
1000
0100
,
1100
0100
1000
0010
,
1010
0000
0010
0000
0100
0010
0100
0000
,
0101
0001
1000
1000
,
0001
0000
1000
0000
0001
1000
0001
0000
,
1000
1000
0100
0100
,
0010
0000
0010
0000
0100
0010
0100
0000
,
0220
0330
0000
0000
;

//---------------dance-single - Easy----------------
#NOTES:
     dance-single:
     Easy:
     Easy:
     3:
     0.226,0.235,0.023,0.004,0.000:
0000
0000
0000
0000
,
0000
0000
0000
0000
,
0000
0000
0000
0000
,
0000
0000
0000
0000
,
0000
0000
0000
0000
,
0000
0000
0000
0000
,
0000
0000
0000
0000
,
0000
0000
0000
0000
,
0000
0000
0000
0000
,
1000
0000
0001
0000
,
0010
0000
0001
1000
,
0100
0000
1000
0000
,
0010
0000
0100
0010
,
1000
0000
0001
0000
,
1000
0000
0100
0010
,
0100
0000
0010
0000
,
0001
0000
0100
0001
,
0100
0000
0010
0000
,
1000
0000
0001
1000
,
0001
0000
1000
0000
,
0100
0000
0010
0100
,
0010
0000
0001
0000
,
0100
0000
0010
0100
,
0010
0000
1000
0000
,
0001
0000
1000
0000
,
0100
1000
0100
1000
,
0001
1000
0001
1000
,
0010
1000
0010
0100
,
0010
0100
0010
0000
,
1000
0001
1000
0001
,
0010
0001
0010
0001
,
0100
0010
0100
0010
,
1000
0010
1000
0010
,
0010
0010
1000
0000
,
0001
0001
0010
0000
,
0001
0001
1000
0000
,
0100
0000
0000
0000
,
1000
1000
0010
0000
,
1000
1000
0001
0000
,
1000
1000
0100
0000
,
0010
0000
0000
0000
,
0100
0010
0010
0001
,
0100
0010
0100
0100
,
0001
1000
0100
0100
,
0010
0001
0001
0001
,
0100
0010
0100
0100
,
0001
1000
0100
0100
,
0010
0100
0010
0010
,
0001
0100
0010
0010
,
0100
0010
1000
1000
,
0001
1000
0001
0000
,
1000
0000
0100
0000
,
1000
0000
0010
0000
,
0100
0100
0001
1000
,
0001
0001
1000
0100
,
0010
0000
0100
0000
,
0010
0000
0001
0000
,
0100
0100
0001
0001
,
1000
0010
1000
0010
,
0100
0000
0010
0000
,
1000
0000
0001
0000
,
1000
0100
0100
0010
,
0010
0001
0100
0001
,
0001
0000
0100
0000
,
0010
0000
1000
0000
,
0001
1000
0100
0100
,
0010
0001
0010
0000
,
0001
0001
0100
0100
,
0001
1000
0010
0000
,
0100
0100
0010
0010
,
1000
0001
0001
0000
,
1000
1000
0100
0010
,
0100
0100
0010
0000
,
0001
0001
0100
0000
,
0010
0010
1000
0000
,
0010
0010
0100
0000
,
0001
0000
0000
0000
,
1000
1000
0100
0000
,
1000
1000
0010
0000
,
0100
0100
0010
0000
,
1000
0000
0000
0000
,
0001
0001
0101
0000
,
0001
0001
1000
0000
,
1000
1000
1010
0000
,
0010
0010
0100
0000
,
0010
0010
1001
0000
,
1000
1000
0100
0000
,
0100
0100
0110
0000
,
0010
0010
0001
0000
,
0100
0100
0001
0001
,
1000
1000
0100
0100
,
1000
0010
1000
1000
,
0010
0010
0100
0000
,
0010
0010
1000
0001
,
0001
0001
1000
1000
,
0100
0010
0100
0100
,
0010
0001
0001
0100
,
0001
1000
1000
0100
,
1000
1000
0010
0100
,
0010
0010
1000
1000
,
0010
0010
0100
0100
,
0001
0100
0001
1000
,
0100
0010
0100
0110
,
0000
0000
0001
0000
,
0001
0001
0100
0000
,
0010
0010
1000
0000
,
0010
0010
0100
0000
,
0001
0000
0000
0000
,
1000
1000
0100
0000
,
0010
0010
0100
0000
,
1000
1000
0001
0000
,
0100
0000
0000
0000
,
0010
1000
0010
1000
,
0001
0100
0001
0100
,
0010
1000
0010
1000
,
0010
0000
1001
0000
,
0010
0001
0010
0001
,
1000
0100
1000
0100
,
0010
0001
0010
0001
,
1000
0000
0000
0000
,
1000
0010
0100
0100
,
0010
1000
0001
0001
,
1000
0100
0010
0100
,
0010
0010
0001
0000
,
0100
0010
0100
0001
,
1000
1000
0100
0100
,
0010
0001
0100
0010
,
0100
0100
0001
0000
,
1000
0100
0010
0010
,
0100
0100
1000
0001
,
0100
0100
0001
0100
,
0010
0010
1000
0000
,
0001
0001
1000
1000
,
0100
0100
1000
1000
,
0001
0010
0001
1000
,
2000
0000
0000
0000
0000
0000
0000
0000
0000
0000
0000
0000
0000
0000
0000
0000
0000
0000
0000
0000
0000
0000
0000
0000
0000
0000
0000
0000
0000
0000
0000
0000
0000
0000
0000
0000
0000
0000
0000
0000
0000
0000
0000
0000
0000
0000
0000
0000
0000
3000
0000
0000
0000
0000
0000
0000
0000
0000
0000
0000
0000
0000
0000
0000
0000
0000
0000
0000
0000
0000
0000
0000
0000
0000
0000
0000
0000
0000
0000
0000
0000
0000
0000
0000
0000
0000
0000
0000
0000
0000
0000
0000
0000
0000
0000
0000
0000
0000
0000
0000
0000
0000
0000
0000
0000
0000
0000
0000
0000
0000
0000
0000
0000
0000
0000
0000
0000
0000
0000
0000
0000
0000
0000
0000
0000
0000
0000
0000
0000
0000
0000
0000
0000
0000
0000
0000
0000
0000
0000
0000
0000
0000
0000
0000
0000
0000
0000
0000
0000
0000
0000
0000
0000
0000
0000
0000
0000
0000
0000
0000
0000
0000
0000
0000
0000
0000
0000
0000
0000
0000
0000
0000
0000
0000
0000
0000
0000
0000
0000
0000
0000
0000
0000
0000
0000
0000
0000
0000
0000
0000
0000
0000
;

//---------------dance-single - Novice----------------
#NOTES:
     dance-single:
     Novice:
     Beginner:
     1:
     0.127,0.183,0.000,0.000,0.000:
0000
0000
0000
0000
,
0000
0000
0000
0000
,
0000
0000
0000
0000
,
0000
0000
0000
0000
,
0000
0000
0000
0000
,
0000
0000
0000
0000
,
0000
0000
0000
0000
,
1000
0000
0000
0000
,
0001
0000
0000
0000
,
0010
0000
0000
0000
,
0001
0000
0000
0000
,
1000
0000
0000
0000
,
0100
0000
0000
0000
,
0010
0000
0100
0000
,
0010
0000
0000
0000
,
0001
0000
0000
0000
,
1000
0000
0000
0000
,
0100
0000
1000
0000
,
0001
0000
0000
0000
,
1000
0000
0000
0000
,
0010
0000
0000
0000
,
0100
0000
0001
0000
,
0100
0000
0000
0000
,
0010
0000
0000
0000
,
1000
0000
0000
0000
,
0001
1000
0001
0000
,
0010
0000
0000
0000
,
0001
1000
0100
0000
,
1000
0000
0000
0000
,
0010
0100
0010
0000
,
1000
0000
0000
0000
,
0001
1000
0001
0000
,
0010
0000
0000
0000
,
0001
0000
0000
0000
,
0001
0000
0000
0000
,
0001
0000
0000
0000
,
0001
0000
0000
0000
,
1000
0000
0000
0000
,
1000
0000
0000
0000
,
1000
0000
0000
0000
,
1000
0000
0000
0000
,
1000
0000
0010
0010
,
0100
0000
0010
0000
,
1000
0000
0001
0001
,
0010
0000
0001
0000
,
1000
0000
0100
0100
,
1000
0000
0010
0000
,
0100
0000
0010
0010
,
1000
0000
0001
0000
,
1000
0000
0000
0000
,
0100
0000
0000
0000
,
0010
0000
0100
0000
,
0010
0000
0100
0000
,
0010
0000
0000
0000
,
0001
0000
0000
0000
,
1000
0000
0001
0000
,
1000
0000
0001
0000
,
1000
0000
0000
0000
,
0100
0000
0000
0000
,
0010
0000
0100
0000
,
0010
0000
0100
0000
,
0010
0000
0000
0000
,
0001
0000
0000
0000
,
1000
0000
0010
0000
,
1000
0000
0010
0000
,
0100
0000
0010
0000
,
1000
0000
1000
0000
,
0001
0000
0001
0000
,
1000
0000
0000
0000
,
0100
0000
1000
0000
,
0010
0000
1000
0000
,
0100
0000
0010
0000
,
0100
0000
0010
0000
,
0001
0000
0000
0000
,
0100
0000
0000
0000
,
0001
0000
0000
0000
,
1000
0000
0000
0000
,
0100
0000
0000
0000
,
0010
0000
0000
0000
,
0100
0000
0000
0000
,
0010
0000
0000
0000
,
0001
0000
1000
0000
,
0100
0100
1000
0000
,
0010
0000
0100
0000
,
0010
0010
1000
0000
,
0001
0000
1000
0000
,
0100
0100
0010
0000
,
0100
0000
0010
0000
,
0001
0001
0100
0000
,
0010
0000
0100
0000
,
0001
0000
1000
0000
,
0100
0000
1000
0000
,
0010
0000
0010
0000
,
1000
0000
0001
0000
,
0001
0000
1000
0000
,
0100
0000
1000
0000
,
0010
0000
0010
0000
,
1000
0000
0001
0000
,
1000
0000
0100
0000
,
0010
0000
0010
0000
,
0001
0000
0100
0000
,
0010
0000
0010
0000
,
1000
0000
0001
0000
,
0000
0000
0000
0000
,
1000
0000
0010
0000
,
0010
0000
1000
0000
,
0001
0000
1000
0000
,
0100
0000
0000
0000
,
0100
0000
0010
0000
,
0001
0000
0001
0000
,
0100
0000
0010
0000
,
1000
0000
0000
0000
,
0001
0000
0001
0000
,
1000
0000
1000
0000
,
0010
0000
0010
0000
,
0100
0000
0000
0000
,
0010
0000
0010
0000
,
1000
0000
1000
0000
,
0001
0000
0001
0000
,
1000
0000
0000
0000
,
0100
1000
0100
0000
,
1000
0000
0010
0000
,
0100
0010
0010
0000
,
1000
0000
0001
0000
,
1000
0001
0010
0000
,
0001
0000
1000
0000
,
0100
0100
0010
0000
,
0001
0000
0100
0000
,
0010
0010
1000
1000
,
0001
0000
1000
0000
,
0100
0100
0010
0010
,
0001
0000
0100
0000
,
0010
1000
0010
1000
,
0010
0000
0100
0000
,
0001
0100
0001
0100
,
0010
0000
0000
0000
;
