#TITLE:Thor;
#SUBTITLE:(The Powerhead);
#ARTIST:ManOwaR;
#BANNER:Thor (The Powerhead)-bn.png;
#BACKGROUND:Thor (The Powerhead)-bg.png;
#LYRICSPATH:Thor (The Powerhead).lrc;
#CDTITLE:.\CDTITLES\hellrazor.png;
#MUSIC:Thor (The Powerhead).mp3;
#OFFSET:-0.595;
#SAMPLESTART:91.1;
#SAMPLELENGTH:21.5;
#BPMS:0=153.8,49=155.1,57=154.3,65=152.5,73=154.36,81=157.5,89=155.1,97=151.5,105=151.6,112=142.7,119=150.42,127=143.5,135=140.6,143=142.4,159=141.56,175=140.44,181=141.3,191=140.2,199=139.9,207=141.4,223=66.860,231=68.5,235=68.8,239=146,247=143.5,255=84.4,260=150.44,268=146.2,274=140.8,284=141.24,316=140.8,332=141,348=140.3,364=67,368=66.5,372=67.2,376=67.4,380=144.6,396=86.2,401=142.9,409=143.5,417=145.8,425=146.48,447=146.38,476=144.5,481=143,484=136.5,488=131.5,495=138.1,503=140.64,527=140.4,536=67.5,540.5=66.8,548.5=67.2,552=138,557=143,569=86.2,574=134.1,581=155.3,606=154.5,614=152.3,622=154.2,630=155.3,638=130,639=127.5,640=125,641=121.5,642=119,643=115,644=103,645=87,646=77,647=75,648=72.56;
#BGCHANGES:18.75=Thor (The Powerhead).avi=1=1=1=0,999=-=1=0=0=0;

//---------------dance-single - ----------------
#NOTES:
     dance-single:
     :
     Hard:
     10:
     0.597,0.909,0.639,0.261,0.160:
0000
0000
0000
0000
,
0000
0000
0000
0000
,
0000
0000
0000
0000
,
0000
0000
0000
0000
,
0000
0000
0000
0000
,
0000
0000
0000
0000
,
0000
0000
0000
0000
,
0000
0000
0000
0000
,
0000
0000
1000
0100
1000
0000
0000
0000
0000
0000
0001
0100
0001
0000
0000
0000
,
0000
0000
0001
0100
0001
0000
0100
0010
0100
0000
0001
0000
0010
0000
0000
0000
,
0000
0000
1000
0100
1000
0000
0000
0000
0000
0000
0001
0100
0001
0000
0000
0000
,
0000
0000
0001
0100
0001
0000
0001
0010
0001
0000
0010
0000
0001
0000
0000
0000
,
0000
0000
0100
0010
0100
0010
0100
0010
,
0100
0001
0001
0100
0010
0100
0001
0010
,
0001
0000
0010
0000
0001
0001
0100
0001
,
1000
0000
0001
1000
0100
1000
0010
0000
,
0010
0000
0100
0010
0100
0000
0000
0000
0000
0000
0001
0100
0001
0000
0000
0000
,
0000
0000
0001
1000
0001
0000
0001
1000
0001
0000
1000
0000
0100
0000
0000
0000
,
0000
0000
0100
0010
0100
0000
0000
0000
0000
0000
0100
1000
0100
0000
0000
0000
,
0000
0000
0100
0010
0100
0000
0010
0001
0010
0000
0001
0000
0100
0000
0000
0000
,
0000
0000
1000
0010
0010
1000
1000
0010
,
0100
0010
1000
0010
0100
0010
1000
0010
,
0010
0100
0010
0000
0001
0100
0001
0010
,
0001
0010
0001
0100
0001
0010
0100
0000
,
0010
0000
0100
0010
0100
0000
0000
0000
0000
0000
0100
0010
0100
0000
0000
0000
,
0000
0000
0001
1000
0001
0000
0001
1000
0001
0000
1000
0000
0100
0000
0000
0000
,
0000
0000
0100
0010
0100
0000
0000
0000
0000
0000
0001
0100
0001
0000
0000
0000
,
0000
0000
0010
0100
0010
0000
0100
0010
0100
0000
0010
0000
0001
0000
0000
0000
,
0010
0100
0010
0001
0010
0100
0000
1000
,
0000
0001
0010
0001
1000
2002
0000
0000
,
0000
0000
0000
0000
,
0000
0000
0000
0000
0000
3003
1000
0000
,
1000
0000
0000
0000
0010
0000
0000
0010
0000
0000
0100
0000
0010
0000
0000
0000
,
0010
0110
0101
1001
,
1000
0010
1000
0010
1000
0010
1000
0001
,
1000
0001
1000
0001
1000
0001
1001
0000
,
0001
0001
1000
0100
0010
0000
0100
0000
,
1000
0110
0101
1100
,
1000
0001
1000
0001
1000
0001
0010
0001
,
0010
0001
0010
0001
0010
0001
0011
0000
,
0101
0001
1100
1000
,
1100
0110
0100
0110
,
0101
1001
1100
0110
,
1100
0101
0110
1010
,
0000
0000
0100
0000
0100
0000
0000
1000
0000
0000
0010
0000
0010
0000
0000
0000
,
1000
1100
0101
0110
,
0001
1000
0001
1000
0001
1000
0010
1000
,
0010
1000
0010
1000
0010
1000
1010
0000
,
0001
0000
0001
0000
1000
0000
0000
0010
0000
0000
0100
0000
0010
0000
0000
0000
,
1000
0101
0110
1100
,
0010
1000
0010
1000
0010
1000
0010
0100
,
0010
0100
0010
0100
0010
0100
0110
0000
,
0100
0001
1000
0100
,
1000
0000
0100
0100
0010
0000
0100
0000
,
1000
0000
0001
0001
0100
0000
0010
0000
,
0100
0000
0000
0000
0010
0000
0010
0000
0100
0000
0000
0000
0002
0000
0000
1000
,
1000
1000
0000
0000
0023
0000
0000
0100
0100
0000
0000
0000
0032
0000
0000
1000
,
1000
0000
0000
0100
0000
0000
1000
0000
1000
0000
0000
0000
0010
0000
0000
0000
0010
0000
0000
0000
0000
0000
0000
0000
0203
0000
0000
0000
0000
0000
1000
0000
,
1000
0000
0000
0010
0000
0000
1000
0000
0010
0000
0000
0000
1000
0000
0000
0000
0010
0000
0000
0000
0000
0000
0000
0000
0302
0000
0000
0000
0000
0000
1000
0000
,
1000
0000
0000
0100
0000
0000
0010
0000
0100
0000
0000
0000
0010
0000
0000
0000
0100
0000
0000
0000
0003
0000
0000
0000
1001
0000
0000
0000
1001
0000
0000
0000
,
1001
1001
0110
0110
0110
0110
0101
0101
,
0101
0101
1001
1001
1001
1001
1100
1100
,
1100
1100
0110
0110
0110
0110
0011
0011
,
0011
0011
0101
0101
0101
0101
2002
3003
,
2200
0000
3300
0000
0220
0000
0330
0000
0101
0000
0001
0100
0000
0000
0011
0000
,
0202
0303
0010
0010
1000
0010
1000
0010
,
0100
0010
0100
0010
0100
0010
0100
0000
,
0001
0000
0010
0100
0010
0100
1000
0000
,
0001
0000
0001
1000
0001
1000
0100
0000
,
0100
0000
1000
0001
1000
0001
1000
0001
,
1000
0010
1000
0010
1000
0010
1000
0010
,
2010
3000
0000
0000
0000
0000
0000
0000
0000
0000
0000
0000
0000
0000
0000
0000
0000
0000
0000
0000
0000
0000
0000
0000
0000
0000
0000
0000
0000
0000
0000
0000
0000
0000
0000
0000
0000
0000
0000
0000
0000
0000
0000
0000
0000
0000
0000
0000
0001
0000
0000
0000
0000
0000
0000
0000
0000
0000
0000
0000
0000
0000
0000
0000
0000
0000
0000
0000
0000
0000
0000
0000
0100
0000
0000
0000
0000
0000
0000
0000
0000
0000
0000
0000
0000
0000
0000
0000
0000
0000
0000
0000
0000
0000
0000
0000
0010
0000
0000
0000
0000
0000
0000
0000
0000
0000
0000
0000
0000
0000
0000
0000
0000
0000
0000
0000
0000
0000
0000
0000
0100
0000
0000
0000
0000
0000
0000
0000
0000
0000
0000
0000
0000
0000
0000
0000
0000
0000
0000
0000
0000
0000
0000
0000
0001
0000
0000
0000
0000
0000
0000
0000
0000
0000
0000
0000
0000
0000
0000
0000
0000
0000
0000
0000
0000
0000
0000
0000
0000
0000
0000
0000
0000
0000
0000
0000
0000
0000
0000
0000
0000
0000
0000
0000
0000
0000
0000
0000
0000
0000
0000
0000
,
0001
0000
1000
0100
0010
0100
1000
0000
,
0100
0000
1000
0010
1000
0010
1000
0010
,
0100
0010
0100
0010
0100
0010
0100
0010
,
0110
0000
0001
0100
0010
0100
0010
0100
,
0001
0010
0100
0010
0001
0100
0010
0100
,
0001
0010
0100
1000
0100
1000
0100
0010
,
0100
1000
0010
0100
0010
0100
0010
1000
,
2020
0000
0000
0000
3030
0000
0010
0000
1000
0000
0000
0100
0000
0000
0010
0000
,
0100
0110
1000
1100
,
0110
0000
0001
1000
0001
1000
0001
1000
,
0001
0100
0001
0100
0001
0100
0001
0100
,
0101
0000
0001
0001
1000
0100
1000
0100
,
0010
0100
1000
0010
0100
0010
0100
0010
,
0110
0000
1000
0010
1000
0010
1000
0010
,
1000
0100
1000
0100
1000
0100
1000
0100
,
1100
0101
0101
1001
,
1100
0110
0101
0110
,
1100
0110
0101
1100
,
0101
0110
0101
1100
,
0202
0000
0000
1000
1000
1000
0303
0000
0220
0000
0000
0001
0001
0000
0330
0000
,
0220
0000
0000
0000
0000
0000
1000
0000
1000
0000
0000
0001
0000
0000
1000
0000
0001
0000
0000
0000
1000
0000
0000
0000
0001
0000
0000
0000
0330
0000
0000
0000
,
2002
0000
0000
0000
0000
0000
0100
0000
0100
0000
0000
0010
0000
0000
0010
0000
0100
0000
0000
0000
0010
0000
0000
0000
0100
0000
0000
0000
3003
0000
0000
0000
,
2002
0000
0000
0000
0000
0000
0010
0000
0010
0000
0000
0100
0000
0000
0010
0000
0100
0000
0000
0000
0010
0000
0000
0000
0100
0000
0000
0000
3003
0000
0000
0000
,
0110
0110
0110
0110
0101
0101
0101
0101
,
1100
1100
1100
1100
0110
0110
0110
0110
,
1100
1100
1100
1100
0101
0101
0101
0101
,
1001
1001
1001
1001
1010
1010
1010
1010
,
2020
0000
3030
0000
2002
0000
3003
0000
0022
0000
0033
0000
0110
0000
1000
0001
,
0000
0110
0220
0000
0000
0000
0000
0000
,
0000
0000
0000
0000
,
0000
0330
1000
0001
1000
0001
1000
0001
,
1000
0000
0001
1000
0001
0000
1000
0000
0001
0000
1000
0000
0001
0000
1000
0000
,
0001
0000
0100
0010
0100
0010
0100
0010
,
0100
0000
0010
0100
0010
0000
0100
0000
0010
0000
0100
0000
0010
0000
0100
0000
,
0010
0000
0001
0100
0001
0100
0001
0100
,
0001
0000
0100
0001
0100
0000
0001
0000
0100
0000
0001
0000
0100
0000
0001
0000
,
0100
0000
1000
0100
1000
0100
1000
0100
,
1000
0000
0100
1000
0100
0000
1000
0000
0100
0000
1000
0000
0100
0000
1000
0000
,
0100
0000
0010
1000
0100
0010
0001
0100
,
0010
0000
1000
0001
0010
0000
0100
0000
0010
0000
0001
0000
0010
0000
0001
0000
,
1000
0000
1000
0100
0010
0100
1000
0010
,
0100
0000
0001
0010
0001
0000
0100
0000
0010
0000
1000
0000
0100
0000
1000
0000
,
0010
0000
0010
0100
0001
1000
0100
0010
,
0100
0000
1000
0010
0100
0000
0001
0000
0010
0000
0100
0000
1000
0000
0010
0000
,
1000
0000
0001
0010
0100
0010
0001
0100
,
0010
0000
1000
0100
0010
0000
0100
0000
1000
0000
0010
0000
0100
0000
0001
0000
,
1000
0000
0100
0010
0100
1000
0010
0100
,
0010
0000
0100
0000
0010
0000
0000
1001
0000
0000
0001
0000
1000
0000
0000
1001
,
0000
1000
1000
0001
0010
0001
1000
0001
,
1000
0000
1000
0000
0010
0000
0000
0110
0000
0000
0100
0000
0010
0000
0000
0110
,
0000
1000
1000
0000
0001
0000
0001
0000
,
1000
1000
1000
1000
1000
1000
1000
1000
,
1000
1000
0010
0000
0010
0000
0010
0000
,
0010
0010
0010
0010
0010
0010
0010
0010
,
0010
0010
0020
0000
1030
0000
1000
0000
,
0010
0100
0010
0000
1000
0000
1010
0000
,
1100
0000
0101
0000
0001
1000
0001
1000
,
0001
1000
0001
0100
0001
0100
0001
0100
,
0001
0100
0202
0000
0000
0303
0001
0000
,
0001
0000
2002
0000
0000
3003
0220
0000
,
0000
0330
2020
0000
0000
3030
2200
0000
,
0000
3300
0220
0000
0000
0330
0022
0000
,
0033
0000
0202
0000
0000
1000
1000
1000
0303
0000
0220
0000
0000
0001
0001
0000
,
0330
0000
0000
0000
0220
0000
0000
0000
0000
0000
1000
0000
1000
0000
0000
0001
0000
0000
0001
0000
0001
0000
0000
0000
1000
0000
0000
0000
2002
0000
0000
0000
,
3333
0000
0000
0000
2002
0000
0000
0000
0000
0000
0100
0000
0100
0000
0000
0010
0000
0000
0100
0000
0010
0000
0000
0000
0010
0000
0000
0000
0220
0000
0000
0000
,
3333
0000
0000
0000
0220
0000
0000
0000
0000
0000
0001
0000
0001
0000
0000
1000
0000
0000
0001
0000
0001
0000
0000
0000
1000
0000
0000
0000
2002
0000
0000
0000
,
3333
0000
1010
1010
1010
1010
1100
1100
,
1100
1100
0110
0110
0110
0110
0011
0011
,
0011
0011
0110
0110
0110
0110
1100
1100
,
1100
1100
0110
0110
0110
0110
0011
0011
,
0011
0011
2002
3003
2200
3300
0220
0330
,
1100
0000
0100
0010
0000
0000
0011
0000
0220
0000
0000
0000
0000
0000
0000
0000
,
0000
0000
0000
0000
,
0000
0000
0000
0000
0330
0000
1000
0001
1000
0000
0000
0000
0000
0000
0001
1000
,
0001
0000
0000
0000
0000
0000
0001
0100
0001
0000
0100
0001
0100
0000
0001
0000
,
0001
0000
0000
0000
0001
0000
1000
0001
1000
0000
0000
0000
0000
0000
0001
1000
,
0001
0000
0000
0000
0000
0000
0001
0100
0001
0000
0100
0001
0100
0000
0001
0000
,
0001
0000
0010
0000
0010
0000
0010
0010
,
0001
0001
1000
1000
0010
0010
0100
0100
,
0010
0010
1000
1000
0001
0000
0001
0001
,
0010
0010
0001
0001
1000
1000
0010
0100
,
0010
0000
0000
0000
0000
0000
0010
1000
0010
0000
0000
0000
0000
0000
0001
0100
,
0001
0000
0000
0000
0000
0000
0001
0100
0001
0000
0100
0001
0100
0000
0001
0000
,
0010
0000
0000
0000
0001
0000
0001
0100
0001
0000
0000
0000
0000
0000
0100
0010
,
0100
0000
0000
0000
0000
0000
0010
0100
0010
0000
0010
1000
0010
0000
0001
0000
,
0001
0000
0100
0000
0010
0010
1000
1000
,
0100
0010
0100
1000
0010
0010
0100
0100
,
0010
0010
2000
0000
3001
0000
1000
0100
,
1000
0001
0100
0001
0010
0100
0010
0001
,
1000
0001
1000
0010
1000
0001
0010
0001
,
1001
0000
0000
0000
0000
0000
2000
0000
0000
0000
0200
0000
,
0000
0000
0000
0000
0000
0000
0000
0000
0000
0020
0000
0000
0000
0000
0000
0000
0000
0000
0000
0000
0000
0000
0000
0000
0000
0000
0000
0000
0000
0000
0000
0000
0000
0000
0000
0000
0000
0000
0000
0000
0002
0000
0000
0000
0000
0000
0000
0000
,
3333
0000
0000
0000
;

//---------------dance-single - ----------------
#NOTES:
     dance-single:
     :
     Medium:
     7:
     0.453,0.641,0.222,0.264,0.132:
0000
0000
0000
0000
,
0000
0000
0000
0000
,
0000
0000
0000
0000
,
0000
0000
0000
0000
,
0000
0000
0000
0000
,
0000
0000
0000
0000
,
0000
0000
0000
0000
,
0000
0000
0000
0000
,
0000
0000
0000
0010
1000
0000
0000
0000
0000
0000
0000
0001
0100
0000
0000
0000
,
0000
0000
0000
0001
0100
0000
0000
0000
0100
0000
0010
0000
0100
0000
0000
0000
,
0000
0000
0000
0001
0100
0000
0000
0000
0000
0000
0000
1000
0100
0000
0000
0000
,
0000
0000
0000
1000
0100
0000
0000
0000
0010
0000
0100
0000
0010
0000
0000
0000
,
0000
0000
0001
0000
0001
0000
1000
1000
,
0010
0000
0100
0000
0001
0000
0001
0001
,
0100
0000
0001
0000
0010
0000
0001
0001
,
0100
0000
0010
0000
1000
0000
0001
0001
,
0010
0000
0000
0100
1000
0000
0000
0000
0000
0000
0000
0001
0100
0000
0000
0000
,
0000
0000
0000
0001
0100
0000
0000
0000
0100
0000
0010
0000
0010
0000
0000
0000
,
0000
0000
0000
0010
1000
0000
0000
0000
0000
0000
0000
0010
1000
0000
0000
0000
,
0000
0000
0000
0010
0100
0000
0000
0000
0001
0000
0001
0000
0001
0000
0000
0000
,
0000
0000
0010
0000
0001
0010
0010
0000
,
0100
0010
0010
0000
0001
0001
0100
0000
,
0001
0001
0010
0000
0001
0001
0100
0000
,
0010
0010
0100
0000
0010
0010
1000
0000
,
0010
0000
0000
0100
0010
0000
0000
0000
0000
0000
0000
0001
0100
0000
0000
0000
,
0000
0000
0000
0001
0100
0000
0000
0000
0010
0000
0100
0000
0010
0000
0000
0000
,
0000
0000
0000
1000
0100
0000
0000
0000
0000
0000
0000
1000
0100
0000
0000
0000
,
0000
0000
0000
0010
0001
0000
0000
0000
0010
0000
0010
0000
0001
0000
0000
0000
,
0010
0100
0010
0100
1000
0001
0000
0100
,
0000
0001
0010
0001
1000
2002
0000
0000
,
0000
0000
0000
0000
,
0000
0000
0000
0000
0000
0000
0000
0000
0000
0000
0000
0000
0000
0000
0000
0000
0000
0000
0000
0000
0000
0000
0000
0000
0000
0000
0000
0000
0000
0000
0000
0000
0000
0000
0000
0000
0000
0000
0000
0000
0000
0000
0000
0000
0000
0000
0000
0000
0000
0000
0000
0000
0000
0000
0000
0000
0000
0000
0000
0000
0000
0000
0000
0000
0000
0000
0000
0000
0000
0000
0000
0000
0000
0000
0000
0000
0000
0000
0000
0000
0000
0000
0000
0000
0000
0000
0000
0000
0000
0000
0000
0000
0000
0000
0000
0000
0000
3003
0000
0000
0000
0000
0000
0000
0000
0000
0000
0000
0000
0000
0000
0000
0000
0000
0000
0000
0000
0000
0000
0000
0000
0000
0000
0000
0000
0000
0000
0000
0000
0000
0000
0000
0000
0000
0000
0000
0000
0000
0000
0000
0000
0000
0000
0000
1000
0000
0000
0000
0000
0000
0000
0000
0000
0000
0000
0000
0000
0000
0000
0000
0000
0000
0000
0000
0000
0000
0000
0000
0000
0000
0000
0000
0000
0000
0000
0000
0000
0000
0000
0000
0000
0000
0000
0000
0000
0000
0000
0000
0000
0000
0000
0000
,
0001
0000
0000
0000
0010
0000
0000
0010
0000
0000
0010
0000
0010
0000
0000
0000
,
0001
1000
1000
0010
,
1000
0001
1000
0001
1000
0001
1000
0001
,
1000
0001
1000
0001
1000
0001
0010
0000
,
0000
0001
0001
1000
0001
0000
1000
0000
,
0010
0110
0101
0101
,
0010
0001
0010
0001
0010
0001
0010
0001
,
0010
0001
0010
0001
0010
0000
0101
0000
,
0000
0010
0100
0220
,
0330
2020
3030
2002
,
3003
0202
0303
0220
,
0330
2020
3030
0202
,
0303
0000
0001
0000
0001
0000
0000
0100
0000
0000
0010
0000
0100
0000
0000
0000
,
0010
1010
1100
1100
,
0010
1000
0010
1000
0010
1000
0010
1000
,
0010
1000
0010
1000
0010
1000
0010
0000
,
1000
0000
0001
0000
1000
0000
0000
0010
0000
0000
0100
0000
0010
0000
0000
0000
,
1000
0001
0110
1100
,
0010
0100
0010
0100
0010
0100
0010
0100
,
0010
0100
0010
0100
0010
0100
0020
0000
,
0030
1000
0001
2002
,
3003
0202
0303
0220
,
0330
2020
3030
2200
,
3300
0000
0000
0000
0220
0000
0000
0000
0330
0000
0000
0000
0001
0000
0000
0001
,
0001
0001
0000
0000
1000
0000
0000
1000
1000
0000
0000
0000
0010
0000
0000
0010
,
0010
0000
0000
0010
0000
0000
0010
0000
0010
0000
0000
0000
0010
0000
0000
0000
0010
0000
0000
0000
0000
0000
0000
0000
1000
0000
0000
0000
0000
0000
1000
0000
,
1000
0000
0000
1000
0000
0000
1000
0000
1000
0000
0000
0000
1000
0000
0000
0000
1000
0000
0000
0000
0000
0000
0000
0000
0001
0000
0000
0000
0000
0000
0001
0000
,
0001
0000
0000
0001
0000
0000
0001
0000
0001
0000
0000
0000
0001
0000
0000
0000
0001
0000
0000
0000
0000
0000
0000
0000
0010
0000
0000
0000
0000
0000
0000
0000
,
0010
0000
0100
0100
0100
0000
1000
0000
,
1000
0000
0001
0001
0001
0000
0010
0000
,
0010
0000
0100
0100
0100
0000
1000
0000
,
1000
0000
0001
0001
0001
0000
1010
0000
,
0010
0000
0000
0000
0110
0000
0000
0000
0001
0000
0001
1000
0000
0000
1000
0000
,
0220
0000
0000
0000
,
0000
0000
0000
0330
,
0001
0001
0000
1000
0000
0010
0000
0000
,
0010
0010
0000
0100
0000
0000
0001
0000
,
1000
0000
1000
0010
1000
0010
1000
0010
,
1000
0010
1000
0010
1000
0010
1000
0010
,
2000
0000
3001
0000
1000
0000
1000
1000
,
0010
0010
0100
0000
0110
0000
0101
0000
,
1001
0000
0100
0010
0100
0010
0100
0010
,
0100
0010
0100
0010
0100
0010
0100
0010
,
0100
0000
0001
1000
,
2002
3003
0202
0303
,
0220
0330
2020
3030
,
2200
3300
0220
0330
,
0002
0000
0000
0000
0003
0000
0001
0000
0001
0000
0000
1000
0000
0000
0010
0000
,
0110
0010
1000
1000
,
0001
0000
0001
0100
0001
0100
0001
0100
,
0001
0100
0001
0100
0001
0100
0001
0100
,
0002
0000
0000
0000
0003
0000
0001
0000
0001
0000
0000
1000
0000
0000
0010
0000
,
0100
0010
0110
0010
,
1010
0000
1000
0100
1000
0100
1000
0100
,
1000
0100
1000
0100
1000
0100
1000
0100
,
1000
0000
0110
0001
,
2002
3003
2200
3300
,
0220
0330
0202
0303
,
2002
3003
2200
3300
,
0020
0000
0030
1000
1000
1000
0000
0000
0002
0000
0003
1000
1000
0000
0000
0000
,
0020
0000
0000
0000
0030
0000
0100
0000
0100
0000
0000
0100
0000
0000
0100
0000
0100
0000
0000
0000
0100
0000
0000
0000
0100
0000
0000
0000
0000
0000
0000
0000
,
0002
0000
0000
0000
0003
0000
0010
0000
0010
0000
0000
0010
0000
0000
0010
0000
0010
0000
0000
0000
0010
0000
0000
0000
0010
0000
0000
0000
0000
0000
0000
0000
,
0200
0000
0000
0000
0300
0000
1000
0000
1000
0000
0000
1000
0000
0000
1000
0000
1000
0000
0000
0000
1000
0000
0000
0000
1000
0000
0000
0000
0000
0000
0000
0000
,
0010
0010
0010
0010
1000
1000
1000
1000
,
0001
0001
0001
0001
0100
0100
0100
0100
,
0001
0001
0001
0001
1000
1000
1000
1000
,
0100
0100
0100
0100
0010
0010
0010
0010
,
0011
0000
0000
0000
1010
0000
0000
0000
0110
0000
0000
0000
0001
0000
1000
0001
,
0000
0100
0220
0000
0000
0000
0000
0000
,
0000
0000
0000
0000
,
0330
0000
1000
1000
0001
0000
1000
1000
,
0010
0000
0100
0100
0001
0000
0100
0100
,
0010
0000
1000
1000
0001
0000
1000
1000
,
0100
0000
0010
0010
0001
0000
0010
0010
,
0001
0000
0100
0010
0100
0000
0001
1000
,
0001
0000
0100
0010
0100
0000
0001
0100
,
0001
0000
1000
0100
1000
0000
0010
0100
,
0010
0000
1000
0001
1000
0000
0010
0100
,
0100
0000
0001
0001
0100
0001
0100
0001
,
0100
0000
0010
0010
0100
0010
0100
0010
,
1000
0000
0010
0010
0100
0001
1000
0001
,
0100
0000
0001
0001
1000
0100
1000
0100
,
0010
0000
0100
0100
1000
0010
0100
0010
,
1000
0000
0100
0100
0010
0100
1000
0010
,
0100
0000
0010
0010
1000
0001
1000
0001
,
0100
0000
0010
0010
0100
0010
0100
0010
,
1000
0000
0001
0001
0010
0001
0010
0001
,
0001
0000
1000
0000
1000
0000
0000
1000
0000
0000
0100
0000
1000
0000
0000
1000
,
0000
0010
0010
0010
0100
0010
0100
0010
,
0010
0000
0010
0000
1000
0000
0000
1000
0000
0000
0010
0000
0010
0000
0000
0010
,
0000
0010
0110
0000
0001
0000
0100
0000
,
0001
1000
0001
0000
1000
0100
1000
0000
,
0001
1000
1001
0000
1000
0000
0010
0000
,
1000
0010
0100
0000
0010
1000
0010
0000
,
0100
0010
0110
0000
1000
0000
0001
0100
,
0001
0000
0010
0000
0010
0000
0100
0100
,
0010
0001
0001
0001
,
1000
1000
0010
0000
0100
0010
0100
0000
,
0001
0100
0001
0000
0000
0000
0101
0000
,
1000
1100
1000
1001
,
0001
0101
0100
1001
,
1000
0101
0100
0101
,
0000
0000
0220
0000
0330
0001
0001
0001
0000
0000
0220
0000
0330
0001
0001
0000
,
0000
0000
0000
0000
0220
0000
0000
0000
0330
0000
0010
0000
0010
0000
0000
1000
0000
0000
1000
0000
0010
0000
0000
0000
0100
0000
0000
0000
0010
0000
0000
0000
,
0000
0000
0000
0000
2002
0000
0000
0000
3003
0000
0001
0000
0001
0000
0000
0001
0000
0000
0100
0000
0100
0000
0000
0000
0010
0000
0000
0000
0100
0000
0000
0000
,
0000
0000
0000
0000
2002
0000
0000
0000
3003
0000
0010
0000
0010
0000
0000
0100
0000
0000
0100
0000
0010
0000
0000
0000
0010
0000
0000
0000
1000
0000
0000
0000
,
0000
0000
0100
0100
0100
0100
0010
0010
,
0010
0010
0001
0001
0001
0001
1000
1000
,
1000
1000
0100
0100
0100
0100
1000
1000
,
1000
1000
0001
0001
0001
0001
0010
0010
,
0010
0010
0101
0000
1010
0000
1001
0000
,
1000
0000
1000
0010
0000
0000
0010
0000
0220
0000
0000
0000
0000
0000
0000
0000
,
0000
0000
0000
0000
,
0330
0000
0000
0000
0000
0000
0000
0001
1000
0000
0000
0000
0000
0000
0000
0010
,
1000
0000
0000
0000
0000
0000
0000
0100
0010
0000
0000
0000
0010
0000
0001
0000
,
0010
0000
0000
0000
0000
0000
0000
0001
0010
0000
0000
0000
0000
0000
0000
0100
,
1000
0000
0000
0000
0000
0000
0000
0001
1000
0000
0000
0000
0001
0000
1000
0000
,
0100
0000
1000
0000
0010
0000
0010
0010
,
0100
0000
0010
0010
1000
0000
0001
0001
,
0100
0000
0010
0010
0100
0000
0001
0001
,
1000
0000
0100
0100
0010
0000
0100
0100
,
1000
0000
0000
0000
0010
0000
0000
0010
0100
0000
0000
0000
0000
0000
0000
0010
,
1000
0000
0000
0000
0000
0000
0000
0001
1000
0000
0000
0000
0001
0000
0100
0000
,
0001
0000
0000
0000
0010
0000
0000
0001
0100
0000
0000
0000
0000
0000
0000
0010
,
0100
0000
0000
0000
0000
0000
0000
0010
1000
0000
0000
0000
0100
0000
1000
0000
,
0010
0000
0100
0000
0010
0000
0010
0010
,
1000
0000
0001
0001
1000
0000
0100
0100
,
0010
0000
0100
0000
1000
0000
1000
0100
,
1000
0100
1000
0100
1000
0100
1000
0100
,
1000
0100
1000
0100
1000
0100
1000
0100
,
1000
0000
0000
0000
0000
0000
2000
0000
0000
0000
0200
0000
,
3000
0000
0000
0000
0000
0000
0000
0000
0000
0020
0000
0000
0000
0000
0000
0000
0000
0000
0000
0000
0000
0000
0000
0000
0300
0000
0000
0000
0000
0000
0000
0000
0000
0000
0000
0000
0000
0000
0000
0000
0002
0000
0000
0000
0000
0000
0000
0000
,
0033
0000
0000
0000
;

//---------------dance-single - ----------------
#NOTES:
     dance-single:
     :
     Easy:
     4:
     0.251,0.347,0.020,0.104,0.005:
0000
0000
0000
0000
,
0000
0000
0000
0000
,
0000
0000
0000
0000
,
0000
0000
0000
0000
,
0000
0000
0000
0000
,
0000
0000
0000
0000
,
0000
0000
0000
0000
,
0000
0000
0000
0000
,
0000
1000
0000
1000
,
0000
1000
0001
0001
,
0000
0010
0000
0010
,
0000
0010
0100
0100
,
0000
1000
1000
0001
,
0000
1000
0001
0010
,
0000
0010
0001
1000
,
0100
1000
0010
0100
,
0010
1000
0000
1000
,
0000
1000
0001
0001
,
0000
0010
0000
0100
,
0000
0010
0001
0010
,
0000
0001
1000
0100
,
0010
0100
1000
0001
,
1000
0100
0010
0100
,
0010
0001
1000
0001
,
0100
0010
0000
0010
,
0000
0010
1000
1000
,
0000
1000
0000
1000
,
0000
1000
0010
0100
,
0000
0000
0010
0000
0010
1000
0000
1000
,
0000
1000
0100
0000
0100
0022
0000
0000
,
0000
0000
0000
0000
,
0000
0000
0033
0100
,
0000
1000
0010
0010
,
0010
1000
0001
1000
,
0010
0010
0100
0010
,
0100
0001
1000
0001
,
0000
0001
0001
0010
,
0100
0010
0001
1000
,
0100
0010
0100
1000
,
0010
0010
0100
0010
,
0000
0010
1000
0001
,
1000
0010
1000
0001
,
1000
0010
1000
0001
,
0100
0001
0010
0001
,
0000
0001
0010
0100
,
0010
0001
0001
0001
,
0000
0001
1000
0100
,
1000
0010
1000
0001
,
0000
0001
0001
0010
,
0010
0100
0100
0100
,
0000
1000
1000
0001
,
0001
0100
0001
0010
,
0000
0100
1000
0001
,
0000
0001
0000
0001
,
0000
0001
0000
0001
,
0000
0001
0000
2000
,
3001
0200
0310
2000
,
3100
0020
0031
0020
,
0130
2000
3001
0200
,
0310
2000
3001
0100
,
0100
0010
0010
1000
,
1000
0001
0100
0001
,
0010
0010
0100
0010
,
0001
0001
1000
1000
,
0010
0000
0000
0000
0100
0000
0000
0000
0010
0000
1000
0010
0000
0000
0100
0000
,
0020
0000
0000
0000
,
0000
0000
0000
0030
,
1000
1000
0001
1000
,
0010
0010
0100
0000
,
0100
0100
0010
0100
,
0001
1000
0001
1000
,
0010
0000
1000
1000
,
0001
1000
0001
1000
,
0100
0000
0100
0100
,
0010
0100
1000
0001
,
1000
0000
0100
0010
,
0100
0000
0100
0000
,
0100
0000
0100
0000
,
0100
0000
0100
0000
,
0100
0000
0100
1000
,
0010
1000
0001
0100
,
0010
0000
0010
0100
,
0001
1000
0100
0010
,
0100
0000
0100
1000
,
0100
0010
0001
0010
,
0100
0100
0000
0100
,
0100
0000
0100
0010
,
0001
0000
0001
1000
,
1000
0000
1000
0000
,
1000
0000
1000
0000
,
1000
0000
1000
0000
,
2000
3001
0020
0130
,
2000
3100
0020
0031
,
0020
0130
2000
3010
,
0200
0310
2000
3001
,
0001
0001
1000
1000
,
0001
0001
1000
1000
,
0001
0001
1000
1000
,
0001
0001
1000
1000
,
1001
0000
0000
0000
1001
0000
0000
0000
1001
0000
0000
0000
0010
0000
1000
0010
,
0000
0010
0200
0000
0000
0000
0000
0000
,
0000
0000
0000
0000
,
0000
0301
0001
0001
,
0001
1000
0001
1000
,
0001
0010
0010
0010
,
0010
0100
0010
0100
,
0010
0100
0100
0100
,
0100
1000
0100
1000
,
0100
0010
0010
0010
,
0010
0001
1000
0001
,
1000
0100
0100
0100
,
0100
0010
0100
0010
,
0100
1000
1000
1000
,
1000
0001
1000
0001
,
0100
0010
0010
0010
,
0010
1000
0100
1000
,
0100
0010
0010
0010
,
0010
0001
0100
0001
,
0100
0010
0010
0010
,
0010
1000
0100
1000
,
0001
0100
0100
0100
,
0100
0010
1000
0001
,
1000
0010
0000
0010
,
0000
0010
0010
0010
,
0000
0100
0000
0100
,
0000
0100
0100
0100
,
0000
0001
0000
0001
,
0000
0001
0001
0002
,
0000
0000
0000
0000
,
0000
1003
0000
1000
,
0000
1000
0000
1000
,
1000
0100
0000
0100
,
0000
0100
0000
0010
,
0000
0010
0000
0010
,
0000
0002
0000
1003
0000
2000
0000
3100
,
0000
0200
0000
1300
0000
2000
0000
3001
,
0000
0002
0000
0013
0000
0020
0000
0031
,
0000
0002
0000
0103
0000
0200
0000
0310
,
0000
1000
1000
0010
,
0010
1000
1000
0001
,
0001
0100
0010
0100
,
0001
1000
0100
0010
,
0100
1000
1000
0101
,
0001
0000
0100
0010
0000
0000
0100
0000
0002
0000
0000
0000
0000
0000
0000
0000
,
0000
0000
0000
0000
,
0000
0000
1003
1000
,
0001
0001
1000
0010
,
0100
0000
0001
0001
,
1000
1000
0001
0100
,
0010
0100
0001
0000
,
0001
1000
0001
1000
,
0001
0100
0010
0000
,
0010
0010
0100
0010
,
0100
0010
1000
0000
,
1000
0000
1000
1000
,
0001
0001
0010
0000
,
0010
0000
0010
0010
,
0100
0100
1000
1000
,
0001
0001
1000
0010
,
0100
0010
2002
0000
,
0000
0000
0000
0000
,
0000
0000
0000
0000
,
0000
0000
0000
0000
,
0000
0000
0000
0000
,
3003
0000
0000
0000
;
