#TITLE:This Ain't A Scene, It's An Arms Race;
#SUBTITLE:(Jason Nevin's Rockdance Remix);
#ARTIST:Fall Out Boy;
#BANNER:This Ain't A Scene, It's An Arms Race-bn.png;
#BACKGROUND:This Ain't A Scene, It's An Arms Race-bg.png;
#LYRICSPATH:This Ain't A Scene, It's An Arms Race Body Step Instructions.lrc;
#CDTITLE:.\CDTITLES\BScd.png;
#MUSIC:This Ain't A Scene, It's An Arms Race.mp3;
#OFFSET:-0.045;
#SAMPLESTART:76.94;
#SAMPLELENGTH:15.0;
#BPMS:0=127.99;
#BGCHANGES:0.4=This Ain't A Scene.avi=1=1=1=0,999=-=1=0=0=0;

//---------------dance-single - ----------------
#NOTES:
     dance-single:
     :
     Medium:
     4:
     0.325,0.292,0,0.299,0:
0020
0001
0031
0100
,
0020
1000
1030
0100
,
0020
0001
0031
0100
,
0020
1000
1030
0100
,
0020
0001
0031
1000
,
0020
1000
1030
0001
,
0020
0001
0031
1000
,
0020
1000
1030
0001
,
0010
0001
0100
0001
,
0010
0001
0100
0001
,
0010
0001
0100
0001
,
0010
0001
0100
0001
,
0010
0001
0100
0001
,
0010
0001
0100
0001
,
0010
0001
0100
0001
,
0010
0001
0100
0001
,
0010
0001
0100
0001
,
0010
0001
0100
0001
,
0010
0001
0100
0001
,
0010
0001
0100
0001
,
0010
0001
0100
0001
,
0010
0001
0100
0001
,
0010
0001
0100
0001
,
0010
0001
0100
0001
,
0020
0001
0031
1000
,
0020
1000
1030
0001
,
0020
0001
0031
1000
,
0020
1000
1030
0001
,
0020
0001
0031
1000
,
0020
1000
1030
0001
,
0020
0001
0031
1000
,
0020
1000
1030
0001
,
0020
0001
0031
1000
,
0010
1000
0100
1000
,
0010
1000
0100
1000
,
0010
1000
0100
1000
,
0010
1000
0100
1000
,
0010
1000
0100
1000
,
0010
1000
0100
1000
,
0010
1000
0100
1000
,
0010
1000
0100
1000
,
0010
1000
0100
1000
,
0010
1000
0100
1000
,
0010
1000
0100
1000
,
0010
1000
0100
1000
,
0010
1000
0100
1000
,
0010
1000
0100
1000
,
0010
1000
0100
1000
,
0010
1000
0100
1000
,
0020
1000
1030
0001
,
0020
0001
0031
1000
,
0020
1000
1030
0001
,
0020
0001
0031
1000
,
0020
1000
1030
0001
,
0020
0001
0031
1000
,
0020
1000
1030
0001
,
0020
0000
0031
1000
,
0020
0000
1030
0001
,
0020
0000
0031
1000
,
0020
0000
1030
0001
,
0020
0000
0031
1000
,
0020
0000
1030
0001
,
0020
0000
0031
1000
,
0020
0000
1030
0001
,
0020
0000
0031
1000
,
0020
0000
1030
0001
,
0010
0001
0100
0001
,
0020
0000
0031
1000
,
0010
1000
0100
1000
,
0020
0000
1030
0001
,
0010
0001
0100
0001
,
0020
0000
0031
1000
,
0010
1000
0100
1000
,
0020
0000
1030
0001
,
0010
0001
0100
0001
,
0020
0000
0031
1000
,
0010
1000
0100
1000
,
0020
0000
1030
0001
,
0010
0001
0100
0001
,
0020
0000
0031
1000
,
0010
1000
0100
1000
,
0020
0000
1030
0001
,
0020
0000
0031
1000
,
0020
0000
1030
0001
,
0020
0000
0031
1000
,
0020
0000
1030
0001
,
0020
0000
0031
1000
,
0020
0000
1030
0001
,
0020
0000
0031
1000
,
0020
0000
1030
0001
,
0020
0000
0031
0000
;
