#TITLE:The Power;
#ARTIST:ManOwaR;
#BANNER:The Power BN.PNG;
#BACKGROUND:The Power BG.PNG;
#CDTITLE:.\CDTITLES\Vspeed.png;
#MUSIC:The Power.mp3;
#OFFSET:-0.055;
#SAMPLESTART:86.35;
#SAMPLELENGTH:12;
#BPMS:0=144;
#BGCHANGES:0=The Power.AVI=1=1=1=0,999=-=1=0=0=0;

//---------------dance-single - ----------------
#NOTES:
     dance-single:
     :
     Challenge:
     11:
     0.970,0.986,0.281,0.570,0.984:
0100
0010
0100
0000
0001
0100
0001
0000
0010
0100
0010
0000
0001
1000
0001
0000
,
0100
0010
0100
0000
0001
0100
0001
0000
0010
0100
0010
0000
0001
0010
0001
0000
,
0100
0010
0100
0000
0001
0100
0001
0000
0010
0100
0010
0000
0001
0010
0001
0000
,
1000
0010
1000
0000
0001
1000
0001
0000
0010
0100
0010
0000
0001
1000
0001
0000
,
0100
0010
0100
0000
0001
0100
0001
0000
0010
0100
0010
0000
0001
0100
0001
0000
,
0100
0010
0100
0000
0001
1000
0001
0000
0010
0100
0010
0000
0100
0010
0100
0000
,
0010
0001
0010
0000
0100
1000
0100
0000
0010
0100
0010
0000
0001
0010
0001
0000
,
0100
0010
0100
0000
0001
0010
0001
0000
0010
0100
0010
0000
0100
1000
0100
0000
,
0020
0000
0031
0100
0000
0010
0100
0000
0001
0010
0001
0000
0100
0010
0100
0000
,
0002
0000
0103
0010
0000
1000
0010
0000
0100
0001
0100
0000
0002
0000
0000
0000
,
0023
0000
0031
0100
0000
0010
0100
0000
0001
0010
0001
0000
0100
0010
0100
0000
,
0002
0000
0103
0010
0000
1000
0010
0000
1000
0100
1000
0000
0002
0000
0000
0000
,
2003
0000
3001
0100
0000
0010
0100
0000
0001
0010
0001
0000
0100
0010
0100
0000
,
0002
0000
1003
0100
0000
0100
0010
0000
0100
0010
0001
0000
0200
0000
0000
0000
,
0302
0000
1003
0010
0000
0100
0010
0000
0100
0010
0100
0000
0010
0100
0001
0000
,
0020
0000
0031
0100
0000
0010
0100
0000
0010
1000
0001
0000
0002
0000
0000
0000
,
2003
0010
0100
0010
0100
0010
3000
1000
,
0002
0000
0010
0000
0100
0000
0010
0100
0000
0000
0000
0000
0000
0000
1000
0000
,
0103
0100
1000
0100
1000
0000
0000
1000
,
0200
0000
1300
0000
0100
0010
0000
0000
0200
0000
0000
0000
0000
0000
1300
0000
,
0010
0100
0010
0000
1000
0100
0000
0000
,
0010
0000
0100
0000
0010
0000
0001
0200
0000
0000
0000
0000
0000
0000
0000
0300
,
0001
0010
0001
0010
0100
0000
0000
1000
,
0100
0000
1000
0000
0100
0010
0000
0000
0200
0000
0000
0000
0000
0000
1300
0000
,
0010
1000
0100
0010
0100
1000
0000
0100
,
0010
0000
0100
0010
0000
0000
0001
0000
0200
0000
0000
0000
0300
0000
0000
0000
,
0010
0000
1000
0100
0000
0000
0010
0000
0100
0010
0000
0000
0000
0000
0000
0000
,
0100
0000
0010
0000
0100
0000
2000
0000
0000
3000
0110
0000
0000
0000
1000
0000
,
0100
1000
0010
0100
0001
0001
0000
0100
,
0010
1000
0100
1000
0010
0000
0000
0000
,
0100
0000
0010
0000
1000
0000
0100
0000
0010
0001
0000
0000
0000
0000
0100
0000
,
0010
0000
0100
0000
0010
0000
1000
0000
2020
0000
0000
3030
0001
1000
0100
1000
,
0100
0010
0100
1000
0010
0100
0010
0100
0001
0010
0100
0000
1100
0000
1100
0000
,
0001
0010
0001
0100
0010
1000
0100
1000
0010
0100
0001
0000
0110
0000
0000
0000
,
1000
0010
0100
0001
0010
0100
0010
0100
1000
0010
0100
0000
0110
0000
1100
0000
,
0100
0010
0100
1000
0100
0010
0100
1000
0001
1000
0100
0000
0110
0000
0000
0000
,
1000
0010
1000
0100
1000
0010
0100
0001
0010
0100
0010
0000
0110
0000
0011
0000
,
1000
0100
1000
0010
0100
0001
0010
0100
0010
0001
0100
0000
0110
0000
0000
0000
,
0100
0010
1000
0100
1000
0010
0100
0001
0010
0100
0010
0000
1100
0000
0101
0000
,
0010
1000
0100
0001
0100
1000
0001
0100
0010
0100
0001
0000
1100
0000
0000
0000
,
0110
0001
0001
0010
0001
0100
0000
0001
,
0100
0000
0000
0100
0000
0000
0010
0000
0020
0000
0000
0000
0030
0000
0000
0000
,
0000
0000
0100
0000
0010
0000
1000
0000
0100
0000
0000
0200
0000
0000
1300
0000
,
0200
0000
0000
0010
0300
0000
0100
0000
2000
0000
0000
0000
3000
0000
0100
0000
,
0010
0000
0000
0100
0000
0000
1000
0000
0002
0000
0000
0000
0003
0000
1000
0000
,
0100
0000
0000
0010
0000
0000
0100
0000
0020
0000
0000
0000
0030
0000
0010
0000
,
0100
0000
0000
1000
0000
0000
0010
0000
0200
0000
0000
0000
0300
0000
0100
0000
,
0010
0000
0000
0100
0000
0000
0010
0000
2200
0000
0000
0000
3300
0000
0000
0000
,
0100
0000
0010
0000
0001
0000
0100
0010
0000
0000
0100
0000
0010
0000
1000
0000
,
0200
0000
0000
0000
0310
0000
0001
0000
0100
0010
0000
0000
0000
0000
0010
0000
,
1000
0100
1000
0010
0200
0000
0300
0010
,
1000
0000
0100
0000
0010
0000
0001
0000
0100
0010
0000
0000
0000
0000
1000
0000
,
0100
1000
0010
0100
0001
0001
0000
0000
,
0010
0000
0001
0000
0100
0000
0010
2000
0000
0000
0000
3000
0000
0000
0000
0000
,
1000
0100
1000
0010
0200
0000
0300
0100
,
0001
0000
0010
0000
0100
0000
0010
0000
0000
0000
0001
0000
0100
0001
0010
0001
,
0010
0100
1000
0100
1000
0100
0010
0100
1000
0100
1000
0000
1100
0000
1100
0000
,
0010
0001
0010
0100
0010
0100
0001
0100
0010
0100
0001
0000
0110
0000
0000
0000
,
1000
0010
0100
0001
0010
0100
0010
0100
1000
0010
0100
0000
0110
0000
1100
0000
,
1000
0100
1000
0100
0010
0001
0010
0001
1000
0100
0010
0000
0110
0000
0000
0000
,
1000
0010
1000
0010
1000
0001
1000
0001
0010
0100
0010
0000
0110
0000
0011
0000
,
1000
0100
1000
0010
0100
0001
0010
0100
0010
0001
0100
0000
0110
0000
0000
0000
,
0100
0010
1000
0100
1000
0010
0100
0001
0010
0100
0010
0000
1100
0000
0101
0000
,
0010
1000
0100
0001
0100
1000
0001
1000
0010
0100
0001
0000
1100
0000
0000
0000
,
0100
0010
0100
1000
0100
0001
0100
0010
,
0100
1000
0100
0001
0200
0000
0000
0000
,
1300
0001
0010
0100
0010
0001
0100
0000
0001
0010
0001
0000
0010
0100
0010
0000
,
0001
0100
0001
0010
0100
0010
0100
0000
1000
0010
1000
0000
0100
1000
0100
0000
,
0010
0100
0010
1000
0001
1000
0001
0100
0010
1000
0100
1000
0020
0000
0030
0000
,
1000
0100
0010
0100
0010
0001
0100
0010
1000
0100
1000
0010
0200
0000
0300
0000
,
0100
0001
0010
0100
0010
0001
0100
0010
0100
0001
0100
0000
0010
0100
0010
0000
,
1000
0100
1000
0100
0010
0100
0010
0000
0100
0001
0100
0000
0100
0010
0100
0000
,
1000
0100
0010
0100
0010
0100
1000
0001
1000
0001
0100
0010
0020
0000
0030
0000
,
0010
0100
0001
0010
0100
0010
0001
0100
0010
0100
0010
1000
0020
0000
0030
0000
,
0020
0000
2030
3002
0000
0203
0000
0320
,
2030
0000
0000
0000
0000
0000
0000
0000
0000
0000
0000
0000
0000
0000
0000
0000
0000
0000
0000
0000
0000
0000
0000
0000
0000
0000
0000
0000
0000
0000
0000
0000
0000
0000
0000
0000
0000
0000
0000
0000
0000
0000
0000
0000
0000
0000
0000
0000
3200
0000
0000
0000
0000
0000
0000
0000
0000
0000
0000
0000
0000
0000
0000
0000
0000
0000
0000
0000
0000
0000
0000
0000
0320
0000
0000
0000
0000
0000
0000
0000
0000
0000
0000
0000
0000
0000
0000
0000
0000
0000
0000
0000
0000
0000
0000
0000
0000
0000
0000
0000
0000
0000
0000
0000
0000
0000
0000
0000
0000
0000
0000
0000
0000
0000
0000
0000
0000
0000
0000
0000
0000
0000
0000
0000
0000
0000
0000
0000
0000
0000
0000
0000
0000
0000
0000
0000
0000
0000
0000
0000
0000
0000
0000
0000
0000
0000
0000
0000
0000
0000
0000
0000
0000
0000
0000
0000
0000
0000
0000
0000
0000
0000
0000
0000
0000
0000
0000
0000
0000
0030
0000
0000
0000
0000
0000
0000
0000
0000
0000
0000
0000
0000
0000
0000
0000
0000
0000
0000
0000
0000
0000
0000
,
0100
0010
0001
0100
0001
0010
0100
0010
,
0001
0000
0100
0000
0001
0000
0010
0000
0100
0010
0001
0000
1000
0100
1000
0100
,
0010
0100
1000
0000
0000
0000
0001
0100
0010
0100
0001
0010
0100
1000
0010
0100
,
0001
0100
0010
1000
0100
1000
0010
0100
0001
0010
0001
0010
0001
0010
0001
1000
,
0020
2030
3200
0000
,
1300
0010
1000
0100
0010
0100
0010
0001
0010
0200
0000
0000
,
2300
0000
0000
0000
3001
0010
0100
0010
0001
1000
0100
1000
0010
0100
0001
0100
,
0010
1000
0100
1000
0010
0100
0010
1000
0100
1000
0001
1000
0001
0010
0100
0010
,
2000
0000
0000
0000
0000
0000
0000
0000
3010
0100
0010
1000
0001
1000
0001
0010
,
0100
0010
0100
0010
0001
0010
0001
1000
0100
1000
0100
1000
0010
0100
0010
0100
,
0001
0100
0001
0100
0000
0001
0000
1000
0100
1000
0100
1000
0010
0100
0010
0100
,
0010
1000
0100
0010
0000
0010
0000
0100
0010
0100
0010
0001
1000
0001
1000
0010
,
0100
0010
0100
0001
0000
1000
0000
0010
0100
0010
1000
0100
1000
0010
0100
0010
,
0100
0010
1000
0100
0000
1000
0000
0010
0100
0010
1000
0100
1000
0010
0100
0010
,
1000
0010
0100
0002
0000
0203
0000
0310
1000
0010
0100
0001
0100
0010
0100
0001
,
0010
0100
0010
0002
0000
0203
0000
0310
1000
0010
0100
0010
1000
0100
1000
0010
,
1000
0010
0100
0002
0000
0203
0000
0300
0001
0010
0001
0000
0100
0010
0100
0000
,
0010
0100
0010
0000
1000
0100
1000
0000
0001
0010
0001
0000
1000
0100
1000
0010
,
0100
0010
1000
0100
1000
0000
0010
0100
0010
0000
0100
0010
0100
0000
0010
1000
,
0010
0000
0100
0001
0100
0000
0010
0100
0001
0000
0010
0001
0100
0001
0010
0100
,
1000
0100
0010
0100
0010
0001
0010
0001
1000
0001
1000
0001
0010
0100
0010
0100
,
1000
0100
1000
0100
1000
0000
0010
0000
0010
0000
1000
0000
0100
0000
0010
0000
,
1001
0002
2003
3020
0230
0320
0230
0302
,
0023
0230
2300
3020
0230
0320
2030
3200
,
2300
3020
0230
0302
0023
0230
0320
0032
,
2003
3200
2300
3020
0230
0302
0023
0230
,
0320
0032
2003
3020
0230
0302
0203
0320
,
2030
3200
0320
0230
2300
3002
2003
3200
,
0320
0032
0203
0320
0230
0302
2003
3020
,
0230
0320
2030
3200
2300
3020
0230
0302
,
1003
0100
1000
0100
0010
0001
0010
0001
1000
0001
1000
0001
0100
0001
0010
0100
,
0010
0001
0100
0010
0100
0001
0010
0100
0010
0001
0100
0010
0200
0000
0000
0300
,
1100
0000
0100
0000
0010
0000
0001
0100
0000
0000
0020
0000
0000
0000
0030
0000
,
0100
0000
0001
0000
0010
0000
0100
2000
0000
0000
0000
3000
0000
0000
0000
0000
,
1000
0000
0100
0000
1000
0010
0000
0000
0100
0000
0001
0000
0010
0000
0100
0000
,
0010
0000
0001
0000
0100
0000
0001
0020
0000
0000
0000
0030
0000
0000
0000
0000
,
0011
0010
0001
0100
0001
0020
0000
0031
,
0100
0000
0010
0100
0002
0000
0003
0000
,
0100
0000
0010
0100
0000
0000
0001
0000
0100
0000
0010
0100
0000
0000
0001
0000
,
0010
0000
0001
0100
0000
0000
0010
0000
2000
0000
0000
0000
3000
0000
0000
0000
,
0011
0000
0010
0001
0000
0000
0100
0000
0010
0000
0100
0010
0000
0000
0100
0000
,
0001
0010
0100
1000
0020
0000
0030
0000
,
1000
0000
0100
0000
1000
0000
0010
0000
0200
0000
0000
0000
0300
0000
0001
0010
,
0100
0010
0100
0010
0002
0000
0000
0003
,
0110
0010
0100
0001
0020
0000
0030
0100
,
1000
0010
0100
0010
2000
0000
3000
0000
,
0100
1000
0010
1000
0200
0000
0300
1000
,
0010
0000
1000
0000
0100
0000
0010
0000
2002
0000
0000
3003
0001
1000
0100
1000
,
0100
0010
0100
1000
0010
0100
0010
0100
0001
0010
0100
0000
1100
0000
1100
0000
,
0001
0010
0001
0100
0010
1000
0100
1000
0010
0100
0001
0000
0110
0000
0000
0000
,
1000
0010
0100
0001
0010
0100
0010
0100
1000
0010
0100
0000
0110
0000
1100
0000
,
0100
0010
0100
1000
0100
0010
0100
1000
0001
1000
0100
0000
0110
0000
0000
0000
,
1000
0010
1000
0100
1000
0010
0100
0001
0010
0100
0010
0000
0110
0000
0011
0000
,
1000
0100
1000
0010
0100
0001
0010
0100
0010
0001
0100
0000
0110
0000
0000
0000
,
0100
0010
1000
0100
1000
0010
0100
0001
0010
0100
0010
0000
1100
0000
0101
0000
,
0010
1000
0100
0001
0100
1000
0001
0100
0010
0100
0001
0000
2020
0000
0000
3030
,
0001
1000
0100
1000
0100
0010
0100
1000
0010
0100
0010
0000
1100
0000
1100
0000
,
0001
0010
0001
0100
0010
1000
0100
1000
0010
0100
0001
0000
0110
0000
0000
0000
,
1000
0010
0100
0001
0010
0100
0010
0100
1000
0010
0100
0000
0110
0000
1100
0000
,
0100
0010
0100
1000
0100
0010
0100
1000
0001
1000
0100
0000
0110
0000
0000
0000
,
1000
0010
1000
0100
1000
0010
0100
0001
0010
0100
0010
0000
0110
0000
0011
0000
,
1000
0100
1000
0010
0100
0001
0010
0100
0010
0001
0100
0000
0110
0000
0000
0000
,
0100
0010
1000
0100
1000
0010
0100
0001
0010
0100
0010
0000
1100
0000
0101
0000
,
0010
1000
0100
0001
0100
1000
0001
0100
0010
0100
0001
0000
1100
0000
0000
0000
,
1000
0010
0100
0010
0100
0001
0100
0001
0100
0010
1000
0000
1100
0000
1100
0000
,
0001
0010
0001
0100
0010
1000
0100
1000
0010
0100
0001
0000
0110
0000
0000
0000
,
1000
0010
0100
0001
0010
0100
0010
0100
1000
0010
0100
0000
1010
0000
1100
0000
,
0100
0010
0100
1000
0100
0010
0100
1000
0001
1000
0001
0000
0110
0000
0000
0000
,
0100
0010
1000
0100
1000
0010
0100
0001
0010
0100
0010
0000
0110
0000
0011
0000
,
1000
0100
1000
0010
0100
0001
0010
0100
0010
0001
0100
0000
0110
0000
0000
0000
,
0100
0010
1000
0100
1000
0010
0100
0001
0010
0100
0010
0000
1100
0000
0101
0000
,
1000
0001
0100
0001
0100
0001
1000
0100
1000
0100
0010
0001
0010
0001
1000
0001
,
1000
0001
0100
0010
0100
0010
1000
0010
1000
0010
0100
0010
2002
0000
3003
0000
;

//---------------dance-single - ----------------
#NOTES:
     dance-single:
     :
     Hard:
     9:
     0.689,0.717,0.269,0.570,0.277:
1000
0000
0100
0010
0000
0100
0000
0010
,
0001
0200
0000
0000
,
0301
0000
0010
0100
0000
1000
0000
0010
,
1000
0200
0000
0000
0000
0000
0000
0000
,
0310
0000
0001
0010
0000
0100
0000
0010
,
0001
0002
0000
0000
,
1003
0000
0100
0010
0000
0100
0000
1000
,
0020
0000
2030
0000
,
3001
0001
0010
0001
0010
0001
0010
0100
,
0100
1000
0100
1000
0100
1000
0200
0000
,
0310
0010
0100
1000
0010
0100
0010
1000
,
0001
0001
0010
0001
0010
0100
2000
0000
,
3020
0130
0001
0010
0100
1000
0010
0100
,
0002
0013
0100
0010
0100
0010
0002
0000
,
0203
0301
0010
0001
0100
0010
0100
0001
,
1000
1000
0010
1000
0010
1000
0020
0000
,
0230
0301
1000
0001
0100
0020
0000
1030
,
0010
0000
0100
0000
0010
0000
1000
0100
0000
0000
0000
0000
0000
0000
1000
0000
,
0001
0100
0010
0100
0002
0000
0003
0001
,
1000
0000
0010
0000
0100
0010
0000
0000
0200
0000
0000
0000
0000
0000
0301
0000
,
0010
0001
0100
0000
0010
0200
0000
0300
,
0001
0000
0010
0000
0100
0000
0010
0001
0000
0000
0000
0000
0000
0000
0000
0000
,
0100
0001
0010
0100
0010
0000
0000
0100
,
1000
0000
0010
0000
0100
0001
0000
0000
0020
0000
0000
0000
0000
0000
0031
0000
,
0100
0001
0010
0100
1000
0010
0000
1000
,
0100
0000
1000
0010
0000
0000
1000
0000
0010
0000
0000
0000
0000
0000
0000
0000
,
0100
0000
0010
1000
0000
0000
0100
0000
0010
0000
0001
0000
0000
0000
0000
0000
,
0100
0010
0100
0001
0000
0010
0000
0100
,
1000
0100
1000
0100
0010
0001
0000
1000
,
0100
1000
0010
1000
0200
0000
0300
0000
,
0100
0000
0010
0000
0100
0000
1000
0000
0010
0100
0000
0000
0000
0000
0100
0000
,
0010
0100
0010
1000
0200
0000
1300
0001
,
0001
1000
0100
1000
0100
0010
0101
0110
,
0100
0010
0100
0001
0010
0100
0022
0033
,
0100
0010
1000
0100
1000
0010
1100
0011
,
1000
0100
1000
0010
0100
0001
0220
0330
,
0010
1000
0100
1000
0010
0100
1010
0110
,
0010
1000
0100
1000
0010
0100
0220
0330
,
0001
1000
0010
0100
0010
1000
0110
1001
,
0010
0100
0001
0010
0100
0010
2200
3300
,
1001
0000
0100
0000
0010
0000
1000
0000
0100
0000
0000
0010
0000
0000
0010
0000
,
0100
0000
0000
0010
0000
0000
0100
0000
2002
0000
0000
0000
3003
0000
0000
0000
,
0000
0000
1000
0000
0010
0000
1000
0000
0100
0000
0000
0020
0000
0000
0031
0000
,
0002
0000
0000
1000
0003
0000
0100
0000
2000
0000
3000
0000
0000
0000
0100
0000
,
0010
0000
0000
0001
0000
0000
0100
0000
0020
0000
0000
0000
0030
0000
0100
0000
,
0001
0000
0000
0010
0000
0000
0100
0000
2000
0000
3000
0000
0000
0000
0100
0000
,
0010
0000
0000
0100
0000
0000
1000
0000
0020
0000
0030
0000
0000
0000
1000
0000
,
0200
0000
0300
0010
0000
0000
0100
0000
2000
0000
0000
0000
3000
0000
0000
0000
,
0010
0010
1000
0100
0010
0100
1000
0010
,
0100
0000
0000
0000
0010
0000
0100
0000
0001
0010
0000
0000
0000
0000
0001
0000
,
0100
0001
0010
0100
2020
3030
0000
1000
,
0100
0000
1000
0000
0010
0000
0100
0000
0010
1000
0000
0000
0000
0000
0100
0000
,
0010
0001
0100
0010
0100
0001
0000
0000
,
0100
0000
0010
0000
0100
0000
0001
2002
0000
0000
0000
3003
0000
0000
0000
0000
,
1000
0010
0100
0001
2020
0000
3030
1000
,
0100
1000
0010
0200
0000
0320
1000
1030
,
1000
0100
1000
0010
0100
0010
0110
0101
,
0010
0100
0001
0010
0100
0010
0220
0330
,
1000
0100
1000
0010
0100
0010
0101
0101
,
0010
1000
0100
0010
0100
1000
2200
3300
,
0010
0100
1000
0010
0100
0010
1010
1001
,
0100
0010
1000
0100
0001
0100
2020
3030
,
0100
0001
0010
0100
0010
0001
0110
1100
,
0010
0100
0001
0010
0100
0010
2002
3003
,
0100
0010
0100
1000
0100
0001
0100
0010
,
0100
1000
0100
0001
0200
0000
0000
0000
,
0301
0010
0001
0100
0010
0100
1000
0100
,
1000
0100
0010
0100
0010
0001
0010
0100
,
0010
1000
0100
0010
0001
0010
0200
0300
,
1000
0010
0100
0001
0100
0010
2000
3000
,
1000
0100
1000
0100
0010
0010
0001
0001
,
0100
0010
0100
0010
1000
1000
0100
0100
,
0010
0001
0010
0100
0010
0001
2000
3000
,
1000
0100
0010
0100
1000
0100
0020
0030
,
0200
0000
0320
0032
0000
0203
0000
0320
,
2030
0000
3200
0320
0000
0000
0000
0000
,
0230
0000
0320
0032
0000
0203
0000
0302
,
0023
0000
0032
0203
0000
0302
0000
0000
,
0023
0000
0000
0030
0001
0100
0010
0100
0001
0010
0100
0010
,
0001
0100
0001
0010
0100
1000
0010
0100
0010
1000
0100
0010
,
0200
2300
3200
0000
,
1300
0010
1000
0100
0010
0100
0020
0000
,
0032
0000
0000
0003
0100
0010
1000
0100
1000
0010
0100
0001
,
0010
0100
0010
0001
1000
0010
1000
0100
1000
0010
0100
0001
,
0020
0000
0000
0000
0000
0000
0130
1000
0010
0100
0001
1000
,
0010
0100
0010
0100
0010
1000
0100
1000
0010
0100
0001
0010
,
0100
0000
0000
0000
0000
0000
1000
0000
0000
0000
0000
0000
0000
0000
0000
0100
0000
0000
0000
0000
0000
0000
0000
0000
0010
0000
0000
0000
0001
0000
0000
0000
0010
0000
0000
0000
0100
0000
0000
0000
0010
0000
0000
0000
0001
0000
0000
0000
,
0100
0000
0000
0000
0000
0000
0010
0000
0000
0000
0000
0000
0000
0000
0000
1000
0000
0000
0000
0000
0000
0000
0000
0000
1000
0000
0000
0000
0100
0000
0000
0000
1000
0000
0000
0000
0010
0000
0000
0000
0100
0000
0000
0000
0001
0000
0000
0000
,
0010
0000
0000
0000
0000
0000
0001
0000
0000
0000
0000
0000
0000
0000
0000
0100
0000
0000
0000
0000
0000
0000
0000
0000
0010
0000
0000
0000
0100
0000
0000
0000
0001
0000
0000
0000
0010
0000
0000
0000
0100
0000
0000
0000
1000
0000
0000
0000
,
0010
0000
0000
0000
0000
0000
0100
0000
0000
0000
0000
0000
0000
0000
0000
0010
0000
0000
0000
0000
0000
0000
0000
0000
1000
0000
0000
0000
0010
0000
0000
0000
0100
0000
0000
0000
0001
0000
0000
0000
0010
0000
0000
0000
0100
0000
0000
0000
,
1000
0000
0000
0000
0000
0000
0100
0000
0000
0000
0000
0000
0000
0000
0000
0010
0000
0000
0000
0000
0000
0000
0000
0000
0001
0000
0000
0000
1000
0000
0000
0000
0010
0000
0000
0000
0100
0000
0000
0000
0010
0000
0000
0000
1000
0000
0000
0000
,
0001
0000
0000
0000
0000
0000
0100
0000
0000
0000
0000
0000
0000
0000
0000
0010
0000
0000
0000
0000
0000
0000
0000
0000
1000
0000
0000
0000
0010
0000
0000
0000
1000
0000
0000
0000
0010
0000
0000
0000
0100
0000
0000
0000
0010
0000
0000
0000
,
1000
0001
1000
0010
0010
0100
0001
0010
,
0100
0010
0001
0100
0001
1000
0001
0001
,
0010
0010
0100
0100
1000
1000
0010
0010
,
0100
0100
0010
0010
1000
1000
0001
0001
,
0002
0010
0010
0010
,
0010
0010
0010
0013
,
2002
0000
0000
3003
0002
0000
2003
0000
,
3020
0000
2030
0000
,
3200
0000
2300
3020
,
2030
0000
3200
0320
,
0230
0000
0320
0000
,
0032
0000
0203
0000
,
0302
0000
0023
0000
,
0032
0000
0000
0003
0220
0000
0000
0330
,
0001
0010
0001
0100
0010
1000
0100
1000
0010
0100
0001
0010
,
0100
0000
0000
0000
1000
0000
0000
0000
0010
0000
0000
0000
0100
0000
0000
0000
0001
0000
0000
0000
0010
0000
0000
0000
0100
0000
0000
0000
1000
0000
0100
0000
0000
0010
0000
0000
0001
0000
0000
0000
0000
0000
0000
0000
0000
0000
0000
0000
,
0010
0000
0100
0000
0010
0000
0001
0100
0000
0000
0020
0000
0000
0000
0030
0000
,
0100
0000
0001
0000
0010
0000
0100
2000
0000
0000
3000
0000
0000
0000
0000
0000
,
1000
0000
0100
0000
1000
0010
0000
0000
0100
0000
0001
0000
0010
0000
0100
0000
,
0010
0000
0001
0000
0100
0000
0001
0020
0000
0000
0030
0000
0000
0000
0000
0000
,
0100
0010
0001
0100
0001
0020
0000
0031
,
0100
0000
0010
0100
0002
0000
0003
0000
,
0100
0000
0010
0100
0000
0000
0001
0000
0100
0000
0010
0100
0000
0000
0001
0000
,
0010
0000
0001
0100
0000
0000
0010
0000
2000
0000
0000
0000
3000
0000
0000
0000
,
0100
0000
0010
0001
0000
0000
0100
0000
0010
0000
0100
0010
0000
0000
0100
0000
,
0001
0010
0100
1000
0020
0000
0030
0000
,
1000
0000
0100
0000
1000
0000
0010
0000
0200
0000
0000
0000
0300
0000
0001
0010
,
0100
0010
0100
0010
0002
0000
0003
0000
,
0100
0010
0100
0001
0020
0000
0030
0100
,
1000
0010
0100
0010
2000
0000
3000
0000
,
0100
1000
0010
1000
0200
0000
0300
1000
,
0010
1000
0100
0010
0002
0000
0103
0010
,
0100
0010
1000
0001
1000
0010
1100
0110
,
0001
0010
0001
0100
0010
1000
0202
0303
,
0010
0100
0001
0010
0100
0010
1001
0101
,
0010
0100
0001
0010
0100
0010
2002
3003
,
0100
0001
1000
0001
1000
0001
0110
1010
,
0100
0010
1000
0100
1000
0100
2020
3030
,
0100
0001
0010
0100
0010
0001
0011
1001
,
1000
0000
0001
0000
1000
0000
0001
0000
0010
0000
0100
0000
0010
0000
0100
0000
0010
0000
2002
0000
0000
3003
0000
0000
,
0100
0001
0100
0010
0100
0010
1100
0011
,
0100
0010
1000
0100
1000
0010
2200
3300
,
0010
0100
0001
0010
0100
1000
1010
0110
,
0001
0010
0100
0010
0001
1000
2002
3003
,
0100
0010
1000
0100
1000
0010
1001
0011
,
0100
1000
0010
0100
0001
0010
2002
3003
,
0001
0100
0001
0010
0100
0010
1001
0110
,
0100
0000
0001
0000
0010
0000
0100
0000
0010
0000
0001
0000
0100
0000
0010
0000
0100
0000
0202
0000
0000
0303
0000
0000
,
0010
0100
0010
1000
0100
0010
0011
1001
,
0100
0001
0010
0100
0010
0001
0220
0330
,
1000
0100
1000
0010
0100
0010
0110
1010
,
0100
0001
0010
0100
0010
0100
0022
0033
,
1000
0010
0100
0010
0100
0010
1010
1001
,
1000
0100
1000
0010
0100
0010
2200
3300
,
0010
1000
0100
1000
0010
0100
0101
0110
,
0010
1000
0010
1000
0001
0100
0001
0100
0001
1000
0010
0100
,
0001
0000
0000
0000
0010
0000
0000
0000
0100
0000
0000
0000
0010
0000
0000
0000
0001
0000
0000
0000
1000
0000
0000
0000
0100
0000
0000
0010
0000
0000
0100
0000
0000
1000
0000
0000
2002
0000
0000
0000
0000
0000
3003
0000
0000
0000
0000
0000
;
