#TITLE:Five Nights at Freddy's 2;
#SUBTITLE:The Mangle;
#ARTIST:Groundbreaking;
#BANNER:The Mangle-bn.png;
#BACKGROUND:The Mangle.png;
#CDTITLE:.\CDTITLES\HellRazoR.png;
#MUSIC:The Mangle.OGG;
#OFFSET:-0.361;
#SAMPLESTART:66.2;
#SAMPLELENGTH:12.7;
#BPMS:0=172,64=86,96=172,224=86,256=172,288=86;
#BGCHANGES:3.9=The Mangle.AVI=1=1=1=0,318=The Mangle.png=1=0=0=1;

//---------------dance-single----------------
#NOTES:
     dance-single:
     :
     Beginner:
     2:
     0.192,0.247,0,0.034,0:
0000
0000
0000
0000
,
0001
0000
0010
0000
,
0001
0000
1000
0000
,
0100
0000
1000
0000
,
0010
0010
0000
0000
,
0100
0100
0000
0000
,
1000
1000
0000
0000
,
0001
0001
0000
0000
,
0010
0000
0000
0000
,
0001
0000
0000
0000
,
1000
0000
0000
0000
,
0100
0000
0000
0000
,
1000
1000
0000
0000
,
0010
0010
0000
0000
,
0100
0100
0000
0000
,
0001
0001
0000
0000
,
1000
0000
0001
0000
,
0010
0000
0001
0000
,
1000
1000
1000
1000
,
0001
0001
0001
0001
,
1000
0000
0010
0000
,
0100
0000
0010
0000
,
1000
1000
0001
0001
,
1000
1000
0001
0001
,
1000
0000
0010
0000
,
0100
0000
0010
0000
,
1000
0000
0100
0000
,
1000
0000
0010
0000
,
0100
0000
0010
0000
,
1000
0000
0001
0000
,
1000
0000
0100
0000
,
1000
0000
0001
0000
,
0100
0100
0001
0000
,
1000
1000
0100
0000
,
1000
1000
0010
0000
,
0001
0001
0100
0000
,
0001
0001
0010
0000
,
1000
1000
0100
0000
,
1000
1000
0010
0000
,
0100
0100
0001
0000
,
1000
0000
0100
0000
,
1000
0000
0010
0000
,
0100
0000
0001
0000
,
1000
0000
0100
0000
,
1000
0000
0010
0000
,
0100
0000
0001
0000
,
1000
0000
0100
0000
,
0010
0000
0001
0000
,
0100
0000
0001
0000
,
1000
0000
0100
0000
,
1000
0000
0010
0000
,
1000
0000
0001
0000
,
0010
0000
0001
0000
,
1000
0000
0100
0000
,
1000
0000
0010
0000
,
0100
0000
0001
0000
,
1000
0000
1000
0000
,
1000
0000
1000
0000
,
0010
0010
0010
0010
,
0010
0010
0010
0010
,
0100
0001
1000
0001
,
0100
0001
1000
0001
,
1000
0001
0001
0010
,
1000
0010
1000
0100
,
0100
0010
0100
0000
,
1000
0100
1000
0000
,
0001
0100
0001
0000
,
0010
1000
0010
0000
,
0100
0001
1000
0000
,
0100
1000
0010
0000
,
1000
0001
0100
0000
,
0001
0010
0001
0000
,
2000
0000
0000
0000
,
0002
0000
0000
3003
,
0010
0001
1000
0100
,
2000
0000
0000
3000
,
0020
0000
0000
0030
,
0200
0000
0000
0300
,
0001
1000
0100
0010
,
0001
1000
0010
0000
;

//---------------dance-single----------------
#NOTES:
     dance-single:
     :
     Easy:
     4:
     0.314,0.466,0,0.214,0:
0000
0000
0000
0000
,
0001
0010
0001
0000
,
1000
0100
1000
0000
,
0010
0100
0010
0000
,
1000
1000
0001
0001
,
1000
1000
0001
0001
,
1000
1000
0001
0001
,
1000
1000
0001
0001
,
0010
0000
0010
0000
,
0001
0001
1000
0000
,
0100
0100
1000
0000
,
0010
0010
0100
0000
,
0001
1000
0100
0000
,
1000
0001
0100
0000
,
0010
1000
0001
1000
,
0100
0010
0001
0000
,
2000
0000
0000
3000
0020
0000
0000
0030
,
0200
0000
0000
0300
0002
0000
0000
0003
,
1000
0001
1000
0001
0010
0001
0010
0001
,
1000
0100
1000
0100
0010
0100
0010
0100
,
0020
0000
0000
0030
0002
0000
0000
0003
,
2000
0000
0000
3000
0020
0000
0000
0030
,
0100
0010
0100
0010
1000
0001
1000
0001
,
1000
0100
1000
0100
1000
0010
1000
0010
,
0100
0000
0000
0100
0000
0000
0001
0000
,
1000
0000
0000
1000
0000
0000
0100
0000
,
1000
0000
0000
0010
0000
0000
0100
0000
,
0010
0000
0000
1000
0000
0000
0001
0000
,
1000
0000
0000
0100
0000
0000
0010
0000
,
0001
0000
0000
0100
0000
0000
0001
0000
,
1000
0000
0000
0100
0000
0000
1000
0000
,
0010
0000
0000
0100
0000
0000
0010
0000
,
1000
0001
0001
1000
,
0100
1000
0010
0100
,
0000
0010
1000
0001
,
1000
0100
0010
0100
,
0010
0010
0001
0100
,
0001
1000
0100
1000
,
0000
0010
0100
0001
,
0100
0010
1000
0001
,
1000
1000
0100
0100
,
1000
1000
0010
0010
,
1000
0001
1000
0100
,
1000
0010
0100
0010
,
1000
1000
0001
0001
,
0010
0010
0001
0001
,
1000
0100
0010
0100
,
1000
0001
0100
0010
,
1000
0000
0001
1000
,
0100
0000
1000
0010
,
0100
0000
0100
0001
,
1000
0000
0100
0010
,
0001
0001
0100
0100
,
0001
0001
0010
0010
,
0100
1000
0001
0100
,
0010
1000
0001
0100
,
0020
0000
2030
0000
,
3020
0000
0230
0000
,
0301
0001
1000
1000
0001
0001
0010
0010
,
0001
1000
0100
1000
0001
1000
0010
0100
,
0020
0000
0230
0000
,
0302
0000
2003
0000
,
3100
0100
0010
0010
0001
0001
1000
1000
,
0010
0010
1000
1000
0010
0100
0010
0010
,
1000
0001
1000
0001
,
1000
0001
1000
0000
,
0100
0010
0100
0010
,
0100
0010
0100
0000
,
1000
0001
0100
0001
,
1000
0100
1000
0000
,
0001
0010
0001
1000
,
0010
1000
0001
0010
,
0002
0000
0000
0000
,
2000
0000
0000
3003
,
2000
3020
0230
0302
,
2000
0000
0000
0000
0000
0000
0000
3003
,
0020
0000
0000
0000
,
0230
0000
0000
0000
,
0302
0000
2000
0003
0200
3000
2000
0300
,
0020
3000
0200
0030
0301
0000
0000
0000
;

//---------------dance-single----------------
#NOTES:
     dance-single:
     :
     Medium:
     6:
     0.408,0.575,0,0.227,0:
1000
0000
0000
0000
,
0001
0010
0001
0001
,
1000
0010
0100
0100
,
0010
1000
0001
0001
,
1000
0001
1000
0000
1000
0000
1000
0000
,
0010
0100
0010
0000
1000
0000
1000
0000
,
0010
0100
0010
0000
0100
0000
0100
0000
,
0001
1000
0001
0000
1000
0000
1000
0000
,
0100
0010
0100
0000
0010
0000
0001
0000
,
0100
0001
0100
0000
0001
0000
0001
0000
,
1000
0100
1000
0000
0010
0000
0010
0000
,
1000
0010
0100
0000
0010
0000
0010
0000
,
1000
0001
1000
0000
0100
0000
1000
0000
,
0010
0100
0010
0000
1000
0000
1000
0000
,
0001
1000
0001
0000
1000
0100
1000
0000
,
0010
0100
0010
0000
0002
0000
0000
0000
,
0200
0000
0000
0003
0020
0000
0000
0300
,
2000
0000
0000
0030
0002
0000
0000
3000
,
1000
1000
1000
1003
2000
0010
0010
3010
,
0020
0100
0100
0130
0200
0001
0001
0301
,
2000
0100
0100
3100
0200
0010
0010
0310
,
0020
0001
0001
0031
0002
1000
1000
1003
,
1000
1000
0001
0001
0010
0010
0001
0001
,
1000
0100
1000
0010
1000
0001
1000
0100
,
1000
1000
0010
0100
,
0010
0010
1000
0000
,
0001
0001
0010
0001
,
1000
1000
0010
0000
,
1000
1000
0001
1000
,
0100
0100
1000
0000
,
0010
0010
0100
0010
,
1000
1000
0001
0000
,
1000
0100
1000
0010
,
1000
1000
0010
0000
,
0100
0100
0001
0100
,
0010
0010
1000
0000
,
0001
1000
0100
0100
,
1000
0010
1000
1000
,
0010
1000
0001
1000
,
0100
1000
0010
0010
,
1000
0000
0001
0000
1000
0100
1000
0000
,
0010
0000
0100
0000
0001
1000
0001
0000
,
1000
0000
0010
0000
0100
0010
0100
0000
,
0001
0000
1000
0000
0001
0010
0001
0000
,
0100
0000
0010
0000
1000
0010
1000
0000
,
0010
0000
0100
0000
0010
1000
0100
0000
,
1000
0000
0010
0000
1000
0010
1000
0000
,
0100
0000
1000
0000
1000
0100
1000
0000
,
0010
0000
0010
0000
0100
0010
0100
0000
,
0001
0000
1000
0000
0001
0100
0001
0000
,
0010
0000
0100
0000
0010
0001
0010
0000
,
0001
0000
0100
0000
0010
1000
0010
0000
,
0100
0000
0010
0000
1000
0100
1000
0000
,
0010
0000
0100
0000
0010
1000
0001
0000
,
1000
0000
0100
0000
0010
0001
0100
0000
,
0001
0000
0100
0000
0010
1000
0001
0000
,
2000
0000
0010
0000
0020
3000
0100
0000
,
0230
0001
0302
1000
,
1000
1003
1000
2000
0010
0010
0010
3010
,
0020
0100
0100
0130
0200
0001
0001
0301
,
2000
0000
0100
0000
0020
3000
0100
0000
,
2030
0000
0100
0000
3002
0000
0010
0003
,
1000
2000
0010
3020
0100
0230
0001
0301
,
1000
1000
0100
0100
1000
0010
0100
0001
,
1000
0000
1000
0000
0010
0100
0010
0000
,
1000
0000
0001
0000
0010
0001
0100
0000
,
0001
0000
1000
0000
0010
0100
0010
0000
,
1000
0000
0100
0000
0010
0001
0100
0000
,
0010
0010
1000
1000
,
0001
0001
1000
1000
,
0100
1000
0010
1000
,
0010
0100
0001
0100
,
0002
0000
1000
1000
,
2000
0000
0000
0000
0003
0000
0000
3000
,
0010
0010
0100
0100
0001
0001
1000
0100
,
2000
0000
0000
0000
0010
0000
0010
3000
,
0002
0000
0010
0000
0100
0000
0010
0003
,
0020
0000
0100
0000
0001
0000
0100
0030
,
1000
0100
0010
0100
0010
0001
0100
0100
,
0002
0000
2000
0003
3010
0000
0000
0000
;

//---------------dance-single----------------
#NOTES:
     dance-single:
     :
     Hard:
     8:
     0.558,0.822,0.048,0.200,0.031:
1000
1000
0001
0001
,
1000
0000
1000
0010
0100
0000
0010
0000
,
1000
0000
0001
0010
0001
0000
0100
0000
,
0010
0000
0010
0100
0010
0000
1000
0000
,
0100
0000
0010
0001
0100
0000
0010
0000
,
0100
0000
0001
0010
0100
0000
0010
0000
,
0001
0000
1000
0100
0010
0000
0100
0000
,
1000
0000
0001
0100
0010
0000
0100
0000
,
0001
0000
1000
0100
0010
0000
0100
1000
,
0010
0000
0100
0010
1000
0000
0001
0000
,
0100
0000
0001
0010
0100
0000
1000
0100
,
1000
0000
0100
1000
0100
0000
0010
0000
,
0001
0000
0001
0010
0001
0000
1000
0010
,
1000
0000
0001
0010
0100
0000
0010
0000
,
0001
0000
0100
0010
0100
0000
0001
1000
,
0100
0000
0010
0001
0010
0000
0001
0000
,
2000
0010
0010
0010
3020
0100
0100
0100
,
0230
0001
0001
0001
0302
1000
1000
1000
,
1003
1000
0001
0001
1000
1000
0001
0001
,
1000
1000
0001
0001
1000
1000
0001
0001
,
0020
0001
0001
0001
0032
1000
1000
1000
,
2003
0100
0100
0100
3200
0010
0010
0010
,
0310
0010
0100
0100
1000
1000
0010
0010
,
0100
0000
0010
0000
0100
0000
0010
0000
1000
0001
1000
0010
0100
0010
1000
0000
,
0001
1000
0001
0000
1000
0001
1000
0000
,
0100
0010
0001
0000
0100
0010
1000
0000
,
0100
0010
0100
0000
1000
0010
0100
0000
,
0010
1000
0100
0000
1000
0001
0100
0000
,
0010
0100
0001
0000
0010
0001
0010
0000
,
0100
0010
0001
0000
1000
0010
1000
0000
,
0001
0010
0001
0000
0100
0010
0100
0000
,
0001
0010
0100
0000
0010
0001
0100
0000
,
0010
1000
0100
0000
0010
0001
0100
0000
,
0001
0010
0001
0100
0010
0100
0010
0000
,
0010
1000
0010
0000
0100
0010
1000
0000
,
0100
0010
0001
0100
0010
0100
0001
0000
,
1000
0100
0010
0000
0100
1000
0010
0000
,
0100
0001
1000
0100
0010
0001
0100
0000
,
0010
1000
0100
0000
0010
0100
1000
0000
,
0010
0100
0010
1000
0001
1000
0100
0000
,
1000
0001
1000
0001
1000
0001
0100
0000
,
0010
0100
0001
0100
0001
1000
0001
0000
,
1000
0000
0100
0010
0100
1000
0010
0000
,
0100
0000
0010
1000
0100
1000
0010
0000
,
0100
0000
0010
1000
0100
0010
0001
0000
,
0100
0000
0010
0100
0001
1000
0100
0000
,
0010
0000
0001
0010
0100
0010
0001
0000
,
0100
0000
0010
1000
0010
0100
0010
0000
,
1000
0000
0010
0100
0010
0100
0010
0000
,
0100
0000
0001
1000
0001
1000
0001
0000
,
1000
0000
0100
0010
0100
1000
0010
0000
,
0100
0000
0010
1000
0001
1000
0001
0000
,
1000
0000
0100
0010
0001
0010
0001
0000
,
0010
0000
0100
1000
0100
1000
0100
0000
,
1000
0000
0010
0100
0010
1000
0010
0000
,
0100
0000
0010
1000
0001
1000
0100
0000
,
2000
0010
0010
0010
3020
0100
0100
0100
,
0230
0001
0001
0001
0302
1000
1000
1000
,
1003
1000
0001
0001
1000
1000
0001
0001
,
0010
0010
0001
0001
1000
1000
0100
0100
,
0020
0001
0001
0001
0032
1000
1000
1000
,
2003
0100
0100
0100
3200
1000
1000
1000
,
1300
1100
1010
1010
0110
0110
0101
0101
,
1000
0001
0010
0100
0010
0001
1000
0000
0001
1000
0100
0010
0100
1000
0001
0000
,
1000
0001
1000
0000
0100
0010
0001
0000
,
0100
0010
1000
0001
1000
0100
0010
0000
,
0100
1000
0010
0000
0100
0010
1000
0000
,
0001
1000
0100
0010
0100
1000
0010
0000
,
0100
0010
1000
0000
0001
1000
0100
0000
,
1000
0001
0100
0010
0100
0001
1000
0000
,
0100
0010
0100
0000
1000
0001
0100
0000
,
0010
1000
0001
1000
0100
0010
0001
0000
,
0002
1000
1000
1000
1000
0100
0100
0100
,
0203
0001
0001
0001
0001
0010
0010
0010
,
0320
1000
1000
1000
2030
0001
0001
0001
,
3002
0000
0010
0000
0010
0000
0010
0000
0023
0000
0100
0000
0100
0000
0100
0030
,
0200
1000
1000
1000
2300
0010
0010
0010
,
3020
0100
0100
0100
0230
0001
0001
0001
,
0302
1000
1000
1000
2003
0010
0010
0010
,
3020
0100
0100
0100
0130
0000
0000
0000
;
