#TITLE:Five Nights at Freddy's 2;
#SUBTITLE:THE PUPPET SONG;
#ARTIST:TryHardNinja;
#BANNER:THE PUPPET SONG-bn.png;
#BACKGROUND:THE PUPPET SONG.png;
#CDTITLE:.\CDTITLES\HellRazoR.png;
#MUSIC:THE PUPPET SONG.OGG;
#OFFSET:-0.253;
#SAMPLESTART:21.2;
#SAMPLELENGTH:12;
#BPMS:0=70,64=140,192=70,248=140;
#BGCHANGES:-0.2=THE PUPPET SONG.AVI=1=1=1=0,318=THE PUPPET SONG.png=1=0=0=1;

//---------------dance-single----------------
#NOTES:
     dance-single:
     :
     Beginner:
     2:
     0.139,0.161,0,0,0:
0000
0000
0000
0000
,
0000
0000
0000
0000
,
0001
0000
0010
0000
,
0001
0000
1000
0000
,
0010
0000
1000
0000
,
0010
0000
0100
0000
,
0001
0000
1000
0000
,
0100
0000
1000
0000
,
0010
1000
1000
0000
,
0001
0010
0010
0000
,
0001
0001
1000
0000
,
0100
0100
1000
0000
,
0010
0100
0010
0100
,
0010
0010
0010
0000
,
1000
0001
1000
0001
,
1000
1000
1000
0000
,
1000
0000
0001
0000
,
0010
0000
0001
0000
,
1000
0000
0100
0000
,
1000
0000
0010
0000
,
0100
0000
0010
0000
,
1000
0000
0001
0000
,
1000
0000
1000
0000
,
0001
0000
0001
0000
,
1000
0000
0100
0000
,
1000
0000
0100
0000
,
0010
0000
0100
0000
,
0010
0000
0100
0000
,
0010
0000
0001
0000
,
0010
0000
0001
0000
,
1000
0000
0001
0000
,
1000
0000
0001
0000
,
0010
0000
0001
0001
,
0100
0000
0001
0000
,
1000
0000
0001
0001
,
0100
0000
0001
0000
,
0010
0000
0001
0001
,
1000
0000
0100
0000
,
1000
0000
0010
0010
,
0100
0000
0010
0000
,
1000
0000
0001
0001
,
0100
0000
0001
0000
,
1000
0000
0010
1000
,
0010
0000
0100
0000
,
0010
0000
1000
0100
,
1000
0000
0100
0000
,
1000
0000
0010
0100
,
0010
0000
1000
0000
,
0001
0000
0100
0000
,
0001
0000
0100
0000
,
0100
0100
0010
0010
,
1000
0000
1000
0000
,
0001
0001
1000
0100
,
1000
0000
1000
0000
,
0010
0010
0100
0010
,
1000
0000
1000
0000
,
0001
1000
0001
0001
,
0010
0000
0001
0000
,
0001
0001
0001
0001
,
1000
0000
1000
0000
,
1000
1000
1000
1000
,
0010
0000
0010
0000
,
0010
0000
0100
0000
,
0010
0000
1000
0000
,
0001
0000
0001
0000
,
0010
0001
0010
0000
,
0001
0000
0001
0000
,
1000
0000
1000
0000
,
0010
0000
1000
0010
,
1000
0000
0010
0000
;

//---------------dance-single----------------
#NOTES:
     dance-single:
     :
     Easy:
     3:
     0.237,0.262,0,0.064,0:
0000
0000
0000
0000
,
0010
0000
1000
0000
,
0001
0010
0001
0000
,
1000
0100
1000
0000
,
0010
0000
1000
0000
0001
0100
0001
0000
,
1000
0000
0010
0000
0100
0010
0010
0000
,
1000
0000
0001
0000
1000
0100
0100
0000
,
1000
0000
0010
0000
0100
0100
0001
0000
,
1000
0100
1000
0000
0001
0100
0001
0000
,
0010
0001
0010
0000
1000
0010
1000
0000
,
0001
1000
0001
0000
1000
0010
1000
0000
,
0010
0100
0010
0000
0100
0001
0100
0000
,
0001
1000
0001
1000
,
0002
0000
1000
1000
,
2003
0000
0010
0010
,
0020
0000
0000
3030
1000
0000
0001
0000
,
1000
0100
1000
1000
,
0010
0000
1000
0000
,
0001
0001
0010
0001
,
0100
0000
0001
0000
,
1000
1000
0100
0010
,
0100
0000
1000
0000
,
0001
0001
0100
0010
,
0100
0000
0001
0000
,
1000
0100
1000
0100
,
1000
0100
1000
0100
,
0010
0100
0010
0100
,
0010
0100
0010
0100
,
0010
0001
0010
0001
,
0010
0001
0010
0001
,
1000
0001
1000
0001
,
1000
0001
1000
0000
0001
1000
0001
0000
,
0100
0000
0010
0000
0100
0010
0100
0000
,
0001
0000
0000
0000
1000
0001
1000
0000
,
0100
0000
0000
0000
1000
0001
1000
0000
,
0001
0000
0001
0000
0010
0001
0010
0000
,
0001
0000
0000
0000
0100
1000
0100
0000
,
1000
0000
1000
0000
0010
0100
0010
0000
,
1000
0000
0000
0000
0010
0100
0010
0000
,
1000
0000
1000
0000
0001
1000
0001
0000
,
1000
0000
0000
0000
0100
1000
0100
0000
,
1000
0000
1000
0000
0010
1000
0010
0000
,
1000
0000
0000
0000
0100
1000
0100
0000
,
1000
0000
1000
0000
0001
0100
0001
0000
,
0010
0000
0000
0000
0001
0100
0001
0000
,
1000
0000
1000
0000
0010
0100
0010
0000
,
1000
0000
0000
0000
0001
0010
0001
0000
,
0100
0000
0001
0000
0001
0010
0001
0000
,
0100
1000
0001
1000
,
0010
1000
0001
0000
,
1000
0010
1000
0001
,
0010
0000
0001
0000
1000
1000
1000
0000
,
0010
0100
0010
1000
,
0001
0000
1000
0000
0100
0100
0100
0000
,
0100
1000
0010
0000
1000
0000
0100
0000
,
1000
0001
0100
0000
0001
0000
0010
0000
,
0001
1000
0100
0000
1000
0000
0010
0000
,
0100
0010
0100
0000
0001
0000
1000
0000
,
0200
0000
0000
0300
2000
0000
0000
3000
,
0020
0000
0000
0030
0200
0000
0000
0300
,
0002
0000
0000
0003
2000
0000
0000
3000
,
0020
0000
0000
0000
0200
0000
0000
0330
,
0010
0000
0010
0000
1000
0001
1000
0000
,
0100
0000
1000
0000
,
0010
0000
0010
0000
0100
0001
0100
0000
,
0001
0000
1000
0000
,
0100
0000
0100
0000
0010
0100
0010
0000
,
0100
0000
1000
0000
,
0001
0010
0001
0000
,
1000
0100
1000
0000
;

//---------------dance-single----------------
#NOTES:
     dance-single:
     :
     Medium:
     5:
     0.391,0.469,0.157,0.174,0.006:
0000
0000
0000
0000
,
0010
1000
0001
1001
1000
0100
0010
0011
,
0001
0100
0010
1010
0100
0010
1000
1001
,
0100
0010
0001
0011
0100
0010
1000
1010
,
0001
1000
0100
0011
0100
1000
0100
0110
,
1000
0001
0100
0110
0001
1000
0001
0101
,
1000
0100
1000
0101
0010
1000
0001
0011
,
0100
1000
0001
0101
1000
1100
0010
0110
,
1000
1000
0001
1100
1000
0001
0010
0101
,
0001
0010
1000
0110
0010
1000
0001
1100
,
0100
0001
1000
0110
0010
1000
0001
0101
,
1000
0101
1000
0110
0010
1001
1000
1100
,
0010
0010
1000
1000
0001
0001
0100
0100
,
0002
0000
0013
0010
0001
1000
0001
1000
,
0020
0000
1030
1000
0001
0010
0001
1000
,
2002
0000
0000
0000
0000
0000
3003
0000
0010
0000
0010
1000
0000
1000
0001
0000
,
1000
0000
1000
0000
0010
0100
0010
0000
,
1000
0000
0001
1000
0100
1000
0010
0000
,
1000
0000
0001
0100
0001
1000
0100
0000
,
1000
0000
0010
0100
0010
1000
0001
0000
,
1000
0000
0100
0010
0100
1000
0100
0000
,
0100
0000
0001
1000
0100
1000
0010
0000
,
0100
0000
0010
1000
0001
1000
0100
0000
,
1000
0010
0100
0000
0001
1000
1000
0000
,
0100
1000
0001
0000
1000
0000
1000
0000
,
0100
0000
1000
0000
0010
0010
1000
0000
,
0010
0000
0100
0000
0010
1000
0001
0000
,
1000
0000
0001
0000
0100
0001
1000
0000
,
0100
0010
0100
0010
,
0001
0010
0001
0010
,
0001
0100
0010
0100
0001
1000
0100
0010
,
0001
0000
0001
0100
0001
0001
1000
1000
,
0001
0000
1000
0000
0100
1000
0010
0010
,
1000
0000
0001
0000
0001
1000
1000
0001
,
2000
0000
0000
3000
0010
0100
0010
1000
,
0001
0000
0001
0000
0010
0001
0100
0001
,
2000
0000
0000
3000
0010
0100
0010
0010
,
1000
0000
1000
0000
0001
0010
0001
0100
,
0002
0000
0000
0003
1000
0100
0010
0100
,
0010
0000
0010
0000
0001
0001
0100
0000
,
0200
0000
0000
0300
0001
1000
0010
0010
,
0100
0000
0100
0000
0010
1000
0010
0010
,
2000
0000
0000
3000
0001
0100
0100
0001
,
0001
0000
0001
0000
1000
0010
0100
0010
,
0020
0000
0000
0030
1000
0001
1000
0001
,
0100
0000
0100
0000
0001
0001
1000
0010
,
2000
0000
0000
3000
1000
1000
0001
0001
,
0010
0000
0010
0000
0001
0100
0001
0000
,
2000
3020
0230
0302
,
2003
0000
3020
0000
2030
0000
0000
3000
,
0001
0001
0010
0000
0001
1000
0100
0000
,
1000
1000
0001
0000
1000
1000
0010
0000
,
0100
0100
0001
0000
1000
1000
0100
0000
,
1000
1000
0010
0000
1000
0001
0100
0000
,
0001
1000
0100
1000
0001
0001
0010
0000
,
0001
1000
0001
1000
0010
0010
1000
0000
,
0001
1000
0100
1000
0100
0010
0010
0001
,
0010
0010
0001
0100
0001
0100
0010
0010
,
2000
3002
0023
0032
,
2003
0000
3010
0010
1000
0010
1000
1000
,
0002
0000
1003
1000
0100
1000
0010
0010
,
2000
0000
0002
3000
0013
0010
0001
1001
,
0001
0000
1000
0100
1000
0000
0010
0100
,
0010
0000
1000
0001
1000
0000
0100
0000
,
0010
0000
0001
0100
0001
0000
0010
0001
,
0100
0000
0010
1000
0010
0000
0100
0000
,
0100
0000
0001
1000
0100
0000
1000
0001
,
0100
0000
0010
1000
0100
0000
1000
0000
,
2000
0000
0000
0000
0002
0000
0000
3000
,
0020
0000
0000
0003
0002
0000
0000
0030
,
0000
0003
0000
0000
;

//---------------dance-single----------------
#NOTES:
     dance-single:
     :
     Hard:
     9:
     0.581,0.673,0.133,0.180,0.537:
0000
0000
0000
0000
,
0000
0000
0000
0000
,
1000
0001
0010
0001
1000
0010
1000
0100
0010
0100
1000
0010
0100
0001
1000
0001
,
0010
0100
1000
0010
1000
0001
0100
0010
1000
0100
0010
0001
0010
0100
0010
0001
,
1000
0010
0100
0010
0100
0010
1000
0100
0010
0001
0010
0001
0010
0001
1000
0100
,
1000
0010
0100
0010
1000
0100
0010
0001
0010
0100
1000
0001
0010
0100
0010
0001
,
0100
0010
1000
0010
0100
0010
1000
0001
1000
0100
0010
0100
1000
0010
1000
0010
,
1000
0001
1000
0100
0010
0100
1000
0010
0100
0010
1000
0001
1000
0100
0010
0001
,
0100
0010
0100
0001
0010
0001
0010
0001
0100
0010
1000
0100
0010
0100
0010
0001
,
0100
0010
1000
0100
0010
0100
0010
0100
1000
0010
0100
0001
0010
0100
0010
0001
,
0100
0010
1000
0100
1000
0100
1000
0010
0100
0010
1000
0001
1000
0100
0010
0100
,
0010
0100
1000
0010
1000
0001
1000
0100
0010
0001
0100
0010
1000
0100
0010
0100
,
1000
0010
0100
0010
1000
0100
1000
0100
1000
0010
0100
0001
0010
0100
0010
0001
,
0100
0010
1000
0010
0100
0010
1000
0100
0010
0001
0100
0010
1000
0001
1000
0100
,
1000
0010
0100
0010
1000
0100
0010
0001
0100
0010
1000
0100
1000
0010
0100
0010
,
1000
0100
0010
0100
1000
0010
0100
0010
1000
0100
0010
0001
0100
0010
1000
0100
,
2000
0000
0010
0000
3010
0100
0010
1000
,
0001
0000
0001
0000
0001
1000
0100
1000
,
0010
0000
0010
0000
1000
0001
1000
0100
,
0010
0000
0010
0000
0001
0100
0010
1000
,
0001
0000
0001
0000
1000
0100
0010
0100
,
1000
0000
1000
0000
0010
0100
0010
1000
,
0001
0000
0001
0010
0001
0000
0001
0100
,
1000
0000
1000
0100
0001
0000
0010
0001
,
1000
0010
0100
0010
1000
0001
1000
0010
,
0100
0010
0100
0010
0100
0010
0100
0100
,
0010
1000
0001
1000
0001
1000
0100
0010
,
0100
1000
0010
0100
0010
1000
0001
1000
,
0001
1000
0100
0010
0001
0100
0010
1000
,
0010
0100
0010
1000
0001
1000
0001
1000
,
0100
1000
0100
1000
0010
1000
0100
0010
,
0100
0000
0100
1000
0010
0000
1000
0000
0100
1000
0010
1000
0010
0000
1000
0000
,
2002
0000
3003
0000
0010
0100
0010
1000
,
1010
0000
1010
0000
0001
0010
0001
0100
,
2002
0000
3003
0000
1000
0010
0100
0010
,
0110
0000
0110
0000
0010
0100
0010
1000
,
0001
1000
0001
1000
0001
0000
0000
0000
0010
0000
0001
0000
0100
0000
0010
0000
,
0110
0000
0110
0000
1000
0001
1000
0100
,
2200
0000
3300
0000
0010
0100
0010
0001
,
1001
0000
0110
0000
0010
1000
0001
1000
,
0001
1000
0001
1000
0001
0000
0000
0000
0001
0000
0010
0000
0001
0000
0100
0000
,
0110
0000
0101
0000
0001
1000
0010
0100
,
0220
0000
0330
0000
0010
1000
0001
1000
,
1100
0000
1100
0000
1000
0010
0100
0010
,
2020
0000
0000
3030
0010
0100
0010
1000
,
1010
0000
0110
0000
0100
0001
0010
0001
,
0202
0000
0000
0303
0001
1000
0010
0100
,
0110
0000
0110
0000
0010
1000
0001
1000
,
2000
0000
0000
0000
0002
0000
0000
3000
0020
0000
0003
0000
0002
0000
0030
0000
,
2000
0003
0020
3000
0200
0330
0000
0000
,
1000
0100
0010
0100
1000
0010
1000
0001
1000
0100
0010
0100
0010
0001
0010
0100
,
0010
0001
1000
0001
0100
0010
1000
0100
1000
0010
0100
0010
1000
0100
0010
0001
,
0100
0001
0010
0001
0010
0100
1000
0010
0100
0010
1000
0100
0010
0001
0100
1000
,
0100
0001
0010
0100
0010
0001
1000
0001
1000
0100
0010
0001
1000
0100
0001
0100
,
1000
0010
0100
0001
0010
0100
0010
0001
0100
0010
1000
0010
0100
0010
1000
0001
,
1000
0100
0010
0100
1000
0010
1000
0001
0010
0001
0010
0001
1000
0100
0010
0001
,
0010
0100
0010
0100
0010
0001
1000
0010
0100
0010
0100
0010
1000
0100
0010
0100
,
1000
0100
0010
0001
0010
0100
0010
0100
1000
0010
0100
0001
0010
0100
1000
0100
,
0100
0100
1000
1000
0001
0001
0010
0010
,
0002
0000
0000
0000
0100
0000
0100
0000
2000
0000
0003
0000
0010
0000
0020
3000
,
0200
0000
0000
0330
0100
0000
0200
0000
0001
0000
0002
0300
1000
0000
1000
0003
,
2002
0000
0000
0000
3003
0000
0010
0000
1000
0000
1000
0100
0000
0100
1000
0000
,
0010
0100
0010
1000
0001
1000
0100
0000
,
1000
0010
0100
0010
1000
0100
1000
0000
,
1000
0100
0010
0100
1000
0010
0010
0000
,
0100
0010
1000
0001
1000
0100
0100
0000
,
1000
0010
1000
0001
0010
0010
0001
0000
,
1000
1000
0010
0100
0010
1000
0001
0000
,
2000
0000
0001
0001
,
3002
0000
0010
0010
,
0020
0033
0000
0000
;
